<?xml version="1.0" standalone="no"?>
<!DOCTYPE svg PUBLIC "-//W3C//DTD SVG 1.1//EN" "http://www.w3.org/Graphics/SVG/1.1/DTD/svg11.dtd" >
<svg xmlns="http://www.w3.org/2000/svg" xmlns:xlink="http://www.w3.org/1999/xlink" version="1.1">
<metadata>
Created by FontForge 20170731 at Thu Jul 27 12:30:42 2017
 By Aleksey,,,
Copyright c 2017 Hankook Tire Co.,Ltd. all rights reserved. Font designed by Sandoll Communications Inc.
</metadata>
<defs>
<font id="HankookTTFBold" horiz-adv-x="600" >
  <font-face 
    font-family="Hankook TTF Bold"
    font-weight="700"
    font-stretch="normal"
    units-per-em="1000"
    panose-1="2 11 6 0 0 1 1 1 1 1"
    ascent="800"
    descent="-200"
    x-height="553"
    cap-height="750"
    bbox="-117 -322 1623 1159"
    underline-thickness="50"
    underline-position="-150"
    unicode-range="U+000D-206F"
  />
<missing-glyph horiz-adv-x="280" 
 />
    <glyph glyph-name=".notdef" horiz-adv-x="280" 
 />
    <glyph glyph-name=".null" horiz-adv-x="0" 
 />
    <glyph glyph-name="nonmarkingreturn" unicode="&#xd;" horiz-adv-x="280" 
 />
    <glyph glyph-name="NULL" horiz-adv-x="0" 
 />
    <glyph glyph-name="NULL" horiz-adv-x="0" 
 />
    <glyph glyph-name="space" unicode=" " horiz-adv-x="270" 
 />
    <glyph glyph-name="exclam" unicode="!" horiz-adv-x="289" 
d="M238 750l-22 -510h-144l-22 510h188zM62 159h164v-159h-164v159z" />
    <glyph glyph-name="quotedbl" unicode="&#x22;" horiz-adv-x="436" 
d="M187 750l-14 -247h-113l-15 247h142zM391 750l-14 -247h-114l-14 247h142z" />
    <glyph glyph-name="numbersign" unicode="#" horiz-adv-x="744" 
d="M637 750l-37 -173h112v-120h-137l-31 -147h114v-120h-139l-40 -190h-129l40 190h-120l-40 -190h-129l40 190h-110v120h135l31 147h-110v120h135l37 173h130l-37 -173h119l37 173h129zM296 310h119l31 147h-119z" />
    <glyph glyph-name="dollar" unicode="$" horiz-adv-x="661" 
d="M369 -71h-67v85q-57 0 -125 10t-127 27v125q138 -35 249 -35h3v168l-61 14q-43 10 -77 25.5t-58 40t-37 59t-13 82.5q0 99 60 149.5t186 55.5v75h67v-75q58 -2 108.5 -9t79.5 -15v-116q-38 9 -91 14t-97 6v-172l44 -9q54 -12 91 -29.5t60 -41.5t33 -55.5t10 -72.5
q0 -48 -11.5 -86.5t-39.5 -66t-73.5 -44.5t-113.5 -22v-87zM208 538q0 -33 19.5 -49.5t74.5 -29.5v154q-28 -3 -46 -8.5t-28.5 -15t-15 -22.5t-4.5 -29zM453 217q0 15 -2.5 26t-11 19.5t-25 15.5t-45.5 15v-148q49 7 66.5 25t17.5 47z" />
    <glyph glyph-name="percent" unicode="%" horiz-adv-x="873" 
d="M125 0l488 736h135l-488 -736h-135zM389 517q0 -72 -47 -112.5t-131 -40.5q-82 0 -128.5 40.5t-46.5 112.5v66q0 72 46.5 113.5t128.5 41.5q84 0 131 -41.5t47 -113.5v-66zM270 573q0 36 -13.5 51.5t-44.5 15.5t-44.5 -15.5t-13.5 -51.5v-45q0 -36 13.5 -51.5t44.5 -15.5
t44.5 15.5t13.5 51.5v45zM837 141q0 -72 -47.5 -112.5t-129.5 -40.5q-84 0 -130 40.5t-46 112.5v66q0 72 46 113.5t130 41.5q82 0 129.5 -41.5t47.5 -113.5v-66zM719 197q0 36 -13.5 51.5t-44.5 15.5t-45 -15.5t-14 -51.5v-45q0 -36 14 -51.5t45 -15.5t44.5 15.5t13.5 51.5
v45z" />
    <glyph glyph-name="ampersand" unicode="&#x26;" horiz-adv-x="704" 
d="M226 531q0 -48 26.5 -65.5t80.5 -17.5h354v-125h-76v-296q-60 -20 -131.5 -29t-145.5 -9t-129.5 12t-93 38.5t-56 69t-18.5 104.5q0 23 5.5 48t17.5 48.5t32 43.5t50 32q-29 11 -47.5 28t-29 37.5t-14.5 43.5t-4 46q0 51 16.5 89.5t52 64.5t91.5 39t136 13q27 0 56 -2
t55.5 -6t49.5 -9t38 -11v-120q-37 10 -84 15.5t-92 5.5t-72.5 -5t-42.5 -15.5t-20 -27t-5 -40.5zM445 323h-110q-57 0 -88 -22t-31 -82q0 -24 5 -43t19.5 -31.5t40.5 -19.5t68 -7q34 0 57.5 3t38.5 6v196z" />
    <glyph glyph-name="quotesingle" unicode="'" horiz-adv-x="232" 
d="M187 750l-14 -247h-113l-15 247h142z" />
    <glyph glyph-name="parenleft" unicode="(" horiz-adv-x="398" 
d="M55 411q0 60 10.5 119.5t30 114.5t48.5 102.5t67 83.5h167q-44 -44 -73.5 -94t-47 -103.5t-25 -110t-7.5 -113.5v-147q0 -57 7.5 -114.5t25.5 -112.5t47 -106t73 -94h-167q-38 36 -67 84.5t-48.5 104.5t-30 116.5t-10.5 120.5v149z" />
    <glyph glyph-name="parenright" unicode=")" horiz-adv-x="398" 
d="M343 262q0 -60 -10.5 -120.5t-30 -116.5t-49 -104.5t-66.5 -84.5h-167q43 43 72.5 94t47.5 106t25.5 112.5t7.5 114.5v147q0 57 -7.5 113.5t-25 110t-47 103.5t-73.5 94h167q37 -36 66.5 -83.5t49 -102.5t30 -114.5t10.5 -119.5v-149z" />
    <glyph glyph-name="asterisk" unicode="*" horiz-adv-x="471" 
d="M190 468l-111 -77l-51 96l129 54l-129 54l51 96l110 -77l-15 135h123l-16 -135l111 77l51 -96l-129 -54l129 -54l-51 -96l-111 77l16 -135h-123z" />
    <glyph glyph-name="plus" unicode="+" horiz-adv-x="588" 
d="M36 414h186v194h144v-194h186v-132h-186v-207h-144v207h-186v132z" />
    <glyph glyph-name="comma" unicode="," horiz-adv-x="286" 
d="M74 162h167l-81 -310h-127z" />
    <glyph glyph-name="hyphen" unicode="-" horiz-adv-x="310" 
d="M24 219v146h262v-146h-262z" />
    <glyph glyph-name="period" unicode="." horiz-adv-x="284" 
d="M55 162h174v-162h-174v162z" />
    <glyph glyph-name="slash" unicode="/" horiz-adv-x="572" 
d="M20 -164l374 995h158l-374 -995h-158z" />
    <glyph glyph-name="zero" unicode="0" horiz-adv-x="630" 
d="M600 313q0 -162 -69.5 -242.5t-217.5 -80.5q-146 0 -214.5 80.5t-68.5 242.5v120q0 161 69 241.5t214 80.5q147 0 217 -80.5t70 -241.5v-120zM422 423q0 97 -23 141.5t-86 44.5q-60 0 -82.5 -44.5t-22.5 -141.5v-102q0 -98 23 -142t82 -44q63 0 86 44t23 142v102z" />
    <glyph glyph-name="one" unicode="1" horiz-adv-x="630" 
d="M97 0v132h163v432l-168 -78v142l237 117h117v-613h147v-132h-496z" />
    <glyph glyph-name="two" unicode="2" horiz-adv-x="630" 
d="M40 0v121l287 276q22 21 35.5 36t21 28.5t10.5 27.5t3 34v14q0 19 -5.5 33t-19.5 22t-37 12t-59 4q-23 0 -50.5 -3t-55.5 -8.5t-54.5 -12.5t-46.5 -15v143q21 8 48.5 16t57.5 14t60 9.5t56 3.5q77 0 130.5 -14t87 -40t48.5 -63t15 -82v-33q0 -33 -7 -59.5t-23 -52
t-42 -53t-64 -63.5l-163 -155h318v-140h-551z" />
    <glyph glyph-name="three" unicode="3" horiz-adv-x="630" 
d="M188 314v132h94q57 0 81.5 19.5t24.5 66.5q0 45 -26.5 64t-94.5 19q-46 0 -96.5 -10.5t-94.5 -25.5v138q18 7 44 13.5t55.5 12t61.5 9t63 3.5q139 0 200 -51t61 -150q0 -26 -5.5 -52t-19.5 -49t-37.5 -41t-58.5 -28q78 -16 109.5 -59t31.5 -112q0 -57 -16 -98.5
t-51 -69.5t-90.5 -41.5t-133.5 -13.5q-33 0 -67 3t-65 8.5t-57.5 12t-45.5 14.5v139q21 -8 48 -14.5t55.5 -11.5t58.5 -8t57 -3q38 0 63 5.5t40 17t21 29.5t6 43q0 27 -7 44.5t-22 27.5t-37 13.5t-52 3.5h-98z" />
    <glyph glyph-name="four" unicode="4" horiz-adv-x="630" 
d="M8 137v123l327 485h183v-474h94v-134h-94v-137h-171v137h-339zM347 271v269l-180 -269h180z" />
    <glyph glyph-name="five" unicode="5" horiz-adv-x="630" 
d="M84 745h458v-139h-311l-3 -140q25 4 44 5.5t46 1.5q78 0 129 -16.5t81 -44.5t42 -66t12 -80v-58q0 -106 -75 -162t-224 -56q-36 0 -72 3.5t-68.5 8.5t-60 12t-45.5 14v135q44 -16 102.5 -25t124.5 -9q75 0 108.5 23t33.5 67v29q0 53 -37 72t-117 19q-49 0 -94.5 -5
t-87.5 -13z" />
    <glyph glyph-name="six" unicode="6" horiz-adv-x="630" 
d="M36 419q0 99 25 163.5t68.5 103t101 54t122.5 15.5q56 0 107.5 -7.5t92.5 -21.5v-134q-36 10 -81.5 17t-92.5 7q-39 0 -69.5 -6.5t-51.5 -24.5t-33 -51t-15 -85q29 14 62 22.5t71 8.5q69 0 118 -14.5t80.5 -42t46 -67t14.5 -89.5v-43q0 -47 -16.5 -89.5t-50 -74.5
t-85 -51t-121.5 -19q-152 0 -222.5 82t-70.5 257v90zM325 132q31 0 51 8t32 22t17 33t5 41v23q0 47 -22.5 70t-81.5 23q-58 0 -117 -31q0 -50 5.5 -85.5t18.5 -58.5t35.5 -34t56.5 -11z" />
    <glyph glyph-name="seven" unicode="7" horiz-adv-x="630" 
d="M599 620l-293 -620h-193l302 600h-383v145h567v-125z" />
    <glyph glyph-name="eight" unicode="8" horiz-adv-x="630" 
d="M34 193q0 31 6 57.5t20.5 49t39 40t61.5 31.5q-62 26 -85.5 70.5t-23.5 106.5q0 101 69 154t203 53q142 0 208 -54.5t66 -150.5q0 -60 -25.5 -98t-85.5 -66q38 -12 63 -31t39.5 -42t20 -50t5.5 -57q0 -45 -15.5 -84.5t-49.5 -69t-88 -46t-131 -16.5q-82 0 -138.5 15
t-92 42t-51 64t-15.5 82zM293 314l-19 -10q-40 -21 -53.5 -41t-13.5 -54q0 -42 27 -62.5t84 -20.5q112 0 112 84q0 37 -20 59t-77 36zM231 550q0 -40 18.5 -58t56.5 -26l46 -10l26 12q13 6 23 13t17 16t10.5 22t3.5 32q0 37 -21.5 57.5t-79.5 20.5q-100 0 -100 -79z" />
    <glyph glyph-name="nine" unicode="9" horiz-adv-x="630" 
d="M594 326q0 -99 -25 -163.5t-68.5 -103t-101 -54t-122.5 -15.5q-50 0 -102 9.5t-94 29.5v134q45 -17 89.5 -25.5t80.5 -8.5q40 0 70.5 6.5t51.5 24.5t32.5 50.5t14.5 85.5q-29 -14 -62 -22.5t-71 -8.5q-137 0 -198 56t-61 157v43q0 47 16.5 89.5t50 74.5t85 51t121.5 19
q152 0 222.5 -82t70.5 -257v-90zM305 613q-31 0 -51 -8t-32 -22t-17 -33t-5 -41v-23q0 -47 22.5 -70t81.5 -23q60 0 117 30q0 49 -5.5 85t-18.5 59.5t-35.5 34.5t-56.5 11z" />
    <glyph glyph-name="colon" unicode=":" horiz-adv-x="284" 
d="M55 162h174v-162h-174v162zM55 540h174v-162h-174v162z" />
    <glyph glyph-name="semicolon" unicode=";" horiz-adv-x="284" 
d="M67 162h167l-81 -310h-127zM55 540h174v-162h-174v162z" />
    <glyph glyph-name="less" unicode="&#x3c;" horiz-adv-x="596" 
d="M242 371v-9l300 -132v-161l-484 231v132l484 231v-160z" />
    <glyph glyph-name="equal" unicode="=" horiz-adv-x="598" 
d="M41 403v136h516v-136h-516zM41 162v137h516v-137h-516z" />
    <glyph glyph-name="greater" unicode="&#x3e;" horiz-adv-x="596" 
d="M54 503v160l484 -231v-132l-484 -231v161l300 132v9z" />
    <glyph glyph-name="question" unicode="?" horiz-adv-x="505" 
d="M142 237v41q0 27 3.5 46.5t14.5 37.5t31 35.5t53 39.5q21 14 34.5 24.5t22 22.5t11.5 27t3 37t-5 37.5t-18 25t-35.5 13.5t-56.5 4q-43 0 -88 -9.5t-84 -24.5v125q35 16 88 27t107 11q77 0 127 -14t79 -40t40.5 -63.5t11.5 -83.5q0 -44 -10 -74.5t-25.5 -52t-34 -36.5
t-36.5 -27q-28 -20 -45 -32.5t-26 -22.5t-12 -19.5t-3 -22.5v-32h-147zM134 159h164v-159h-164v159z" />
    <glyph glyph-name="at" unicode="@" horiz-adv-x="983" 
d="M851 -130q-66 -22 -147 -34.5t-186 -12.5q-485 0 -485 390v131q0 92 31.5 165t90 123.5t142 77.5t187.5 27q109 0 196 -24t147.5 -72t93 -120.5t32.5 -169.5v-70q0 -39 -5 -81t-25.5 -77.5t-61 -58t-111.5 -22.5q-44 0 -82.5 16.5t-59.5 46.5q-26 -28 -71 -45.5
t-102 -17.5q-47 0 -80 11.5t-53.5 32.5t-30 51.5t-9.5 68.5v123q0 102 46 146t134 44q33 0 68.5 -11.5t56.5 -28.5v20l147 20v-311q0 -30 7.5 -46t33.5 -16q35 0 55.5 32.5t20.5 101.5v74q0 78 -26 130.5t-72.5 85t-110 46.5t-138.5 14q-66 0 -126 -16t-105 -50.5
t-71.5 -88.5t-26.5 -130v-120q0 -81 23 -137t68.5 -91t113 -50.5t155.5 -15.5q91 0 175 11.5t161 34.5v-107zM557 381q-11 9 -30.5 17t-42.5 8q-30 0 -45.5 -16t-15.5 -70v-84q0 -38 8 -57.5t43 -19.5q20 0 41.5 5.5t41.5 19.5v197z" />
    <glyph glyph-name="A" unicode="A" horiz-adv-x="748" 
d="M477 750l264 -750h-200l-52 162h-244l-52 -162h-186l257 750h213zM287 310h159l-48 162q-5 17 -9.5 31.5t-8 29.5t-7 31.5t-6.5 36.5q-3 -20 -6 -36t-7 -31t-8.5 -29.5t-9.5 -32.5z" />
    <glyph glyph-name="B" unicode="B" horiz-adv-x="689" 
d="M62 750h319q55 0 100 -6.5t77.5 -24.5t50.5 -49t18 -80v-58q0 -44 -20 -82t-75 -56q66 -13 93 -49t27 -87v-79q0 -54 -16.5 -88.5t-50.5 -55t-86 -28t-123 -7.5h-314v750zM245 327v-202h101q33 0 55.5 3.5t36 13t19 25.5t5.5 41v33q0 48 -23 67t-84 19h-110zM245 625
v-179h106q20 0 36 3t27 11.5t17 24t6 41.5v31q0 41 -20.5 54.5t-71.5 13.5h-100z" />
    <glyph glyph-name="C" unicode="C" horiz-adv-x="645" 
d="M596 587q-38 8 -85 12.5t-95 4.5q-55 0 -90 -10.5t-55.5 -31t-28 -51t-7.5 -70.5v-125q0 -44 7.5 -75.5t27.5 -52.5t55 -31t90 -10q42 0 92.5 4.5t99.5 18.5v-150q-22 -9 -49.5 -15t-56 -9t-56.5 -4.5t-52 -1.5q-92 0 -157 17t-106.5 55t-60.5 99t-19 150v118
q0 94 21.5 157.5t64.5 102t107 55t149 16.5q57 0 113 -6.5t91 -18.5v-148z" />
    <glyph glyph-name="D" unicode="D" horiz-adv-x="730" 
d="M62 0v750h314q82 0 141.5 -15.5t97.5 -50t56.5 -89.5t18.5 -134v-188q0 -74 -18.5 -126t-57.5 -84.5t-99 -47.5t-142 -15h-311zM244 599v-448h108q48 0 78 9.5t47 28.5t23 47.5t6 66.5v148q0 35 -6.5 62.5t-23 46.5t-46 29t-75.5 10h-111z" />
    <glyph glyph-name="E" unicode="E" horiz-adv-x="623" 
d="M577 750v-143h-332v-154h299v-142h-299v-168h347v-143h-530v750h515z" />
    <glyph glyph-name="F" unicode="F" horiz-adv-x="604" 
d="M567 750v-151h-322v-176h289v-151h-289v-272h-183v750h505z" />
    <glyph glyph-name="G" unicode="G" horiz-adv-x="710" 
d="M603 590q-38 8 -88 13t-98 5q-56 0 -92 -9t-57 -28.5t-29 -50.5t-8 -74v-136q0 -44 8.5 -75.5t30.5 -52.5t58 -31t92 -10q15 0 29.5 1t31.5 3v151h-114v134h289v-405q-54 -20 -121.5 -27.5t-134.5 -7.5q-93 0 -160.5 17t-110.5 55t-63.5 99t-20.5 150v118q0 94 22 157.5
t65.5 102t108.5 55t151 16.5q28 0 58 -2t58 -5t52.5 -8t42.5 -11v-144z" />
    <glyph glyph-name="H" unicode="H" horiz-adv-x="743" 
d="M681 750v-750h-182v303h-255v-303h-182v750h182v-285h255v285h182z" />
    <glyph glyph-name="I" unicode="I" horiz-adv-x="307" 
d="M245 0h-183v750h183v-750z" />
    <glyph glyph-name="J" unicode="J" horiz-adv-x="450" 
d="M390 750v-540q0 -57 -10.5 -98.5t-36 -68.5t-69 -40t-108.5 -13q-13 0 -32.5 1.5t-40.5 4.5t-42 7.5t-37 10.5v153q38 -13 67.5 -17t55.5 -4q38 0 54 17t16 67v520h183z" />
    <glyph glyph-name="K" unicode="K" horiz-adv-x="749" 
d="M472 380l263 -380h-215l-198 308h-77v-308h-183v750h183v-299h74l174 299h213z" />
    <glyph glyph-name="L" unicode="L" horiz-adv-x="589" 
d="M245 750v-594h326v-156h-509v750h183z" />
    <glyph glyph-name="M" unicode="M" horiz-adv-x="913" 
d="M851 0h-161v461q0 23 1.5 56.5t4.5 62.5q-3 -20 -7 -41.5t-8 -41t-7.5 -35t-6.5 -23.5l-118 -439h-183l-122 441q-3 10 -7 28t-8.5 39t-9 44t-8.5 43q4 -35 6.5 -69t2.5 -64v-462h-158v750h243l133 -488q5 -20 11 -46.5t10 -54.5q4 28 10 54t11 46l126 489h245v-750z" />
    <glyph glyph-name="N" unicode="N" horiz-adv-x="740" 
d="M678 0h-188l-212 380q-17 29 -28 55.5t-20 54.5v-490h-168v750h187l226 -409q10 -18 17.5 -36.5t17.5 -45.5v491h168v-750z" />
    <glyph glyph-name="O" unicode="O" horiz-adv-x="758" 
d="M720 311q0 -162 -90.5 -243t-250.5 -81q-79 0 -142 20t-107.5 60.5t-68 101.5t-23.5 142v128q0 81 24 141.5t68 101t107.5 61t141.5 20.5q79 0 142 -20.5t107.5 -61t68 -101t23.5 -141.5v-128zM534 423q0 97 -37 140t-118 43t-118.5 -43t-37.5 -140v-96q0 -97 37.5 -140
t118.5 -43t118 43t37 140v96z" />
    <glyph glyph-name="P" unicode="P" horiz-adv-x="663" 
d="M62 750h309q61 0 110.5 -8t84 -30t53 -60.5t18.5 -99.5v-86q0 -57 -17 -94t-51.5 -58.5t-87.5 -30.5t-124 -9h-112v-274h-183v750zM245 621v-217h81q35 0 59 3.5t38.5 13t21 27t6.5 45.5v46q0 45 -26.5 63.5t-86.5 18.5h-93z" />
    <glyph glyph-name="Q" unicode="Q" horiz-adv-x="759" 
d="M720 311q0 -90 -28 -154t-81 -105l101 -155h-176l-64 98q-46 -8 -93 -8q-79 0 -142 20t-107.5 60.5t-68 101.5t-23.5 142v128q0 81 24 141.5t68 101t107.5 61t141.5 20.5q79 0 142 -20.5t107.5 -61t68 -101t23.5 -141.5v-128zM465 277l46 -71q11 23 17 52.5t6 68.5v96
q0 97 -37 140t-118 43t-118.5 -43t-37.5 -140v-96q0 -97 36.5 -140.5t116.5 -44.5l-87 135h176z" />
    <glyph glyph-name="R" unicode="R" horiz-adv-x="699" 
d="M62 750h314q62 0 111 -8t83 -30t52 -60.5t18 -99.5v-75q0 -69 -25 -110.5t-76 -61.5l143 -305h-195l-124 281h-118v-281h-183v750zM245 621v-210h85q35 0 59 3.5t38.5 13t21 26.5t6.5 45v41q0 45 -26 63t-86 18h-98z" />
    <glyph glyph-name="S" unicode="S" horiz-adv-x="618" 
d="M590 220q0 -54 -16 -96.5t-51 -72t-91 -45.5t-136 -16q-56 0 -125 8.5t-132 31.5v146q66 -22 125 -30.5t104 -8.5q71 0 104 16t33 58q0 17 -5 29.5t-18.5 22t-38 18.5t-63.5 19l-74 19q-77 19 -122.5 72t-45.5 146q0 55 16.5 97t51 70t88.5 42t130 14q31 0 63 -1.5
t61.5 -5t54.5 -8t43 -10.5v-137q-40 10 -90.5 15t-93.5 5q-42 0 -69 -4.5t-43 -13.5t-22.5 -22.5t-6.5 -32.5q0 -20 7.5 -32t22 -21t36 -15.5t50.5 -13.5l75 -19q46 -12 79.5 -29.5t55.5 -44t32.5 -63.5t10.5 -87z" />
    <glyph glyph-name="T" unicode="T" horiz-adv-x="675" 
d="M22 594v156h631v-156h-224v-594h-183v594h-224z" />
    <glyph glyph-name="U" unicode="U" horiz-adv-x="756" 
d="M237 750v-423q0 -51 8 -84.5t25.5 -53.5t44.5 -28t65 -8q39 0 65.5 8t42.5 28t23 53.5t7 84.5v423h184v-473q0 -154 -82 -222t-240 -68q-164 0 -245 68t-81 222v473h183z" />
    <glyph glyph-name="V" unicode="V" horiz-adv-x="736" 
d="M205 750l132 -429q6 -20 10.5 -37.5t9 -36.5t8 -40t8.5 -48q4 27 8.5 48.5t9 40.5t9.5 36.5t11 36.5l135 429h185l-253 -750h-213l-260 750h200z" />
    <glyph glyph-name="W" unicode="W" horiz-adv-x="1032" 
d="M538 401q-7 32 -12.5 78.5t-10.5 91.5q-7 -46 -13.5 -92t-13.5 -78l-84 -401h-222l-172 750h185l77 -395q8 -42 14.5 -83.5t12.5 -89.5q8 49 15 89t16 84l81 395h204l87 -395q9 -41 14 -78.5t10 -88.5q7 45 14.5 85t15.5 82l83 395h183l-186 -750h-213z" />
    <glyph glyph-name="X" unicode="X" horiz-adv-x="769" 
d="M431 178q-17 29 -29 56t-23 62q-13 -39 -26 -65t-28 -53l-97 -178h-206l226 386l-208 364h214l88 -168q9 -16 14.5 -28t11 -24.5t11 -26.5t13.5 -35q8 20 14.5 34.5t13 27t13.5 24.5t15 29l84 167h203l-214 -365l226 -385h-216z" />
    <glyph glyph-name="Y" unicode="Y" horiz-adv-x="699" 
d="M443 295v-295h-183v293l-249 457h195l92 -188q16 -33 29.5 -64.5t29.5 -75.5q14 44 26.5 75.5t28.5 64.5l91 188h185z" />
    <glyph glyph-name="Z" unicode="Z" horiz-adv-x="655" 
d="M305 222q-8 -10 -14.5 -18t-14 -16.5t-17.5 -19t-23 -24.5h387v-144h-593v137l309 392q19 23 34 41t32 37h-360v143h566v-136z" />
    <glyph glyph-name="bracketleft" unicode="[" horiz-adv-x="456" 
d="M70 831h364v-133h-194v-729h194v-133h-364v995z" />
    <glyph glyph-name="backslash" unicode="\" horiz-adv-x="572" 
d="M394 -164l-374 995h158l374 -995h-158z" />
    <glyph glyph-name="bracketright" unicode="]" horiz-adv-x="456" 
d="M386 -164h-364v133h194v729h-194v133h364v-995z" />
    <glyph glyph-name="asciicircum" unicode="^" horiz-adv-x="588" 
d="M225 747h139l187 -307h-156l-98 154h-7l-98 -154h-155z" />
    <glyph glyph-name="underscore" unicode="_" horiz-adv-x="441" 
d="M0 -27h441v-135h-441v135z" />
    <glyph glyph-name="grave" unicode="`" 
d="M427 601h-154l-117 147h180z" />
    <glyph glyph-name="a" unicode="a" horiz-adv-x="568" 
d="M522 0h-132l-16 50q-30 -25 -81.5 -42.5t-106.5 -17.5q-77 0 -118.5 36t-41.5 120v38q0 47 17 78t50.5 49.5t82.5 26t113 7.5h62v30q0 21 -3.5 35t-13 22t-26 11t-42.5 3q-15 0 -36 -2t-45 -6.5t-49 -10.5t-47 -15v122q21 7 47 13t53 10.5t52.5 7t46.5 2.5
q67 0 112 -13.5t72 -39t38.5 -62.5t11.5 -85v-367zM351 240h-66q-38 0 -62.5 -13t-24.5 -54v-11q0 -28 11.5 -40t40.5 -12q23 0 52.5 8t48.5 25v97z" />
    <glyph glyph-name="b" unicode="b" horiz-adv-x="631" 
d="M393 567q49 0 86 -14t61.5 -39t36.5 -58t12 -72v-172q0 -115 -56.5 -168.5t-168.5 -53.5q-48 0 -90 14t-73 37l-10 -41h-135v744l178 30v-252q32 21 73 33t86 12zM234 159q16 -12 43 -21t56 -9q42 0 60 22.5t18 77.5v116q0 45 -17.5 64.5t-55.5 19.5q-26 0 -55 -10
t-49 -26v-234z" />
    <glyph glyph-name="c" unicode="c" horiz-adv-x="531" 
d="M488 420q-24 7 -60.5 12.5t-78.5 5.5q-76 0 -106 -29.5t-30 -97.5v-67q0 -36 7 -60t23.5 -38t43 -20t64.5 -6q33 0 70 5t77 19v-129q-17 -7 -40 -12t-47.5 -8.5t-47.5 -5t-41 -1.5q-143 0 -213.5 58.5t-70.5 190.5v72q0 69 18.5 118t54.5 80t88.5 45.5t121.5 14.5
q21 0 44 -1.5t45.5 -4.5t42.5 -7.5t35 -10.5v-123z" />
    <glyph glyph-name="d" unicode="d" horiz-adv-x="631" 
d="M231 -10q-97 0 -143 50t-46 132v172q0 60 17 102.5t47 69t70.5 39t87.5 12.5q42 0 74.5 -6.5t58.5 -18.5v202l178 30v-774h-141l-14 49q-71 -59 -189 -59zM397 406q-16 11 -39 17t-46 6q-43 0 -67.5 -20.5t-24.5 -78.5v-118q0 -39 13.5 -61.5t52.5 -22.5q27 0 56.5 8
t54.5 27v243z" />
    <glyph glyph-name="e" unicode="e" horiz-adv-x="593" 
d="M559 219h-349v-11q0 -58 35.5 -77t103.5 -19q34 0 79.5 6t84.5 20v-118q-16 -8 -38.5 -13.5t-48 -9.5t-51.5 -6t-49 -2q-144 0 -216 60t-72 192v70q0 69 21 117.5t56.5 79.5t83 45t100.5 14q58 0 106 -13t82 -44.5t53 -83.5t19 -129v-78zM393 323v21q0 46 -21.5 72
t-69.5 26q-45 0 -68.5 -26t-23.5 -74v-19h183z" />
    <glyph glyph-name="f" unicode="f" horiz-adv-x="436" 
d="M278 553h139v-126h-139v-427h-178v427h-90v126h90v69q0 69 45 112t145 43q38 0 75.5 -4t60.5 -10v-113q-17 3 -35.5 5t-37.5 2q-48 0 -61.5 -16t-13.5 -55v-33z" />
    <glyph glyph-name="g" unicode="g" horiz-adv-x="631" 
d="M248 -6q-56 0 -95 13.5t-64 38.5t-36 59t-11 75v164q0 60 16.5 102.5t46.5 69t70.5 39t88.5 12.5q38 0 80 -9t82 -36l12 31h137v-544q0 -57 -13 -100.5t-44.5 -72.5t-85 -44t-135.5 -15q-43 0 -83 5t-69 12v124q32 -8 68 -12t72 -4q62 0 87 18t25 65v45q-29 -18 -67 -27
t-82 -9zM397 402q-17 14 -40 21t-46 7q-43 0 -67 -20.5t-24 -78.5v-115q0 -44 17 -64t59 -20q59 0 101 21v249z" />
    <glyph glyph-name="h" unicode="h" horiz-adv-x="614" 
d="M562 0h-178v357q0 35 -9 51t-42 16q-23 0 -49.5 -8.5t-49.5 -22.5v-393h-178v744l178 30v-250q34 20 75.5 31.5t79.5 11.5q48 0 81 -13t53.5 -36t29.5 -54.5t9 -68.5v-395z" />
    <glyph glyph-name="i" unicode="i" horiz-adv-x="290" 
d="M234 0h-178v553h178v-553zM234 625h-178v163h178v-163z" />
    <glyph glyph-name="j" unicode="j" horiz-adv-x="316" 
d="M256 553v-585q0 -59 -12.5 -96t-37 -58t-60.5 -29t-82 -8q-42 0 -76.5 4t-64.5 11v138q25 -5 46.5 -6.5t40.5 -1.5t32 2.5t21 10.5t11.5 22.5t3.5 39.5v556h178zM256 625h-178v163h178v-163z" />
    <glyph glyph-name="k" unicode="k" horiz-adv-x="616" 
d="M234 774v-409h51l123 188h196l-172 -254l182 -299h-211l-123 225h-46v-225h-178v744z" />
    <glyph glyph-name="l" unicode="l" horiz-adv-x="290" 
d="M56 0v744l178 30v-774h-178z" />
    <glyph glyph-name="m" unicode="m" horiz-adv-x="917" 
d="M865 0h-177v356q0 34 -9.5 50t-38.5 16q-22 0 -45.5 -8t-45.5 -22v-392h-177v356q0 35 -8.5 51.5t-39.5 16.5q-22 0 -46 -8.5t-46 -23.5v-392h-176v553h132l12 -47q40 31 86.5 45.5t89.5 14.5q54 0 88 -15t54 -41q42 29 88 42.5t86 13.5q49 0 82.5 -13t53.5 -35.5
t28.5 -54t8.5 -68.5v-395z" />
    <glyph glyph-name="n" unicode="n" horiz-adv-x="614" 
d="M562 0h-178v357q0 35 -9.5 51t-41.5 16q-23 0 -50.5 -8t-49.5 -24v-392h-177v553h132l12 -47q42 30 92 45.5t92 15.5q51 0 85 -13t54.5 -36t29.5 -54.5t9 -68.5v-395z" />
    <glyph glyph-name="o" unicode="o" horiz-adv-x="616" 
d="M308 -13q-134 0 -202 62t-68 188v80q0 121 68 185.5t202 64.5t202 -64.5t68 -185.5v-80q0 -126 -68 -188t-202 -62zM308 432q-45 0 -68.5 -26.5t-23.5 -95.5v-66q0 -69 23.5 -95.5t68.5 -26.5t68.5 26.5t23.5 95.5v66q0 69 -23.5 95.5t-68.5 26.5z" />
    <glyph glyph-name="p" unicode="p" horiz-adv-x="631" 
d="M395 567q87 0 140.5 -46.5t53.5 -136.5v-172q0 -115 -57 -168.5t-174 -53.5q-23 0 -57 4t-67 15v-225h-178v769h132l17 -43q51 31 97 44t93 13zM234 137q26 -7 46 -9t42 -2q45 0 67 22t22 74v121q0 45 -16.5 65.5t-56.5 20.5q-26 0 -52.5 -9t-51.5 -25v-258z" />
    <glyph glyph-name="q" unicode="q" horiz-adv-x="631" 
d="M248 -10q-56 0 -95 13.5t-64 38.5t-36 59t-11 75v168q0 60 16.5 102.5t46.5 69t70.5 39t88.5 12.5q38 0 80 -9t82 -36l12 31h137v-769h-178v242q-29 -18 -67 -27t-82 -9zM397 402q-17 14 -40 21t-46 7q-43 0 -67 -20.5t-24 -78.5v-119q0 -44 17 -64t59 -20q59 0 101 21
v253z" />
    <glyph glyph-name="r" unicode="r" horiz-adv-x="426" 
d="M408 399q-50 -1 -97 -13.5t-78 -35.5v-350h-177v553h130l13 -77q35 36 85.5 62t123.5 29v-168z" />
    <glyph glyph-name="s" unicode="s" horiz-adv-x="500" 
d="M476 168q0 -38 -11.5 -70.5t-38.5 -56.5t-71 -37.5t-108 -13.5q-48 0 -107.5 8.5t-107.5 24.5v127q63 -20 115 -25.5t81 -5.5q54 0 72 9t18 33q0 11 -2.5 18t-10 12.5t-21.5 9.5t-37 10l-62 15q-44 11 -72.5 27t-46 37.5t-24.5 49t-7 61.5q0 85 54.5 125.5t175.5 40.5
q55 0 100.5 -7t70.5 -14v-122q-15 4 -35 8t-41.5 7t-42.5 4.5t-38 1.5q-27 0 -44.5 -2t-27.5 -7t-13.5 -12.5t-3.5 -17.5q0 -11 2.5 -17.5t11 -11t23 -9t38.5 -10.5l64 -17q45 -12 73.5 -26.5t45 -34.5t22.5 -47.5t6 -64.5z" />
    <glyph glyph-name="t" unicode="t" horiz-adv-x="442" 
d="M422 429h-147v-240q0 -39 11 -53t45 -14q24 0 47.5 4t43.5 14v-117q-31 -17 -73 -25t-85 -8q-88 0 -127.5 37t-39.5 115v287h-87v124h87v115l178 34v-149h147v-124z" />
    <glyph glyph-name="u" unicode="u" horiz-adv-x="612" 
d="M52 553h178v-357q0 -35 9 -52t40 -17q23 0 50 9t49 24v393h178v-553h-132l-13 47q-42 -32 -92.5 -45.5t-92.5 -13.5q-51 0 -84.5 13t-53.5 35.5t-28 54t-8 68.5v394z" />
    <glyph glyph-name="v" unicode="v" horiz-adv-x="574" 
d="M391 0h-208q-45 140 -88.5 276.5t-88.5 276.5h183l86 -323q5 -20 9 -37t9 -48q6 32 10 50.5t8 34.5l81 323h176z" />
    <glyph glyph-name="w" unicode="w" horiz-adv-x="881" 
d="M178 553l72 -292q6 -23 9 -47.5t7 -53.5h3q2 25 5 51.5t9 49.5l76 292h170l77 -292q6 -23 10 -46t8 -55h2q3 32 7 55t10 46l77 292h147l-152 -553h-179l-78 285q-7 25 -9.5 55t-5.5 65h-2q-3 -35 -6.5 -65t-10.5 -55l-75 -285h-179l-156 553h164z" />
    <glyph glyph-name="x" unicode="x" horiz-adv-x="604" 
d="M205 553l49 -83q12 -21 25 -45t25 -54q11 27 22 51.5t23 45.5l48 85h181l-167 -261l180 -292h-191l-47 81q-16 26 -29.5 53t-24.5 54q-8 -27 -22.5 -53.5t-30.5 -52.5l-49 -82h-184l178 272l-176 281h190z" />
    <glyph glyph-name="y" unicode="y" horiz-adv-x="602" 
d="M596 553l-273 -766h-187l75 214l-205 552h182l92 -291q8 -26 15 -53t14 -68q9 42 15 68.5t14 51.5l85 292h173z" />
    <glyph glyph-name="z" unicode="z" horiz-adv-x="521" 
d="M484 448l-187 -255q-14 -19 -29 -36t-32 -36h262v-121h-472v105l187 253q13 17 28 37t32 37h-236v121h447v-105z" />
    <glyph glyph-name="braceleft" unicode="{" horiz-adv-x="490" 
d="M24 413q106 0 106 77v168q0 85 43 129t139 44h158v-133h-100q-38 0 -56 -15t-18 -53v-148q0 -21 -4.5 -42.5t-16 -40t-30.5 -32.5t-48 -20q29 -6 48 -20t30.5 -32.5t16 -40t4.5 -42.5v-174q0 -38 18 -53t56 -15h100v-133h-158q-94 0 -138 44t-44 129v194q0 77 -106 77
v132z" />
    <glyph glyph-name="bar" unicode="|" horiz-adv-x="340" 
d="M239 -164h-138v995h138v-995z" />
    <glyph glyph-name="braceright" unicode="}" horiz-adv-x="490" 
d="M466 281q-106 0 -106 -77v-194q0 -85 -44 -129t-138 -44h-158v133h100q38 0 56 15t18 53v174q0 21 4.5 42.5t16 40t30.5 32.5t48 20q-29 6 -48 20t-30.5 32.5t-16 40t-4.5 42.5v148q0 38 -18 53t-56 15h-100v133h158q96 0 139 -44t43 -129v-168q0 -77 106 -77v-132z" />
    <glyph glyph-name="asciitilde" unicode="~" horiz-adv-x="591" 
d="M389 243q-35 0 -59 9t-42.5 19.5t-35 19.5t-36.5 9q-26 0 -36 -16.5t-15 -43.5h-136q4 34 14 70.5t29.5 66.5t51 49t78.5 19q34 0 58 -9t43.5 -19.5t36.5 -19.5t36 -9q29 0 38 16t14 44h134q-3 -37 -12 -73.5t-28 -66t-51.5 -47.5t-81.5 -18z" />
    <glyph glyph-name="uni00A0" unicode="&#xa0;" horiz-adv-x="0" 
 />
    <glyph glyph-name="exclamdown" unicode="&#xa1;" horiz-adv-x="289" 
d="M50 -165l22 510h144l22 -510h-188zM226 426h-164v159h164v-159z" />
    <glyph glyph-name="cent" unicode="&#xa2;" horiz-adv-x="532" 
d="M493 529q-19 5 -47.5 9t-60.5 6v-325q27 2 57.5 7t60.5 16v-124q-22 -9 -54 -15t-64 -9v-94h-90v91q-131 5 -195 65t-64 184v72q0 129 68 190.5t191 66.5v81h90v-83q31 -3 59.5 -8t48.5 -13v-117zM203 347q0 -58 21 -87t71 -37v317q-50 -10 -71 -40.5t-21 -85.5v-67z" />
    <glyph glyph-name="sterling" unicode="&#xa3;" horiz-adv-x="583" 
d="M35 321v110h68v56q0 139 68.5 207.5t213.5 68.5q25 0 61 -3.5t65 -12.5v-149q-17 7 -43 12t-59 5q-28 0 -51.5 -6.5t-40 -21t-26 -38t-9.5 -58.5v-60h198v-110h-198q0 -29 -4 -51.5t-11.5 -42t-19.5 -37.5t-28 -37h347v-153h-540v112q22 18 37 35.5t24 39t12.5 51
t3.5 71.5v12h-68z" />
    <glyph glyph-name="currency" unicode="&#xa4;" horiz-adv-x="728" 
d="M584 488q28 -56 28 -123q0 -35 -7.5 -66t-21.5 -58l85 -84l-91 -91l-81 81q-58 -35 -132 -35q-38 0 -70.5 9t-61.5 26l-81 -81l-91 91l85 85q-28 53 -28 123q0 69 27 122l-84 85l91 91l81 -81q28 17 61 26t71 9q37 0 70 -9t62 -26l81 81l91 -91zM364 242q53 0 83.5 34.5
t30.5 88.5t-30.5 88t-83.5 34q-52 0 -82.5 -34t-30.5 -88t30.5 -88.5t82.5 -34.5z" />
    <glyph glyph-name="yen" unicode="&#xa5;" horiz-adv-x="702" 
d="M85 329v106h98l-170 315h190l94 -204q16 -34 30 -65t30 -75q14 44 27.5 75t28.5 65l93 204h180l-169 -315h104v-106h-160l-18 -34v-32h178v-106h-178v-157h-183v157h-175v106h175v30l-20 36h-155z" />
    <glyph glyph-name="brokenbar" unicode="&#xa6;" horiz-adv-x="340" 
d="M239 216v-380h-138v380h138zM101 451v380h138v-380h-138z" />
    <glyph glyph-name="section" unicode="&#xa7;" horiz-adv-x="555" 
d="M40 302q0 39 20 80t69 68q-21 24 -29.5 53.5t-8.5 62.5q0 41 13 73.5t41 55t71.5 34.5t104.5 12q55 0 100.5 -7t70.5 -14v-118q-30 8 -71.5 14.5t-85.5 6.5q-55 0 -74 -16t-19 -37q0 -22 15.5 -37t63.5 -28l64 -17q45 -12 73.5 -30.5t45 -41.5t22.5 -49.5t6 -53.5
q0 -20 -5 -40.5t-15.5 -40t-27.5 -37t-41 -30.5q20 -25 29 -54t9 -62q0 -82 -54.5 -128.5t-175.5 -46.5q-55 0 -100.5 7t-70.5 14v118q30 -8 71.5 -14.5t85.5 -6.5q55 0 74 16t19 37q0 22 -15.5 37t-63.5 28l-64 17q-45 12 -73.5 30.5t-45 41.5t-22.5 49.5t-6 53.5zM378 303
q0 13 -2.5 22.5t-10.5 17t-23 13.5t-39 13l-47 12q-40 -7 -51 -26.5t-11 -42.5q0 -14 2.5 -23t10.5 -16.5t23 -13.5t39 -13l46 -13q20 3 32.5 10t19 16.5t9 20.5t2.5 23z" />
    <glyph glyph-name="dieresis" unicode="&#xa8;" 
d="M144 738h116v-126h-116v126zM340 738h116v-126h-116v126z" />
    <glyph glyph-name="copyright" unicode="&#xa9;" horiz-adv-x="824" 
d="M419 32q65 0 119.5 22.5t94 62.5t61.5 96t22 122q0 67 -22 122.5t-62 95.5t-94.5 62t-118.5 22t-118 -22t-93.5 -62t-61.5 -95.5t-22 -122.5q0 -66 22 -122t61.5 -96t93.5 -62.5t118 -22.5zM419 -40q-82 0 -150.5 29.5t-117.5 80.5t-76.5 119t-27.5 146t27.5 146
t76.5 118.5t117.5 80t150.5 29.5q83 0 152 -29.5t118.5 -80t76.5 -118.5t27 -146t-27.5 -146t-77 -119t-118 -80.5t-151.5 -29.5zM569 433q-17 5 -43.5 9t-58.5 4q-49 0 -70 -20t-21 -70v-44q0 -26 5 -43t16.5 -26.5t29 -13t42.5 -3.5q24 0 51 3t56 14v-100q-12 -5 -28.5 -9
t-34.5 -6.5t-35.5 -4t-30.5 -1.5q-100 0 -153.5 44.5t-53.5 141.5v47q0 100 55.5 145.5t150.5 45.5q32 0 66.5 -4.5t56.5 -13.5v-95z" />
    <glyph glyph-name="ordfeminine" unicode="&#xaa;" horiz-adv-x="504" 
d="M454 289h-117l-14 42q-26 -21 -65 -36t-91 -15q-66 0 -101.5 31t-35.5 104v31q0 81 57.5 111t167.5 30h47v20q0 16 -2 26.5t-9 17t-20 9t-35 2.5q-26 0 -70 -7t-82 -22v113q36 12 83 20t87 8q58 0 96.5 -11.5t61.5 -33t32.5 -53.5t9.5 -73v-314zM302 490h-50
q-33 0 -50.5 -8.5t-17.5 -40.5v-10q0 -24 11 -33t31 -9q18 0 39 4.5t37 17.5v79z" />
    <glyph glyph-name="guillemotleft" unicode="&#xab;" horiz-adv-x="599" 
d="M25 245v60l175 194h143l-182 -220v-5l182 -226h-143zM256 245v60l175 194h143l-182 -220v-5l182 -226h-143z" />
    <glyph glyph-name="logicalnot" unicode="&#xac;" 
d="M53 398h487v-290h-116v181h-371v109z" />
    <glyph glyph-name="uni00AD" unicode="&#xad;" horiz-adv-x="833" 
 />
    <glyph glyph-name="registered" unicode="&#xae;" horiz-adv-x="630" 
d="M314 232q44 0 81 16t64 43.5t42 65.5t15 83t-15.5 83t-42.5 65.5t-64 43t-80 15.5t-79.5 -15.5t-63.5 -43t-42 -65.5t-15 -83t15 -83t42 -65.5t63.5 -43.5t79.5 -16zM313 170q-59 0 -108.5 21t-85 58t-55 86t-19.5 105t19.5 105t55 86t85 58t108.5 21q60 0 110 -21
t85.5 -58t55 -86t19.5 -105t-19.5 -105t-55.5 -86t-85.5 -58t-109.5 -21zM209 584h110q23 0 43 -3t35 -11.5t23.5 -23.5t8.5 -38v-24q0 -51 -38 -70l54 -114h-86l-41 98h-29v-98h-80v284zM289 527v-70h22q19 0 28 5.5t9 23.5v13q0 17 -8 22.5t-24 5.5h-27z" />
    <glyph glyph-name="macron" unicode="&#xaf;" 
d="M147 735h306v-110h-306v110z" />
    <glyph glyph-name="degree" unicode="&#xb0;" horiz-adv-x="413" 
d="M206 504q32 0 52 19.5t20 52.5q0 32 -20 52.5t-52 20.5t-51.5 -20.5t-19.5 -52.5q0 -33 19.5 -52.5t51.5 -19.5zM206 417q-36 0 -66 13t-51.5 35t-34 50.5t-12.5 60.5t12.5 61t34 50.5t51.5 34t66 12.5t66.5 -12.5t52.5 -34t34 -50.5t12 -61t-12 -60.5t-34 -50.5
t-52.5 -35t-66.5 -13z" />
    <glyph glyph-name="plusminus" unicode="&#xb1;" horiz-adv-x="586" 
d="M35 144h186v157h-186v132h186v176h144v-176h186v-132h-186v-157h186v-132h-516v132z" />
    <glyph glyph-name="twosuperior" unicode="&#xb2;" horiz-adv-x="420" 
d="M30 289v92l165 159q20 20 27 32.5t8 31.5v9q0 23 -13 37t-54 14q-27 0 -57.5 -6.5t-56.5 -17.5v109q27 11 68 18t75 7q99 0 140 -35.5t41 -93.5v-17q0 -21 -3.5 -39t-13 -35.5t-25 -36.5t-39.5 -42l-79 -75h172v-111h-355z" />
    <glyph glyph-name="threesuperior" unicode="&#xb3;" horiz-adv-x="405" 
d="M113 482v101h54q39 0 50.5 8t11.5 32t-11 33.5t-51 9.5q-29 0 -62.5 -6t-62.5 -16v106q24 10 65 17t80 7q97 0 139.5 -31t42.5 -102q0 -14 -2.5 -29.5t-10 -30.5t-21.5 -27.5t-37 -19.5q47 -11 66 -38.5t19 -74.5q0 -72 -45.5 -106.5t-156.5 -34.5q-42 0 -85 7.5
t-67 15.5v107q31 -11 69.5 -16t70.5 -5q42 0 58 10t16 39t-15.5 36.5t-61.5 7.5h-53z" />
    <glyph glyph-name="acute" unicode="&#xb4;" 
d="M264 748h180l-117 -147h-154z" />
    <glyph glyph-name="mu" unicode="&#xb5;" horiz-adv-x="595" 
d="M48 553h176v-354q0 -72 64 -72q28 0 49 9.5t39 23.5v393h176v-553h-130l-13 47q-14 -20 -42.5 -39.5t-70.5 -19.5q-20 0 -41 8.5t-31 26.5v-239h-176v769z" />
    <glyph glyph-name="paragraph" unicode="&#xb6;" horiz-adv-x="586" 
d="M526 750v-872h-123v761h-57v-761h-123v449q-51 1 -88.5 15.5t-62 40.5t-36.5 61.5t-12 78.5v41q0 88 57 137t162 49h283z" />
    <glyph glyph-name="periodcentered" unicode="&#xb7;" horiz-adv-x="284" 
d="M55 440h174v-162h-174v162z" />
    <glyph glyph-name="cedilla" unicode="&#xb8;" 
d="M295 -273q-20 0 -47 2t-49 6v84q15 -2 35 -3.5t45 -1.5q35 0 50.5 10.5t15.5 24.5v8q0 17 -15.5 26.5t-61.5 9.5h-26v138h108v-78q33 -3 54.5 -11.5t34 -21.5t17.5 -30.5t5 -37.5v-8q0 -62 -43 -89.5t-123 -27.5z" />
    <glyph glyph-name="onesuperior" unicode="&#xb9;" horiz-adv-x="410" 
d="M35 289v104h106v240l-109 -50v110l151 74h99v-374h91v-104h-338z" />
    <glyph glyph-name="ordmasculine" unicode="&#xba;" horiz-adv-x="534" 
d="M266 280q-113 0 -172 53t-59 160v68q0 103 59 158t172 55q115 0 174 -55t59 -158v-68q0 -107 -59 -160t-174 -53zM266 654q-38 0 -55.5 -21.5t-17.5 -78.5v-54q0 -57 17.5 -78.5t55.5 -21.5q39 0 56.5 21.5t17.5 78.5v54q0 57 -17.5 78.5t-56.5 21.5z" />
    <glyph glyph-name="guillemotright" unicode="&#xbb;" horiz-adv-x="599" 
d="M399 48h-143l182 226v5l-182 220h143l175 -194v-60zM168 48h-143l182 226v5l-182 220h143l175 -194v-60z" />
    <glyph glyph-name="onequarter" unicode="&#xbc;" horiz-adv-x="962" 
d="M518 4v94l202 303h155v-302h61v-95h-61v-81h-129v81h-228zM746 99v168l-111 -168h111zM35 289v104h106v240l-109 -50v110l151 74h99v-374h91v-104h-338zM167 -80l559 853h137l-559 -853h-137z" />
    <glyph glyph-name="onehalf" unicode="&#xbd;" horiz-adv-x="996" 
d="M35 289v104h106v240l-109 -50v110l151 74h99v-374h91v-104h-338zM167 -80l559 853h137l-559 -853h-137zM615 -77v92l165 159q20 20 27 32.5t8 31.5v9q0 23 -13 37t-54 14q-27 0 -57.5 -6.5t-56.5 -17.5v109q27 11 68 18t75 7q99 0 140 -35.5t41 -93.5v-17q0 -21 -3.5 -39
t-13 -35.5t-25 -36.5t-39.5 -42l-79 -75h172v-111h-355z" />
    <glyph glyph-name="threequarters" unicode="&#xbe;" horiz-adv-x="962" 
d="M518 4v94l202 301h155v-300h61v-95h-61v-81h-129v81h-228zM167 -80l559 853h137l-559 -853h-137zM113 482v101h54q39 0 50.5 8t11.5 32t-11 33.5t-51 9.5q-29 0 -62.5 -6t-62.5 -16v106q24 10 65 17t80 7q97 0 139.5 -31t42.5 -102q0 -14 -2.5 -29.5t-10 -30.5
t-21.5 -27.5t-37 -19.5q47 -11 66 -38.5t19 -74.5q0 -72 -45.5 -106.5t-156.5 -34.5q-42 0 -85 7.5t-67 15.5v107q31 -11 69.5 -16t70.5 -5q42 0 58 10t16 39t-15.5 36.5t-61.5 7.5h-53zM746 99v166l-111 -166h111z" />
    <glyph glyph-name="questiondown" unicode="&#xbf;" horiz-adv-x="517" 
d="M379 348v-41q0 -27 -3.5 -46.5t-14.5 -37.5t-31 -35.5t-53 -39.5q-21 -14 -34.5 -24.5t-22 -22.5t-11.5 -27t-3 -37q0 -23 5 -38t18 -24.5t35 -13.5t57 -4q43 0 88 9.5t84 24.5v-125q-35 -16 -88 -27t-107 -11q-77 0 -127 14t-79 40t-40.5 63t-11.5 84q0 43 10 74
t25.5 52.5t34 36.5t36.5 27q28 20 45 32.5t26 22.5t12 19t3 23v32h147zM387 426h-164v159h164v-159z" />
    <glyph glyph-name="Agrave" unicode="&#xc0;" horiz-adv-x="748" 
d="M477 750l264 -750h-200l-52 162h-244l-52 -162h-186l257 750h213zM287 310h159l-48 162q-5 17 -9.5 31.5t-8 29.5t-7 31.5t-6.5 36.5q-3 -20 -6 -36t-7 -31t-8.5 -29.5t-9.5 -32.5zM446 801h-154l-117 147h180z" />
    <glyph glyph-name="Aacute" unicode="&#xc1;" horiz-adv-x="748" 
d="M477 750l264 -750h-200l-52 162h-244l-52 -162h-186l257 750h213zM287 310h159l-48 162q-5 17 -9.5 31.5t-8 29.5t-7 31.5t-6.5 36.5q-3 -20 -6 -36t-7 -31t-8.5 -29.5t-9.5 -32.5zM386 948h180l-117 -147h-154z" />
    <glyph glyph-name="Acircumflex" unicode="&#xc2;" horiz-adv-x="748" 
d="M477 750l264 -750h-200l-52 162h-244l-52 -162h-186l257 750h213zM287 310h159l-48 162q-5 17 -9.5 31.5t-8 29.5t-7 31.5t-6.5 36.5q-3 -20 -6 -36t-7 -31t-8.5 -29.5t-9.5 -32.5zM307 967h121l111 -170h-113l-59 76l-60 -76h-111z" />
    <glyph glyph-name="Atilde" unicode="&#xc3;" horiz-adv-x="748" 
d="M477 750l264 -750h-200l-52 162h-244l-52 -162h-186l257 750h213zM287 310h159l-48 162q-5 17 -9.5 31.5t-8 29.5t-7 31.5t-6.5 36.5q-3 -20 -6 -36t-7 -31t-8.5 -29.5t-9.5 -32.5zM429 799q-26 0 -42 7t-28 16t-21.5 16t-22.5 7q-16 0 -23.5 -13t-10.5 -33h-92
q3 25 10.5 51.5t21 48.5t34.5 36t50 14q27 0 44.5 -7t30 -16t22 -16t21.5 -7q18 0 23.5 14t7.5 34h92q-2 -24 -8.5 -50.5t-19.5 -49t-34.5 -37.5t-54.5 -15z" />
    <glyph glyph-name="Adieresis" unicode="&#xc4;" horiz-adv-x="748" 
d="M477 750l264 -750h-200l-52 162h-244l-52 -162h-186l257 750h213zM287 310h159l-48 162q-5 17 -9.5 31.5t-8 29.5t-7 31.5t-6.5 36.5q-3 -20 -6 -36t-7 -31t-8.5 -29.5t-9.5 -32.5zM211 938h116v-126h-116v126zM407 938h116v-126h-116v126z" />
    <glyph glyph-name="Aring" unicode="&#xc5;" horiz-adv-x="748" 
d="M477 750l264 -750h-200l-52 162h-244l-52 -162h-186l257 750h213zM287 310h159l-48 162q-5 17 -9.5 31.5t-8 29.5t-7 31.5t-6.5 36.5q-3 -20 -6 -36t-7 -31t-8.5 -29.5t-9.5 -32.5zM367 850q20 0 31.5 12t11.5 32t-11.5 31.5t-31.5 11.5q-19 0 -30.5 -11.5t-11.5 -31.5
t11.5 -32t30.5 -12zM367 782q-25 0 -46 9t-36.5 24.5t-24.5 35.5t-9 43t9 43t24.5 35t36.5 24t46 9t46.5 -9t37 -24t24.5 -35t9 -43t-9 -43t-24.5 -35.5t-37 -24.5t-46.5 -9z" />
    <glyph glyph-name="AE" unicode="&#xc6;" horiz-adv-x="1078" 
d="M1032 750v-143h-332v-154h299v-142h-299v-168h347v-143h-527v162h-227l-95 -162h-191l452 750h573zM373 310h147v283q-16 -36 -29.5 -65.5t-27.5 -55.5z" />
    <glyph glyph-name="Ccedilla" unicode="&#xc7;" horiz-adv-x="645" 
d="M342 -273q-20 0 -47 2t-49 6v84q15 -2 35 -3.5t45 -1.5q35 0 50.5 10.5t15.5 24.5v8q0 17 -15.5 26.5t-61.5 9.5h-26v104q-63 9 -108.5 31t-74.5 60t-42.5 93t-13.5 130v118q0 94 21.5 157.5t64.5 102t107 55t149 16.5q57 0 113 -6.5t91 -18.5v-148q-38 8 -85 12.5
t-95 4.5q-55 0 -90 -10.5t-55.5 -31t-28 -51t-7.5 -70.5v-125q0 -44 7.5 -75.5t27.5 -52.5t55 -31t90 -10q42 0 92.5 4.5t99.5 18.5v-150q-22 -9 -48.5 -14.5t-54.5 -9t-55.5 -5t-51.5 -1.5v-37q33 -3 54.5 -11.5t34 -21.5t17.5 -30.5t5 -37.5v-8q0 -62 -43 -89.5
t-123 -27.5z" />
    <glyph glyph-name="Egrave" unicode="&#xc8;" horiz-adv-x="623" 
d="M577 750v-143h-332v-154h299v-142h-299v-168h347v-143h-530v750h515zM434 801h-154l-117 147h180z" />
    <glyph glyph-name="Eacute" unicode="&#xc9;" horiz-adv-x="623" 
d="M577 750v-143h-332v-154h299v-142h-299v-168h347v-143h-530v750h515zM331 948h180l-117 -147h-154z" />
    <glyph glyph-name="Ecircumflex" unicode="&#xca;" horiz-adv-x="623" 
d="M577 750v-143h-332v-154h299v-142h-299v-168h347v-143h-530v750h515zM274 967h121l111 -170h-113l-59 76l-60 -76h-111z" />
    <glyph glyph-name="Edieresis" unicode="&#xcb;" horiz-adv-x="623" 
d="M577 750v-143h-332v-154h299v-142h-299v-168h347v-143h-530v750h515zM179 938h116v-126h-116v126zM375 938h116v-126h-116v126z" />
    <glyph glyph-name="Igrave" unicode="&#xcc;" horiz-adv-x="307" 
d="M245 0h-183v750h183v-750zM229 801h-154l-117 147h180z" />
    <glyph glyph-name="Iacute" unicode="&#xcd;" horiz-adv-x="307" 
d="M245 0h-183v750h183v-750zM163 948h180l-117 -147h-154z" />
    <glyph glyph-name="Icircumflex" unicode="&#xce;" horiz-adv-x="307" 
d="M245 0h-183v750h183v-750zM93 967h121l111 -170h-113l-59 76l-60 -76h-111z" />
    <glyph glyph-name="Idieresis" unicode="&#xcf;" horiz-adv-x="307" 
d="M245 0h-183v750h183v-750zM-2 938h116v-126h-116v126zM194 938h116v-126h-116v126z" />
    <glyph glyph-name="Eth" unicode="&#xd0;" horiz-adv-x="730" 
d="M-11 440h73v310h314q82 0 141.5 -15.5t97.5 -50t56.5 -89.5t18.5 -134v-188q0 -74 -18.5 -126t-57.5 -84.5t-99 -47.5t-142 -15h-311v329h-73v111zM244 599v-159h174v-111h-174v-178h108q48 0 78 9.5t47 28.5t23 47.5t6 66.5v148q0 35 -6.5 62.5t-23 46.5t-46 29
t-75.5 10h-111z" />
    <glyph glyph-name="Ntilde" unicode="&#xd1;" horiz-adv-x="740" 
d="M678 0h-188l-212 380q-17 29 -28 55.5t-20 54.5v-490h-168v750h187l226 -409q10 -18 17.5 -36.5t17.5 -45.5v491h168v-750zM444 799q-26 0 -42 7t-28 16t-21.5 16t-22.5 7q-16 0 -23.5 -13t-10.5 -33h-92q3 25 10.5 51.5t21 48.5t34.5 36t50 14q27 0 44.5 -7t30 -16
t22 -16t21.5 -7q18 0 23.5 14t7.5 34h92q-2 -24 -8.5 -50.5t-19.5 -49t-34.5 -37.5t-54.5 -15z" />
    <glyph glyph-name="Ograve" unicode="&#xd2;" horiz-adv-x="758" 
d="M720 311q0 -162 -90.5 -243t-250.5 -81q-79 0 -142 20t-107.5 60.5t-68 101.5t-23.5 142v128q0 81 24 141.5t68 101t107.5 61t141.5 20.5q79 0 142 -20.5t107.5 -61t68 -101t23.5 -141.5v-128zM534 423q0 97 -37 140t-118 43t-118.5 -43t-37.5 -140v-96q0 -97 37.5 -140
t118.5 -43t118 43t37 140v96zM464 801h-154l-117 147h180z" />
    <glyph glyph-name="Oacute" unicode="&#xd3;" horiz-adv-x="758" 
d="M720 311q0 -162 -90.5 -243t-250.5 -81q-79 0 -142 20t-107.5 60.5t-68 101.5t-23.5 142v128q0 81 24 141.5t68 101t107.5 61t141.5 20.5q79 0 142 -20.5t107.5 -61t68 -101t23.5 -141.5v-128zM534 423q0 97 -37 140t-118 43t-118.5 -43t-37.5 -140v-96q0 -97 37.5 -140
t118.5 -43t118 43t37 140v96zM382 948h180l-117 -147h-154z" />
    <glyph glyph-name="Ocircumflex" unicode="&#xd4;" horiz-adv-x="758" 
d="M720 311q0 -162 -90.5 -243t-250.5 -81q-79 0 -142 20t-107.5 60.5t-68 101.5t-23.5 142v128q0 81 24 141.5t68 101t107.5 61t141.5 20.5q79 0 142 -20.5t107.5 -61t68 -101t23.5 -141.5v-128zM534 423q0 97 -37 140t-118 43t-118.5 -43t-37.5 -140v-96q0 -97 37.5 -140
t118.5 -43t118 43t37 140v96zM318 967h121l111 -170h-113l-59 76l-60 -76h-111z" />
    <glyph glyph-name="Otilde" unicode="&#xd5;" horiz-adv-x="758" 
d="M720 311q0 -162 -90.5 -243t-250.5 -81q-79 0 -142 20t-107.5 60.5t-68 101.5t-23.5 142v128q0 81 24 141.5t68 101t107.5 61t141.5 20.5q79 0 142 -20.5t107.5 -61t68 -101t23.5 -141.5v-128zM534 423q0 97 -37 140t-118 43t-118.5 -43t-37.5 -140v-96q0 -97 37.5 -140
t118.5 -43t118 43t37 140v96zM443 799q-26 0 -42 7t-28 16t-21.5 16t-22.5 7q-16 0 -23.5 -13t-10.5 -33h-92q3 25 10.5 51.5t21 48.5t34.5 36t50 14q27 0 44.5 -7t30 -16t22 -16t21.5 -7q18 0 23.5 14t7.5 34h92q-2 -24 -8.5 -50.5t-19.5 -49t-34.5 -37.5t-54.5 -15z" />
    <glyph glyph-name="Odieresis" unicode="&#xd6;" horiz-adv-x="758" 
d="M720 311q0 -162 -90.5 -243t-250.5 -81q-79 0 -142 20t-107.5 60.5t-68 101.5t-23.5 142v128q0 81 24 141.5t68 101t107.5 61t141.5 20.5q79 0 142 -20.5t107.5 -61t68 -101t23.5 -141.5v-128zM534 423q0 97 -37 140t-118 43t-118.5 -43t-37.5 -140v-96q0 -97 37.5 -140
t118.5 -43t118 43t37 140v96zM223 938h116v-126h-116v126zM419 938h116v-126h-116v126z" />
    <glyph glyph-name="multiply" unicode="&#xd7;" horiz-adv-x="613" 
d="M156 579l142 -143l143 143l91 -90l-143 -143l143 -143l-91 -90l-143 142l-142 -142l-91 90l143 143l-143 143z" />
    <glyph glyph-name="Oslash" unicode="&#xd8;" horiz-adv-x="758" 
d="M723 311q0 -81 -24 -142t-68.5 -101.5t-108 -60.5t-143.5 -20q-99 0 -174 32l-42 -62h-133l84 124q-38 41 -58.5 98t-20.5 132v128q0 81 24.5 141.5t69.5 101t108.5 61t141.5 20.5q100 0 174 -33l42 62h133l-84 -124q38 -41 58.5 -97.5t20.5 -131.5v-128zM379 606
q-81 0 -121.5 -43t-40.5 -140v-96q0 -47 9 -80l233 344q-33 15 -80 15zM541 423q0 44 -9 79l-233 -344q31 -14 80 -14q81 0 121.5 43t40.5 140v96z" />
    <glyph glyph-name="Ugrave" unicode="&#xd9;" horiz-adv-x="756" 
d="M237 750v-423q0 -51 8 -84.5t25.5 -53.5t44.5 -28t65 -8q39 0 65.5 8t42.5 28t23 53.5t7 84.5v423h184v-473q0 -154 -82 -222t-240 -68q-164 0 -245 68t-81 222v473h183zM479 801h-154l-117 147h180z" />
    <glyph glyph-name="Uacute" unicode="&#xda;" horiz-adv-x="756" 
d="M237 750v-423q0 -51 8 -84.5t25.5 -53.5t44.5 -28t65 -8q39 0 65.5 8t42.5 28t23 53.5t7 84.5v423h184v-473q0 -154 -82 -222t-240 -68q-164 0 -245 68t-81 222v473h183zM383 948h180l-117 -147h-154z" />
    <glyph glyph-name="Ucircumflex" unicode="&#xdb;" horiz-adv-x="756" 
d="M237 750v-423q0 -51 8 -84.5t25.5 -53.5t44.5 -28t65 -8q39 0 65.5 8t42.5 28t23 53.5t7 84.5v423h184v-473q0 -154 -82 -222t-240 -68q-164 0 -245 68t-81 222v473h183zM317 967h121l111 -170h-113l-59 76l-60 -76h-111z" />
    <glyph glyph-name="Udieresis" unicode="&#xdc;" horiz-adv-x="756" 
d="M237 750v-423q0 -51 8 -84.5t25.5 -53.5t44.5 -28t65 -8q39 0 65.5 8t42.5 28t23 53.5t7 84.5v423h184v-473q0 -154 -82 -222t-240 -68q-164 0 -245 68t-81 222v473h183zM221 938h116v-126h-116v126zM417 938h116v-126h-116v126z" />
    <glyph glyph-name="Yacute" unicode="&#xdd;" horiz-adv-x="702" 
d="M443 295v-295h-183v293l-249 457h195l92 -188q16 -33 29.5 -64.5t29.5 -75.5q14 44 26.5 75.5t28.5 64.5l91 188h185zM361 948h180l-117 -147h-154z" />
    <glyph glyph-name="Thorn" unicode="&#xde;" horiz-adv-x="663" 
d="M62 750h183v-132h126q61 0 110.5 -8t84 -30t53 -60.5t18.5 -99.5v-86q0 -57 -17 -94t-51.5 -58.5t-87.5 -30.5t-124 -9h-112v-142h-183v750zM245 489v-217h81q35 0 59 3.5t38.5 13t21 27t6.5 45.5v46q0 45 -26.5 63.5t-86.5 18.5h-93z" />
    <glyph glyph-name="germandbls" unicode="&#xdf;" horiz-adv-x="636" 
d="M279 127h47q50 0 69 24.5t19 69.5v20q0 29 -5.5 47.5t-18 29t-33 14.5t-49.5 4h-28v122h27q22 0 36.5 7t22.5 19t11 27t3 31v18q0 39 -17 59t-56 20q-33 0 -53 -20.5t-20 -69.5v-549h-178v549q0 114 66.5 169.5t182.5 55.5q68 0 115.5 -16.5t77 -43.5t43 -62.5
t13.5 -73.5v-22q0 -47 -27 -89t-75 -59q76 -14 109 -58.5t33 -102.5v-41q0 -98 -61.5 -152t-192.5 -54h-61v127z" />
    <glyph glyph-name="agrave" unicode="&#xe0;" horiz-adv-x="568" 
d="M522 0h-132l-16 50q-30 -25 -81.5 -42.5t-106.5 -17.5q-77 0 -118.5 36t-41.5 120v38q0 47 17 78t50.5 49.5t82.5 26t113 7.5h62v30q0 21 -3.5 35t-13 22t-26 11t-42.5 3q-15 0 -36 -2t-45 -6.5t-49 -10.5t-47 -15v122q21 7 47 13t53 10.5t52.5 7t46.5 2.5
q67 0 112 -13.5t72 -39t38.5 -62.5t11.5 -85v-367zM351 240h-66q-38 0 -62.5 -13t-24.5 -54v-11q0 -28 11.5 -40t40.5 -12q23 0 52.5 8t48.5 25v97zM394 601h-154l-117 147h180z" />
    <glyph glyph-name="aacute" unicode="&#xe1;" horiz-adv-x="568" 
d="M522 0h-132l-16 50q-30 -25 -81.5 -42.5t-106.5 -17.5q-77 0 -118.5 36t-41.5 120v38q0 47 17 78t50.5 49.5t82.5 26t113 7.5h62v30q0 21 -3.5 35t-13 22t-26 11t-42.5 3q-15 0 -36 -2t-45 -6.5t-49 -10.5t-47 -15v122q21 7 47 13t53 10.5t52.5 7t46.5 2.5
q67 0 112 -13.5t72 -39t38.5 -62.5t11.5 -85v-367zM351 240h-66q-38 0 -62.5 -13t-24.5 -54v-11q0 -28 11.5 -40t40.5 -12q23 0 52.5 8t48.5 25v97zM298 748h180l-117 -147h-154z" />
    <glyph glyph-name="acircumflex" unicode="&#xe2;" horiz-adv-x="568" 
d="M522 0h-132l-16 50q-30 -25 -81.5 -42.5t-106.5 -17.5q-77 0 -118.5 36t-41.5 120v38q0 47 17 78t50.5 49.5t82.5 26t113 7.5h62v30q0 21 -3.5 35t-13 22t-26 11t-42.5 3q-15 0 -36 -2t-45 -6.5t-49 -10.5t-47 -15v122q21 7 47 13t53 10.5t52.5 7t46.5 2.5
q67 0 112 -13.5t72 -39t38.5 -62.5t11.5 -85v-367zM351 240h-66q-38 0 -62.5 -13t-24.5 -54v-11q0 -28 11.5 -40t40.5 -12q23 0 52.5 8t48.5 25v97zM228 767h121l111 -170h-113l-59 76l-60 -76h-111z" />
    <glyph glyph-name="atilde" unicode="&#xe3;" horiz-adv-x="568" 
d="M522 0h-132l-16 50q-30 -25 -81.5 -42.5t-106.5 -17.5q-77 0 -118.5 36t-41.5 120v38q0 47 17 78t50.5 49.5t82.5 26t113 7.5h62v30q0 21 -3.5 35t-13 22t-26 11t-42.5 3q-15 0 -36 -2t-45 -6.5t-49 -10.5t-47 -15v122q21 7 47 13t53 10.5t52.5 7t46.5 2.5
q67 0 112 -13.5t72 -39t38.5 -62.5t11.5 -85v-367zM351 240h-66q-38 0 -62.5 -13t-24.5 -54v-11q0 -28 11.5 -40t40.5 -12q23 0 52.5 8t48.5 25v97zM350 599q-26 0 -42 7t-28 16t-21.5 16t-22.5 7q-16 0 -23.5 -13t-10.5 -33h-92q3 25 10.5 51.5t21 48.5t34.5 36t50 14
q27 0 44.5 -7t30 -16t22 -16t21.5 -7q18 0 23.5 14t7.5 34h92q-2 -24 -8.5 -50.5t-19.5 -49t-34.5 -37.5t-54.5 -15z" />
    <glyph glyph-name="adieresis" unicode="&#xe4;" horiz-adv-x="568" 
d="M522 0h-132l-16 50q-30 -25 -81.5 -42.5t-106.5 -17.5q-77 0 -118.5 36t-41.5 120v38q0 47 17 78t50.5 49.5t82.5 26t113 7.5h62v30q0 21 -3.5 35t-13 22t-26 11t-42.5 3q-15 0 -36 -2t-45 -6.5t-49 -10.5t-47 -15v122q21 7 47 13t53 10.5t52.5 7t46.5 2.5
q67 0 112 -13.5t72 -39t38.5 -62.5t11.5 -85v-367zM351 240h-66q-38 0 -62.5 -13t-24.5 -54v-11q0 -28 11.5 -40t40.5 -12q23 0 52.5 8t48.5 25v97zM129 738h116v-126h-116v126zM325 738h116v-126h-116v126z" />
    <glyph glyph-name="aring" unicode="&#xe5;" horiz-adv-x="568" 
d="M522 0h-132l-16 50q-30 -25 -81.5 -42.5t-106.5 -17.5q-77 0 -118.5 36t-41.5 120v38q0 47 17 78t50.5 49.5t82.5 26t113 7.5h62v30q0 21 -3.5 35t-13 22t-26 11t-42.5 3q-15 0 -36 -2t-45 -6.5t-49 -10.5t-47 -15v122q21 7 47 13t53 10.5t52.5 7t46.5 2.5
q67 0 112 -13.5t72 -39t38.5 -62.5t11.5 -85v-367zM351 240h-66q-38 0 -62.5 -13t-24.5 -54v-11q0 -28 11.5 -40t40.5 -12q23 0 52.5 8t48.5 25v97zM285 650q20 0 31.5 12t11.5 32t-11.5 31.5t-31.5 11.5q-19 0 -30.5 -11.5t-11.5 -31.5t11.5 -32t30.5 -12zM285 582
q-25 0 -46 9t-36.5 24.5t-24.5 35.5t-9 43t9 43t24.5 35t36.5 24t46 9t46.5 -9t37 -24t24.5 -35t9 -43t-9 -43t-24.5 -35.5t-37 -24.5t-46.5 -9z" />
    <glyph glyph-name="ae" unicode="&#xe6;" horiz-adv-x="885" 
d="M865 233h-349v-11q0 -58 35 -84t104 -26q34 0 79.5 6t84.5 20v-118q-16 -8 -38.5 -13.5t-48 -9.5t-51.5 -6t-49 -2q-41 0 -71.5 5t-54.5 14.5t-43 23.5t-36 32q-44 -32 -101 -53t-130 -21q-77 0 -123.5 36t-46.5 120v38q0 45 16.5 74.5t49 47t80.5 24.5t112 7h67v38
q0 21 -3.5 35t-13 22t-26 11t-42.5 3q-15 0 -36 -2t-45 -6.5t-49 -10.5t-47 -15v122q43 14 96 23.5t103 9.5q63 0 102.5 -14t61.5 -46q28 29 70 44.5t91 15.5q54 0 100.5 -13t80 -43t52.5 -79t19 -121v-78zM699 337v11q0 44 -21.5 69t-69.5 25q-45 0 -68.5 -25.5
t-23.5 -70.5v-9h183zM351 232h-66q-19 0 -35 -1.5t-27.5 -7.5t-18 -17.5t-6.5 -32.5v-11q0 -28 11.5 -40t40.5 -12q23 0 52.5 8t48.5 25v89z" />
    <glyph glyph-name="ccedilla" unicode="&#xe7;" horiz-adv-x="531" 
d="M280 -273q-20 0 -47 2t-49 6v84q15 -2 35 -3.5t45 -1.5q35 0 50.5 10.5t15.5 24.5v8q0 17 -15.5 26.5t-61.5 9.5h-26v103q-96 17 -142.5 74.5t-46.5 166.5v72q0 69 18.5 118t54.5 80t88.5 45.5t121.5 14.5q21 0 44 -1.5t45.5 -4.5t42.5 -7.5t35 -10.5v-123
q-24 7 -60.5 12.5t-78.5 5.5q-76 0 -106 -29.5t-30 -97.5v-67q0 -36 7 -60t23.5 -38t43 -20t64.5 -6q33 0 70 5t77 19v-129q-15 -6 -36 -11t-43 -8t-44 -5t-40 -3v-35q33 -3 54.5 -11.5t34 -21.5t17.5 -30.5t5 -37.5v-8q0 -62 -43 -89.5t-123 -27.5z" />
    <glyph glyph-name="egrave" unicode="&#xe8;" horiz-adv-x="593" 
d="M559 219h-349v-11q0 -58 35.5 -77t103.5 -19q34 0 79.5 6t84.5 20v-118q-16 -8 -38.5 -13.5t-48 -9.5t-51.5 -6t-49 -2q-144 0 -216 60t-72 192v70q0 69 21 117.5t56.5 79.5t83 45t100.5 14q58 0 106 -13t82 -44.5t53 -83.5t19 -129v-78zM393 323v21q0 46 -21.5 72
t-69.5 26q-45 0 -68.5 -26t-23.5 -74v-19h183zM398 601h-154l-117 147h180z" />
    <glyph glyph-name="eacute" unicode="&#xe9;" horiz-adv-x="593" 
d="M559 219h-349v-11q0 -58 35.5 -77t103.5 -19q34 0 79.5 6t84.5 20v-118q-16 -8 -38.5 -13.5t-48 -9.5t-51.5 -6t-49 -2q-144 0 -216 60t-72 192v70q0 69 21 117.5t56.5 79.5t83 45t100.5 14q58 0 106 -13t82 -44.5t53 -83.5t19 -129v-78zM393 323v21q0 46 -21.5 72
t-69.5 26q-45 0 -68.5 -26t-23.5 -74v-19h183zM313 748h180l-117 -147h-154z" />
    <glyph glyph-name="ecircumflex" unicode="&#xea;" horiz-adv-x="593" 
d="M559 219h-349v-11q0 -58 35.5 -77t103.5 -19q34 0 79.5 6t84.5 20v-118q-16 -8 -38.5 -13.5t-48 -9.5t-51.5 -6t-49 -2q-144 0 -216 60t-72 192v70q0 69 21 117.5t56.5 79.5t83 45t100.5 14q58 0 106 -13t82 -44.5t53 -83.5t19 -129v-78zM393 323v21q0 46 -21.5 72
t-69.5 26q-45 0 -68.5 -26t-23.5 -74v-19h183zM229 767h121l111 -170h-113l-59 76l-60 -76h-111z" />
    <glyph glyph-name="edieresis" unicode="&#xeb;" horiz-adv-x="593" 
d="M559 219h-349v-11q0 -58 35.5 -77t103.5 -19q34 0 79.5 6t84.5 20v-118q-16 -8 -38.5 -13.5t-48 -9.5t-51.5 -6t-49 -2q-144 0 -216 60t-72 192v70q0 69 21 117.5t56.5 79.5t83 45t100.5 14q58 0 106 -13t82 -44.5t53 -83.5t19 -129v-78zM393 323v21q0 46 -21.5 72
t-69.5 26q-45 0 -68.5 -26t-23.5 -74v-19h183zM145 738h116v-126h-116v126zM341 738h116v-126h-116v126z" />
    <glyph glyph-name="igrave" unicode="&#xec;" horiz-adv-x="290" 
d="M234 0h-178v553h178v-553zM223 601h-154l-117 147h180z" />
    <glyph glyph-name="iacute" unicode="&#xed;" horiz-adv-x="292" 
d="M234 0h-178v553h178v-553zM160 748h180l-117 -147h-154z" />
    <glyph glyph-name="icircumflex" unicode="&#xee;" horiz-adv-x="293" 
d="M235 0h-178v553h178v-553zM86 767h121l111 -170h-113l-59 76l-60 -76h-111z" />
    <glyph glyph-name="idieresis" unicode="&#xef;" horiz-adv-x="292" 
d="M234 0h-178v553h178v-553zM-10 738h116v-126h-116v126zM186 738h116v-126h-116v126z" />
    <glyph glyph-name="eth" unicode="&#xf0;" horiz-adv-x="616" 
d="M308 -13q-134 0 -202 64t-68 190v39q0 121 66.5 186.5t180.5 65.5q23 0 40 -2.5t34 -10.5q-18 20 -37 38t-40 33l-117 -49l-29 71l65 27q-15 8 -30.5 15.5t-32.5 15.5l52 104q43 -19 80 -37.5t70 -38.5l111 47l29 -71l-66 -28q86 -71 125 -159t39 -207v-39
q0 -126 -68 -190t-202 -64zM308 405q-45 0 -70.5 -26.5t-25.5 -95.5v-45q0 -69 25.5 -95.5t70.5 -26.5t70.5 26.5t25.5 95.5v45q0 69 -25.5 95.5t-70.5 26.5z" />
    <glyph glyph-name="ntilde" unicode="&#xf1;" horiz-adv-x="614" 
d="M562 0h-178v357q0 35 -9.5 51t-41.5 16q-23 0 -50.5 -8t-49.5 -24v-392h-177v553h132l12 -47q42 30 92 45.5t92 15.5q51 0 85 -13t54.5 -36t29.5 -54.5t9 -68.5v-395zM369 599q-26 0 -42 7t-28 16t-21.5 16t-22.5 7q-16 0 -23.5 -13t-10.5 -33h-92q3 25 10.5 51.5
t21 48.5t34.5 36t50 14q27 0 44.5 -7t30 -16t22 -16t21.5 -7q18 0 23.5 14t7.5 34h92q-2 -24 -8.5 -50.5t-19.5 -49t-34.5 -37.5t-54.5 -15z" />
    <glyph glyph-name="ograve" unicode="&#xf2;" horiz-adv-x="616" 
d="M308 -13q-134 0 -202 62t-68 188v80q0 121 68 185.5t202 64.5t202 -64.5t68 -185.5v-80q0 -126 -68 -188t-202 -62zM308 432q-45 0 -68.5 -26.5t-23.5 -95.5v-66q0 -69 23.5 -95.5t68.5 -26.5t68.5 26.5t23.5 95.5v66q0 69 -23.5 95.5t-68.5 26.5zM389 601h-154l-117 147
h180z" />
    <glyph glyph-name="oacute" unicode="&#xf3;" horiz-adv-x="616" 
d="M308 -13q-134 0 -202 62t-68 188v80q0 121 68 185.5t202 64.5t202 -64.5t68 -185.5v-80q0 -126 -68 -188t-202 -62zM308 432q-45 0 -68.5 -26.5t-23.5 -95.5v-66q0 -69 23.5 -95.5t68.5 -26.5t68.5 26.5t23.5 95.5v66q0 69 -23.5 95.5t-68.5 26.5zM314 748h180l-117 -147
h-154z" />
    <glyph glyph-name="ocircumflex" unicode="&#xf4;" horiz-adv-x="616" 
d="M308 -13q-134 0 -202 62t-68 188v80q0 121 68 185.5t202 64.5t202 -64.5t68 -185.5v-80q0 -126 -68 -188t-202 -62zM308 432q-45 0 -68.5 -26.5t-23.5 -95.5v-66q0 -69 23.5 -95.5t68.5 -26.5t68.5 26.5t23.5 95.5v66q0 69 -23.5 95.5t-68.5 26.5zM247 767h121l111 -170
h-113l-59 76l-60 -76h-111z" />
    <glyph glyph-name="otilde" unicode="&#xf5;" horiz-adv-x="616" 
d="M308 -13q-134 0 -202 62t-68 188v80q0 121 68 185.5t202 64.5t202 -64.5t68 -185.5v-80q0 -126 -68 -188t-202 -62zM308 432q-45 0 -68.5 -26.5t-23.5 -95.5v-66q0 -69 23.5 -95.5t68.5 -26.5t68.5 26.5t23.5 95.5v66q0 69 -23.5 95.5t-68.5 26.5zM372 599q-26 0 -42 7
t-28 16t-21.5 16t-22.5 7q-16 0 -23.5 -13t-10.5 -33h-92q3 25 10.5 51.5t21 48.5t34.5 36t50 14q27 0 44.5 -7t30 -16t22 -16t21.5 -7q18 0 23.5 14t7.5 34h92q-2 -24 -8.5 -50.5t-19.5 -49t-34.5 -37.5t-54.5 -15z" />
    <glyph glyph-name="odieresis" unicode="&#xf6;" horiz-adv-x="616" 
d="M308 -13q-134 0 -202 62t-68 188v80q0 121 68 185.5t202 64.5t202 -64.5t68 -185.5v-80q0 -126 -68 -188t-202 -62zM308 432q-45 0 -68.5 -26.5t-23.5 -95.5v-66q0 -69 23.5 -95.5t68.5 -26.5t68.5 26.5t23.5 95.5v66q0 69 -23.5 95.5t-68.5 26.5zM151 738h116v-126h-116
v126zM347 738h116v-126h-116v126z" />
    <glyph glyph-name="divide" unicode="&#xf7;" horiz-adv-x="588" 
d="M36 414h516v-132h-516v132zM211 627h166v-157h-166v157zM211 226h166v-157h-166v157z" />
    <glyph glyph-name="oslash" unicode="&#xf8;" horiz-adv-x="615" 
d="M308 -13q-72 0 -126 18l-33 -48h-120l69 99q-63 63 -63 181v80q0 121 69.5 185.5t203.5 64.5q74 0 132 -22l27 39h120l-65 -93q59 -65 59 -174v-80q0 -126 -69.5 -188t-203.5 -62zM308 434q-45 0 -73.5 -26.5t-28.5 -95.5v-70v-15.5t1 -14.5l149 213q-21 9 -48 9z
M308 120q45 0 73.5 26.5t28.5 95.5v70v9t-1 9l-142 -204q9 -4 19.5 -5t21.5 -1z" />
    <glyph glyph-name="ugrave" unicode="&#xf9;" horiz-adv-x="612" 
d="M52 553h178v-357q0 -35 9 -52t40 -17q23 0 50 9t49 24v393h178v-553h-132l-13 47q-42 -32 -92.5 -45.5t-92.5 -13.5q-51 0 -84.5 13t-53.5 35.5t-28 54t-8 68.5v394zM401 601h-154l-117 147h180z" />
    <glyph glyph-name="uacute" unicode="&#xfa;" horiz-adv-x="612" 
d="M52 553h178v-357q0 -35 9 -52t40 -17q23 0 50 9t49 24v393h178v-553h-132l-13 47q-42 -32 -92.5 -45.5t-92.5 -13.5q-51 0 -84.5 13t-53.5 35.5t-28 54t-8 68.5v394zM319 748h180l-117 -147h-154z" />
    <glyph glyph-name="ucircumflex" unicode="&#xfb;" horiz-adv-x="612" 
d="M52 553h178v-357q0 -35 9 -52t40 -17q23 0 50 9t49 24v393h178v-553h-132l-13 47q-42 -32 -92.5 -45.5t-92.5 -13.5q-51 0 -84.5 13t-53.5 35.5t-28 54t-8 68.5v394zM248 767h121l111 -170h-113l-59 76l-60 -76h-111z" />
    <glyph glyph-name="udieresis" unicode="&#xfc;" horiz-adv-x="612" 
d="M52 553h178v-357q0 -35 9 -52t40 -17q23 0 50 9t49 24v393h178v-553h-132l-13 47q-42 -32 -92.5 -45.5t-92.5 -13.5q-51 0 -84.5 13t-53.5 35.5t-28 54t-8 68.5v394zM152 738h116v-126h-116v126zM348 738h116v-126h-116v126z" />
    <glyph glyph-name="yacute" unicode="&#xfd;" horiz-adv-x="602" 
d="M596 553l-273 -766h-187l75 214l-205 552h182l92 -291q8 -26 15 -53t14 -68q9 42 15 68.5t14 51.5l85 292h173zM318 748h180l-117 -147h-154z" />
    <glyph glyph-name="thorn" unicode="&#xfe;" horiz-adv-x="631" 
d="M56 -216v960l178 30v-252q32 21 73 33t86 12q49 0 86 -14t61.5 -39t36.5 -58t12 -72v-172q0 -115 -57 -168.5t-174 -53.5q-23 0 -57 4t-67 15v-225h-178zM411 345q0 45 -17.5 64.5t-55.5 19.5q-26 0 -55 -10t-49 -26v-256q26 -7 46 -9t42 -2q45 0 67 22t22 74v123z" />
    <glyph glyph-name="ydieresis" unicode="&#xff;" horiz-adv-x="602" 
d="M596 553l-273 -766h-187l75 214l-205 552h182l92 -291q8 -26 15 -53t14 -68q9 42 15 68.5t14 51.5l85 292h173zM154 738h116v-126h-116v126zM350 738h116v-126h-116v126z" />
    <glyph glyph-name="Amacron" unicode="&#x100;" horiz-adv-x="748" 
d="M477 750l264 -750h-200l-52 162h-244l-52 -162h-186l257 750h213zM287 310h159l-48 162q-5 17 -9.5 31.5t-8 29.5t-7 31.5t-6.5 36.5q-3 -20 -6 -36t-7 -31t-8.5 -29.5t-9.5 -32.5zM221 935h306v-106h-306v106z" />
    <glyph glyph-name="amacron" unicode="&#x101;" horiz-adv-x="568" 
d="M522 0h-132l-16 50q-30 -25 -81.5 -42.5t-106.5 -17.5q-77 0 -118.5 36t-41.5 120v38q0 47 17 78t50.5 49.5t82.5 26t113 7.5h62v30q0 21 -3.5 35t-13 22t-26 11t-42.5 3q-15 0 -36 -2t-45 -6.5t-49 -10.5t-47 -15v122q21 7 47 13t53 10.5t52.5 7t46.5 2.5
q67 0 112 -13.5t72 -39t38.5 -62.5t11.5 -85v-367zM351 240h-66q-38 0 -62.5 -13t-24.5 -54v-11q0 -28 11.5 -40t40.5 -12q23 0 52.5 8t48.5 25v97zM132 735h306v-106h-306v106z" />
    <glyph glyph-name="Abreve" unicode="&#x102;" horiz-adv-x="748" 
d="M477 750l264 -750h-200l-52 162h-244l-52 -162h-186l257 750h213zM287 310h159l-48 162q-5 17 -9.5 31.5t-8 29.5t-7 31.5t-6.5 36.5q-3 -20 -6 -36t-7 -31t-8.5 -29.5t-9.5 -32.5zM374 803q-35 0 -62.5 12t-47 32t-30 47.5t-11.5 59.5h93q4 -59 58 -59t58 59h93
q-1 -32 -11.5 -59.5t-30 -47.5t-47 -32t-62.5 -12z" />
    <glyph glyph-name="abreve" unicode="&#x103;" horiz-adv-x="568" 
d="M522 0h-132l-16 50q-30 -25 -81.5 -42.5t-106.5 -17.5q-77 0 -118.5 36t-41.5 120v38q0 47 17 78t50.5 49.5t82.5 26t113 7.5h62v30q0 21 -3.5 35t-13 22t-26 11t-42.5 3q-15 0 -36 -2t-45 -6.5t-49 -10.5t-47 -15v122q21 7 47 13t53 10.5t52.5 7t46.5 2.5
q67 0 112 -13.5t72 -39t38.5 -62.5t11.5 -85v-367zM351 240h-66q-38 0 -62.5 -13t-24.5 -54v-11q0 -28 11.5 -40t40.5 -12q23 0 52.5 8t48.5 25v97zM285 603q-35 0 -62.5 12t-47 32t-30 47.5t-11.5 59.5h93q4 -59 58 -59t58 59h93q-1 -32 -11.5 -59.5t-30 -47.5t-47 -32
t-62.5 -12z" />
    <glyph glyph-name="Aogonek" unicode="&#x104;" horiz-adv-x="748" 
d="M675 -232q-39 0 -67 8.5t-46 23.5t-26.5 34t-8.5 40v9q0 19 8.5 37.5t23 34t33.5 27t39 18.5h-90l-52 162h-244l-52 -162h-186l257 750h213l264 -750h-1q-19 -10 -35 -22.5t-28 -26t-18.5 -27t-6.5 -25.5v-7q0 -20 14.5 -26t34.5 -6q15 0 32.5 2t28.5 5v-88
q-13 -4 -36 -7.5t-51 -3.5zM287 310h159l-48 162q-5 17 -9.5 31.5t-8 29.5t-7 31.5t-6.5 36.5q-3 -20 -6 -36t-7 -31t-8.5 -29.5t-9.5 -32.5z" />
    <glyph glyph-name="aogonek" unicode="&#x105;" horiz-adv-x="568" 
d="M456 -232q-39 0 -67 8.5t-46 23.5t-26.5 34t-8.5 40v9q0 19 8.5 37.5t23 34t33.5 27t39 18.5h-22l-16 50q-30 -25 -81.5 -42.5t-106.5 -17.5q-77 0 -118.5 36t-41.5 120v38q0 47 17 78t50.5 49.5t82.5 26t113 7.5h62v30q0 21 -3.5 35t-13 22t-26 11t-42.5 3q-15 0 -36 -2
t-45 -6.5t-49 -10.5t-47 -15v122q21 7 47 13t53 10.5t52.5 7t46.5 2.5q67 0 112 -13.5t72 -39t38.5 -62.5t11.5 -85v-367h-1q-19 -10 -35 -22.5t-28 -26t-18.5 -27t-6.5 -25.5v-7q0 -20 14.5 -26t34.5 -6q15 0 32.5 2t28.5 5v-88q-13 -4 -36 -7.5t-51 -3.5zM351 240h-66
q-38 0 -62.5 -13t-24.5 -54v-11q0 -28 11.5 -40t40.5 -12q23 0 52.5 8t48.5 25v97z" />
    <glyph glyph-name="Cacute" unicode="&#x106;" horiz-adv-x="645" 
d="M596 587q-38 8 -85 12.5t-95 4.5q-55 0 -90 -10.5t-55.5 -31t-28 -51t-7.5 -70.5v-125q0 -44 7.5 -75.5t27.5 -52.5t55 -31t90 -10q42 0 92.5 4.5t99.5 18.5v-150q-22 -9 -49.5 -15t-56 -9t-56.5 -4.5t-52 -1.5q-92 0 -157 17t-106.5 55t-60.5 99t-19 150v118
q0 94 21.5 157.5t64.5 102t107 55t149 16.5q57 0 113 -6.5t91 -18.5v-148zM369 948h180l-117 -147h-154z" />
    <glyph glyph-name="cacute" unicode="&#x107;" horiz-adv-x="531" 
d="M488 420q-24 7 -60.5 12.5t-78.5 5.5q-76 0 -106 -29.5t-30 -97.5v-67q0 -36 7 -60t23.5 -38t43 -20t64.5 -6q33 0 70 5t77 19v-129q-17 -7 -40 -12t-47.5 -8.5t-47.5 -5t-41 -1.5q-143 0 -213.5 58.5t-70.5 190.5v72q0 69 18.5 118t54.5 80t88.5 45.5t121.5 14.5
q21 0 44 -1.5t45.5 -4.5t42.5 -7.5t35 -10.5v-123zM294 748h180l-117 -147h-154z" />
    <glyph glyph-name="Ccircumflex" unicode="&#x108;" horiz-adv-x="645" 
d="M596 587q-38 8 -85 12.5t-95 4.5q-55 0 -90 -10.5t-55.5 -31t-28 -51t-7.5 -70.5v-125q0 -44 7.5 -75.5t27.5 -52.5t55 -31t90 -10q42 0 92.5 4.5t99.5 18.5v-150q-22 -9 -49.5 -15t-56 -9t-56.5 -4.5t-52 -1.5q-92 0 -157 17t-106.5 55t-60.5 99t-19 150v118
q0 94 21.5 157.5t64.5 102t107 55t149 16.5q57 0 113 -6.5t91 -18.5v-148zM305 967h121l111 -170h-113l-59 76l-60 -76h-111z" />
    <glyph glyph-name="ccircumflex" unicode="&#x109;" horiz-adv-x="531" 
d="M488 420q-24 7 -60.5 12.5t-78.5 5.5q-76 0 -106 -29.5t-30 -97.5v-67q0 -36 7 -60t23.5 -38t43 -20t64.5 -6q33 0 70 5t77 19v-129q-17 -7 -40 -12t-47.5 -8.5t-47.5 -5t-41 -1.5q-143 0 -213.5 58.5t-70.5 190.5v72q0 69 18.5 118t54.5 80t88.5 45.5t121.5 14.5
q21 0 44 -1.5t45.5 -4.5t42.5 -7.5t35 -10.5v-123zM238 767h121l111 -170h-113l-59 76l-60 -76h-111z" />
    <glyph glyph-name="Cdotaccent" unicode="&#x10a;" horiz-adv-x="645" 
d="M596 587q-38 8 -85 12.5t-95 4.5q-55 0 -90 -10.5t-55.5 -31t-28 -51t-7.5 -70.5v-125q0 -44 7.5 -75.5t27.5 -52.5t55 -31t90 -10q42 0 92.5 4.5t99.5 18.5v-150q-22 -9 -49.5 -15t-56 -9t-56.5 -4.5t-52 -1.5q-92 0 -157 17t-106.5 55t-60.5 99t-19 150v118
q0 94 21.5 157.5t64.5 102t107 55t149 16.5q57 0 113 -6.5t91 -18.5v-148zM306 938h118v-126h-118v126z" />
    <glyph glyph-name="cdotaccent" unicode="&#x10b;" horiz-adv-x="531" 
d="M488 420q-24 7 -60.5 12.5t-78.5 5.5q-76 0 -106 -29.5t-30 -97.5v-67q0 -36 7 -60t23.5 -38t43 -20t64.5 -6q33 0 70 5t77 19v-129q-17 -7 -40 -12t-47.5 -8.5t-47.5 -5t-41 -1.5q-143 0 -213.5 58.5t-70.5 190.5v72q0 69 18.5 118t54.5 80t88.5 45.5t121.5 14.5
q21 0 44 -1.5t45.5 -4.5t42.5 -7.5t35 -10.5v-123zM244 738h118v-126h-118v126z" />
    <glyph glyph-name="Ccaron" unicode="&#x10c;" horiz-adv-x="645" 
d="M596 587q-38 8 -85 12.5t-95 4.5q-55 0 -90 -10.5t-55.5 -31t-28 -51t-7.5 -70.5v-125q0 -44 7.5 -75.5t27.5 -52.5t55 -31t90 -10q42 0 92.5 4.5t99.5 18.5v-150q-22 -9 -49.5 -15t-56 -9t-56.5 -4.5t-52 -1.5q-92 0 -157 17t-106.5 55t-60.5 99t-19 150v118
q0 94 21.5 157.5t64.5 102t107 55t149 16.5q57 0 113 -6.5t91 -18.5v-148zM195 960h111l60 -76l59 76h113l-111 -170h-121z" />
    <glyph glyph-name="ccaron" unicode="&#x10d;" horiz-adv-x="531" 
d="M488 420q-24 7 -60.5 12.5t-78.5 5.5q-76 0 -106 -29.5t-30 -97.5v-67q0 -36 7 -60t23.5 -38t43 -20t64.5 -6q33 0 70 5t77 19v-129q-17 -7 -40 -12t-47.5 -8.5t-47.5 -5t-41 -1.5q-143 0 -213.5 58.5t-70.5 190.5v72q0 69 18.5 118t54.5 80t88.5 45.5t121.5 14.5
q21 0 44 -1.5t45.5 -4.5t42.5 -7.5t35 -10.5v-123zM127 760h111l60 -76l59 76h113l-111 -170h-121z" />
    <glyph glyph-name="Dcaron" unicode="&#x10e;" horiz-adv-x="730" 
d="M62 0v750h314q82 0 141.5 -15.5t97.5 -50t56.5 -89.5t18.5 -134v-188q0 -74 -18.5 -126t-57.5 -84.5t-99 -47.5t-142 -15h-311zM244 599v-448h108q48 0 78 9.5t47 28.5t23 47.5t6 66.5v148q0 35 -6.5 62.5t-23 46.5t-46 29t-75.5 10h-111zM200 960h111l60 -76l59 76h113
l-111 -170h-121z" />
    <glyph glyph-name="dcaron" unicode="&#x10f;" horiz-adv-x="737" 
d="M757 761l-33 -186h-98l10 186h121zM231 -10q-97 0 -143 50t-46 132v172q0 60 17 102.5t47 69t70.5 39t87.5 12.5q42 0 74.5 -6.5t58.5 -18.5v202l178 30v-774h-141l-14 49q-71 -59 -189 -59zM397 406q-16 11 -39 17t-46 6q-43 0 -67.5 -20.5t-24.5 -78.5v-118
q0 -39 13.5 -61.5t52.5 -22.5q27 0 56.5 8t54.5 27v243z" />
    <glyph glyph-name="Dcroat" unicode="&#x110;" horiz-adv-x="730" 
d="M-11 440h73v310h314q82 0 141.5 -15.5t97.5 -50t56.5 -89.5t18.5 -134v-188q0 -74 -18.5 -126t-57.5 -84.5t-99 -47.5t-142 -15h-311v329h-73v111zM244 599v-159h174v-111h-174v-178h108q48 0 78 9.5t47 28.5t23 47.5t6 66.5v148q0 35 -6.5 62.5t-23 46.5t-46 29
t-75.5 10h-111z" />
    <glyph glyph-name="dcroat" unicode="&#x111;" horiz-adv-x="660" 
d="M231 -10q-97 0 -143 50t-46 132v154q0 60 17 102.5t47 69t70.5 39t87.5 12.5q42 0 74.5 -6.5t58.5 -18.5v71h-131v93h131v56l178 30v-86h80v-93h-80v-595h-141l-14 49q-71 -59 -189 -59zM397 388q-16 11 -39 17t-46 6q-43 0 -67.5 -20.5t-24.5 -78.5v-100
q0 -39 13.5 -61.5t52.5 -22.5q27 0 56.5 8t54.5 27v225z" />
    <glyph glyph-name="Emacron" unicode="&#x112;" horiz-adv-x="623" 
d="M577 750v-143h-332v-154h299v-142h-299v-168h347v-143h-530v750h515zM185 935h306v-106h-306v106z" />
    <glyph glyph-name="emacron" unicode="&#x113;" horiz-adv-x="593" 
d="M559 219h-349v-11q0 -58 35.5 -77t103.5 -19q34 0 79.5 6t84.5 20v-118q-16 -8 -38.5 -13.5t-48 -9.5t-51.5 -6t-49 -2q-144 0 -216 60t-72 192v70q0 69 21 117.5t56.5 79.5t83 45t100.5 14q58 0 106 -13t82 -44.5t53 -83.5t19 -129v-78zM393 323v21q0 46 -21.5 72
t-69.5 26q-45 0 -68.5 -26t-23.5 -74v-19h183zM136 735h306v-106h-306v106z" />
    <glyph glyph-name="Ebreve" unicode="&#x114;" horiz-adv-x="623" 
d="M577 750v-143h-332v-154h299v-142h-299v-168h347v-143h-530v750h515zM343 803q-35 0 -62.5 12t-47 32t-30 47.5t-11.5 59.5h93q4 -59 58 -59t58 59h93q-1 -32 -11.5 -59.5t-30 -47.5t-47 -32t-62.5 -12z" />
    <glyph glyph-name="ebreve" unicode="&#x115;" horiz-adv-x="593" 
d="M559 219h-349v-11q0 -58 35.5 -77t103.5 -19q34 0 79.5 6t84.5 20v-118q-16 -8 -38.5 -13.5t-48 -9.5t-51.5 -6t-49 -2q-144 0 -216 60t-72 192v70q0 69 21 117.5t56.5 79.5t83 45t100.5 14q58 0 106 -13t82 -44.5t53 -83.5t19 -129v-78zM393 323v21q0 46 -21.5 72
t-69.5 26q-45 0 -68.5 -26t-23.5 -74v-19h183zM295 603q-35 0 -62.5 12t-47 32t-30 47.5t-11.5 59.5h93q4 -59 58 -59t58 59h93q-1 -32 -11.5 -59.5t-30 -47.5t-47 -32t-62.5 -12z" />
    <glyph glyph-name="Edotaccent" unicode="&#x116;" horiz-adv-x="623" 
d="M577 750v-143h-332v-154h299v-142h-299v-168h347v-143h-530v750h515zM279 938h118v-126h-118v126z" />
    <glyph glyph-name="edotaccent" unicode="&#x117;" horiz-adv-x="593" 
d="M559 219h-349v-11q0 -58 35.5 -77t103.5 -19q34 0 79.5 6t84.5 20v-118q-16 -8 -38.5 -13.5t-48 -9.5t-51.5 -6t-49 -2q-144 0 -216 60t-72 192v70q0 69 21 117.5t56.5 79.5t83 45t100.5 14q58 0 106 -13t82 -44.5t53 -83.5t19 -129v-78zM393 323v21q0 46 -21.5 72
t-69.5 26q-45 0 -68.5 -26t-23.5 -74v-19h183zM236 738h118v-126h-118v126z" />
    <glyph glyph-name="Eogonek" unicode="&#x118;" horiz-adv-x="623" 
d="M470 -232q-39 0 -67 8.5t-46 23.5t-26.5 34t-8.5 40v9q0 19 8.5 37.5t23 34t33.5 27t39 18.5h-364v750h515v-143h-332v-154h299v-142h-299v-168h347v-143h-57q-19 -10 -35 -22.5t-28 -26t-18.5 -27t-6.5 -25.5v-7q0 -20 14.5 -26t34.5 -6q15 0 32.5 2t28.5 5v-88
q-13 -4 -36 -7.5t-51 -3.5z" />
    <glyph glyph-name="eogonek" unicode="&#x119;" horiz-adv-x="593" 
d="M379 -232q-39 0 -67 8.5t-46 23.5t-26.5 34t-8.5 40v9q0 33 23 61t55 45q-137 4 -204 63.5t-67 188.5v70q0 69 21 117.5t56.5 79.5t83 45t100.5 14q58 0 106 -13t82 -44.5t53 -83.5t19 -129v-78h-349v-11q0 -58 35.5 -77t103.5 -19q34 0 79.5 6t84.5 20v-118
q-28 -12 -69 -20q-19 -10 -35 -22.5t-28 -26t-18.5 -27t-6.5 -25.5v-7q0 -20 14.5 -26t34.5 -6q15 0 32.5 2t28.5 5v-88q-13 -4 -36 -7.5t-51 -3.5zM393 323v21q0 46 -21.5 72t-69.5 26q-45 0 -68.5 -26t-23.5 -74v-19h183z" />
    <glyph glyph-name="Ecaron" unicode="&#x11a;" horiz-adv-x="623" 
d="M577 750v-143h-332v-154h299v-142h-299v-168h347v-143h-530v750h515zM174 960h111l60 -76l59 76h113l-111 -170h-121z" />
    <glyph glyph-name="ecaron" unicode="&#x11b;" horiz-adv-x="593" 
d="M559 219h-349v-11q0 -58 35.5 -77t103.5 -19q34 0 79.5 6t84.5 20v-118q-16 -8 -38.5 -13.5t-48 -9.5t-51.5 -6t-49 -2q-144 0 -216 60t-72 192v70q0 69 21 117.5t56.5 79.5t83 45t100.5 14q58 0 106 -13t82 -44.5t53 -83.5t19 -129v-78zM393 323v21q0 46 -21.5 72
t-69.5 26q-45 0 -68.5 -26t-23.5 -74v-19h183zM134 760h111l60 -76l59 76h113l-111 -170h-121z" />
    <glyph glyph-name="Gcircumflex" unicode="&#x11c;" horiz-adv-x="710" 
d="M603 590q-38 8 -88 13t-98 5q-56 0 -92 -9t-57 -28.5t-29 -50.5t-8 -74v-136q0 -44 8.5 -75.5t30.5 -52.5t58 -31t92 -10q15 0 29.5 1t31.5 3v151h-114v134h289v-405q-54 -20 -121.5 -27.5t-134.5 -7.5q-93 0 -160.5 17t-110.5 55t-63.5 99t-20.5 150v118q0 94 22 157.5
t65.5 102t108.5 55t151 16.5q28 0 58 -2t58 -5t52.5 -8t42.5 -11v-144zM302 967h121l111 -170h-113l-59 76l-60 -76h-111z" />
    <glyph glyph-name="gcircumflex" unicode="&#x11d;" horiz-adv-x="631" 
d="M248 -6q-56 0 -95 13.5t-64 38.5t-36 59t-11 75v164q0 60 16.5 102.5t46.5 69t70.5 39t88.5 12.5q38 0 80 -9t82 -36l12 31h137v-544q0 -57 -13 -100.5t-44.5 -72.5t-85 -44t-135.5 -15q-43 0 -83 5t-69 12v124q32 -8 68 -12t72 -4q62 0 87 18t25 65v45q-29 -18 -67 -27
t-82 -9zM397 402q-17 14 -40 21t-46 7q-43 0 -67 -20.5t-24 -78.5v-115q0 -44 17 -64t59 -20q59 0 101 21v249zM257 767h121l111 -170h-113l-59 76l-60 -76h-111z" />
    <glyph glyph-name="Gbreve" unicode="&#x11e;" horiz-adv-x="710" 
d="M603 590q-38 8 -88 13t-98 5q-56 0 -92 -9t-57 -28.5t-29 -50.5t-8 -74v-136q0 -44 8.5 -75.5t30.5 -52.5t58 -31t92 -10q15 0 29.5 1t31.5 3v151h-114v134h289v-405q-54 -20 -121.5 -27.5t-134.5 -7.5q-93 0 -160.5 17t-110.5 55t-63.5 99t-20.5 150v118q0 94 22 157.5
t65.5 102t108.5 55t151 16.5q28 0 58 -2t58 -5t52.5 -8t42.5 -11v-144zM369 803q-35 0 -62.5 12t-47 32t-30 47.5t-11.5 59.5h93q4 -59 58 -59t58 59h93q-1 -32 -11.5 -59.5t-30 -47.5t-47 -32t-62.5 -12z" />
    <glyph glyph-name="gbreve" unicode="&#x11f;" horiz-adv-x="631" 
d="M248 -6q-56 0 -95 13.5t-64 38.5t-36 59t-11 75v164q0 60 16.5 102.5t46.5 69t70.5 39t88.5 12.5q38 0 80 -9t82 -36l12 31h137v-544q0 -57 -13 -100.5t-44.5 -72.5t-85 -44t-135.5 -15q-43 0 -83 5t-69 12v124q32 -8 68 -12t72 -4q62 0 87 18t25 65v45q-29 -18 -67 -27
t-82 -9zM397 402q-17 14 -40 21t-46 7q-43 0 -67 -20.5t-24 -78.5v-115q0 -44 17 -64t59 -20q59 0 101 21v249zM315 603q-35 0 -62.5 12t-47 32t-30 47.5t-11.5 59.5h93q4 -59 58 -59t58 59h93q-1 -32 -11.5 -59.5t-30 -47.5t-47 -32t-62.5 -12z" />
    <glyph glyph-name="Gdotaccent" unicode="&#x120;" horiz-adv-x="710" 
d="M603 590q-38 8 -88 13t-98 5q-56 0 -92 -9t-57 -28.5t-29 -50.5t-8 -74v-136q0 -44 8.5 -75.5t30.5 -52.5t58 -31t92 -10q15 0 29.5 1t31.5 3v151h-114v134h289v-405q-54 -20 -121.5 -27.5t-134.5 -7.5q-93 0 -160.5 17t-110.5 55t-63.5 99t-20.5 150v118q0 94 22 157.5
t65.5 102t108.5 55t151 16.5q28 0 58 -2t58 -5t52.5 -8t42.5 -11v-144zM302 938h118v-126h-118v126z" />
    <glyph glyph-name="gdotaccent" unicode="&#x121;" horiz-adv-x="631" 
d="M248 -6q-56 0 -95 13.5t-64 38.5t-36 59t-11 75v164q0 60 16.5 102.5t46.5 69t70.5 39t88.5 12.5q38 0 80 -9t82 -36l12 31h137v-544q0 -57 -13 -100.5t-44.5 -72.5t-85 -44t-135.5 -15q-43 0 -83 5t-69 12v124q32 -8 68 -12t72 -4q62 0 87 18t25 65v45q-29 -18 -67 -27
t-82 -9zM397 402q-17 14 -40 21t-46 7q-43 0 -67 -20.5t-24 -78.5v-115q0 -44 17 -64t59 -20q59 0 101 21v249zM256 738h118v-126h-118v126z" />
    <glyph glyph-name="uni0122" unicode="&#x122;" horiz-adv-x="710" 
d="M603 590q-38 8 -88 13t-98 5q-56 0 -92 -9t-57 -28.5t-29 -50.5t-8 -74v-136q0 -44 8.5 -75.5t30.5 -52.5t58 -31t92 -10q15 0 29.5 1t31.5 3v151h-114v134h289v-405q-54 -20 -121.5 -27.5t-134.5 -7.5q-93 0 -160.5 17t-110.5 55t-63.5 99t-20.5 150v118q0 94 22 157.5
t65.5 102t108.5 55t151 16.5q28 0 58 -2t58 -5t52.5 -8t42.5 -11v-144zM317 -46h146l-67 -194h-121z" />
    <glyph glyph-name="uni0123" unicode="&#x123;" horiz-adv-x="631" 
d="M248 -6q-56 0 -95 13.5t-64 38.5t-36 59t-11 75v164q0 60 16.5 102.5t46.5 69t70.5 39t88.5 12.5q38 0 80 -9t82 -36l12 31h137v-544q0 -57 -13 -100.5t-44.5 -72.5t-85 -44t-135.5 -15q-43 0 -83 5t-69 12v124q32 -8 68 -12t72 -4q62 0 87 18t25 65v45q-29 -18 -67 -27
t-82 -9zM397 402q-17 14 -40 21t-46 7q-43 0 -67 -20.5t-24 -78.5v-115q0 -44 17 -64t59 -20q59 0 101 21v249zM379 596h-146l67 194h121z" />
    <glyph glyph-name="Hcircumflex" unicode="&#x124;" horiz-adv-x="743" 
d="M681 750v-750h-182v303h-255v-303h-182v750h182v-285h255v285h182zM311 967h121l111 -170h-113l-59 76l-60 -76h-111z" />
    <glyph glyph-name="hcircumflex" unicode="&#x125;" horiz-adv-x="614" 
d="M562 0h-178v357q0 35 -9 51t-42 16q-23 0 -49.5 -8.5t-49.5 -22.5v-393h-178v744l178 30v-250q34 20 75.5 31.5t79.5 11.5q48 0 81 -13t53.5 -36t29.5 -54.5t9 -68.5v-395zM268 967h121l111 -170h-113l-59 76l-60 -76h-111z" />
    <glyph glyph-name="Hbar" unicode="&#x126;" horiz-adv-x="743" 
d="M-6 615h68v135h182v-135h255v135h182v-135h67v-111h-67v-504h-182v258h-255v-258h-182v504h-68v111zM499 416v88h-255v-88h255z" />
    <glyph glyph-name="hbar" unicode="&#x127;" horiz-adv-x="619" 
d="M0 690h62v54l178 30v-84h111v-101h-111v-88q34 20 75.5 31.5t79.5 11.5q48 0 81 -13t53.5 -36t29.5 -54.5t9 -68.5v-372h-178v334q0 35 -9 51t-42 16q-23 0 -49.5 -8.5t-49.5 -22.5v-370h-178v589h-62v101z" />
    <glyph glyph-name="Itilde" unicode="&#x128;" horiz-adv-x="307" 
d="M245 0h-183v750h183v-750zM218 799q-26 0 -42 7t-28 16t-21.5 16t-22.5 7q-16 0 -23.5 -13t-10.5 -33h-92q3 25 10.5 51.5t21 48.5t34.5 36t50 14q27 0 44.5 -7t30 -16t22 -16t21.5 -7q18 0 23.5 14t7.5 34h92q-2 -24 -8.5 -50.5t-19.5 -49t-34.5 -37.5t-54.5 -15z" />
    <glyph glyph-name="itilde" unicode="&#x129;" horiz-adv-x="290" 
d="M234 0h-178v553h178v-553zM207 599q-26 0 -42 7t-28 16t-21.5 16t-22.5 7q-16 0 -23.5 -13t-10.5 -33h-92q3 25 10.5 51.5t21 48.5t34.5 36t50 14q27 0 44.5 -7t30 -16t22 -16t21.5 -7q18 0 23.5 14t7.5 34h92q-2 -24 -8.5 -50.5t-19.5 -49t-34.5 -37.5t-54.5 -15z" />
    <glyph glyph-name="Imacron" unicode="&#x12a;" horiz-adv-x="307" 
d="M245 0h-183v750h183v-750zM1 935h306v-110h-306v110z" />
    <glyph glyph-name="imacron" unicode="&#x12b;" horiz-adv-x="293" 
d="M235 0h-178v553h178v-553zM-6 735h306v-106h-306v106z" />
    <glyph glyph-name="Ibreve" unicode="&#x12c;" horiz-adv-x="307" 
d="M245 0h-183v750h183v-750zM154 803q-35 0 -62.5 12t-47 32t-30 47.5t-11.5 59.5h93q4 -59 58 -59t58 59h93q-1 -32 -11.5 -59.5t-30 -47.5t-47 -32t-62.5 -12z" />
    <glyph glyph-name="ibreve" unicode="&#x12d;" horiz-adv-x="292" 
d="M234 0h-178v553h178v-553zM146 603q-35 0 -62.5 12t-47 32t-30 47.5t-11.5 59.5h93q4 -59 58 -59t58 59h93q-1 -32 -11.5 -59.5t-30 -47.5t-47 -32t-62.5 -12z" />
    <glyph glyph-name="Iogonek" unicode="&#x12e;" horiz-adv-x="307" 
d="M180 -232q-39 0 -67 8.5t-46 23.5t-26.5 34t-8.5 40v9q0 19 8.5 37.5t23 34t33.5 27t39 18.5h-74v750h183v-750q-19 -10 -35 -22.5t-28 -26t-18.5 -27t-6.5 -25.5v-7q0 -20 14.5 -26t34.5 -6q15 0 32.5 2t28.5 5v-88q-13 -4 -36 -7.5t-51 -3.5z" />
    <glyph glyph-name="iogonek" unicode="&#x12f;" horiz-adv-x="293" 
d="M170 -232q-39 0 -67 8.5t-46 23.5t-26.5 34t-8.5 40v9q0 19 8.5 37.5t23 34t33.5 27t39 18.5h-69v553h178v-553q-19 -10 -35 -22.5t-28 -26t-18.5 -27t-6.5 -25.5v-7q0 -20 14.5 -26t34.5 -6q15 0 32.5 2t28.5 5v-88q-13 -4 -36 -7.5t-51 -3.5zM235 625h-178v163h178
v-163z" />
    <glyph glyph-name="Idotaccent" unicode="&#x130;" horiz-adv-x="307" 
d="M245 0h-183v750h183v-750zM95 938h118v-126h-118v126z" />
    <glyph glyph-name="dotlessi" unicode="&#x131;" horiz-adv-x="290" 
d="M234 0h-178v553h178v-553z" />
    <glyph glyph-name="IJ" unicode="&#x132;" horiz-adv-x="757" 
d="M245 0h-183v750h183v-750zM697 750v-540q0 -57 -10.5 -98.5t-36 -68.5t-69 -40t-108.5 -13q-13 0 -32.5 1.5t-40.5 4.5t-42 7.5t-37 10.5v153q38 -13 67.5 -17t55.5 -4q38 0 54 17t16 67v520h183z" />
    <glyph glyph-name="ij" unicode="&#x133;" horiz-adv-x="610" 
d="M235 0h-178v553h178v-553zM235 625h-178v163h178v-163zM549 553v-585q0 -59 -12.5 -96t-37 -58t-60.5 -29t-82 -8q-42 0 -76.5 4t-64.5 11v138q25 -5 46.5 -6.5t40.5 -1.5t32 2.5t21 10.5t11.5 22.5t3.5 39.5v556h178zM549 625h-178v163h178v-163z" />
    <glyph glyph-name="Jcircumflex" unicode="&#x134;" horiz-adv-x="450" 
d="M390 750v-540q0 -57 -10.5 -98.5t-36 -68.5t-69 -40t-108.5 -13q-13 0 -32.5 1.5t-40.5 4.5t-42 7.5t-37 10.5v153q38 -13 67.5 -17t55.5 -4q38 0 54 17t16 67v520h183zM238 967h121l111 -170h-113l-59 76l-60 -76h-111z" />
    <glyph glyph-name="jcircumflex" unicode="&#x135;" horiz-adv-x="317" 
d="M256 553v-585q0 -59 -12.5 -96t-37 -58t-60.5 -29t-82 -8q-42 0 -76.5 4t-64.5 11v138q25 -5 46.5 -6.5t40.5 -1.5t32 2.5t21 10.5t11.5 22.5t3.5 39.5v556h178zM109 767h121l111 -170h-113l-59 76l-60 -76h-111z" />
    <glyph glyph-name="uni0136" unicode="&#x136;" horiz-adv-x="749" 
d="M472 380l263 -380h-215l-198 308h-77v-308h-183v750h183v-299h74l174 299h213zM331 -46h146l-67 -194h-121z" />
    <glyph glyph-name="uni0137" unicode="&#x137;" horiz-adv-x="616" 
d="M234 774v-409h51l123 188h196l-172 -254l182 -299h-211l-123 225h-46v-225h-178v744zM259 -46h146l-67 -194h-121z" />
    <glyph glyph-name="kgreenlandic" unicode="&#x138;" horiz-adv-x="619" 
d="M234 553v-202h51l121 202h198l-179 -268l189 -285h-211l-123 211h-46v-211h-178v553h178z" />
    <glyph glyph-name="Lacute" unicode="&#x139;" horiz-adv-x="589" 
d="M245 750v-594h326v-156h-509v750h183zM163 948h180l-117 -147h-154z" />
    <glyph glyph-name="lacute" unicode="&#x13a;" horiz-adv-x="290" 
d="M56 0v744l178 30v-774h-178zM159 948h180l-117 -147h-154z" />
    <glyph glyph-name="uni013B" unicode="&#x13b;" horiz-adv-x="589" 
d="M245 750v-594h326v-156h-509v750h183zM261 -46h146l-67 -194h-121z" />
    <glyph glyph-name="uni013C" unicode="&#x13c;" horiz-adv-x="290" 
d="M56 0v744l178 30v-774h-178zM77 -46h146l-67 -194h-121z" />
    <glyph glyph-name="Lcaron" unicode="&#x13d;" horiz-adv-x="589" 
d="M458 750l-32 -221h-114l9 221h137zM245 750v-594h326v-156h-509v750h183z" />
    <glyph glyph-name="lcaron" unicode="&#x13e;" horiz-adv-x="401" 
d="M433 761l-32 -212h-111l9 212h134zM56 0v744l178 30v-774h-178z" />
    <glyph glyph-name="Ldot" unicode="&#x13f;" horiz-adv-x="589" 
d="M245 750v-594h326v-156h-509v750h183zM405 490h118v-126h-118v126z" />
    <glyph glyph-name="ldot" unicode="&#x140;" horiz-adv-x="418" 
d="M56 0v744l178 30v-774h-178zM300 459h118v-126h-118v126z" />
    <glyph glyph-name="Lslash" unicode="&#x141;" horiz-adv-x="634" 
d="M0 359l107 49v342h183v-258l166 77v-128l-166 -77v-208h326v-156h-509v280l-107 -49v128z" />
    <glyph glyph-name="lslash" unicode="&#x142;" horiz-adv-x="354" 
d="M88 0v277l-98 -60v128l98 60v339l178 30v-259l98 60v-128l-98 -60v-387h-178z" />
    <glyph glyph-name="Nacute" unicode="&#x143;" horiz-adv-x="740" 
d="M678 0h-188l-212 380q-17 29 -28 55.5t-20 54.5v-490h-168v750h187l226 -409q10 -18 17.5 -36.5t17.5 -45.5v491h168v-750zM386 948h180l-117 -147h-154z" />
    <glyph glyph-name="nacute" unicode="&#x144;" horiz-adv-x="614" 
d="M562 0h-178v357q0 35 -9.5 51t-41.5 16q-23 0 -50.5 -8t-49.5 -24v-392h-177v553h132l12 -47q42 30 92 45.5t92 15.5q51 0 85 -13t54.5 -36t29.5 -54.5t9 -68.5v-395zM331 748h180l-117 -147h-154z" />
    <glyph glyph-name="uni0145" unicode="&#x145;" horiz-adv-x="740" 
d="M678 0h-188l-212 380q-17 29 -28 55.5t-20 54.5v-490h-168v750h187l226 -409q10 -18 17.5 -36.5t17.5 -45.5v491h168v-750zM319 -46h146l-67 -194h-121z" />
    <glyph glyph-name="uni0146" unicode="&#x146;" horiz-adv-x="614" 
d="M562 0h-178v357q0 35 -9.5 51t-41.5 16q-23 0 -50.5 -8t-49.5 -24v-392h-177v553h132l12 -47q42 30 92 45.5t92 15.5q51 0 85 -13t54.5 -36t29.5 -54.5t9 -68.5v-395zM245 -46h146l-67 -194h-121z" />
    <glyph glyph-name="Ncaron" unicode="&#x147;" horiz-adv-x="740" 
d="M678 0h-188l-212 380q-17 29 -28 55.5t-20 54.5v-490h-168v750h187l226 -409q10 -18 17.5 -36.5t17.5 -45.5v491h168v-750zM218 960h111l60 -76l59 76h113l-111 -170h-121z" />
    <glyph glyph-name="ncaron" unicode="&#x148;" horiz-adv-x="614" 
d="M562 0h-178v357q0 35 -9.5 51t-41.5 16q-23 0 -50.5 -8t-49.5 -24v-392h-177v553h132l12 -47q42 30 92 45.5t92 15.5q51 0 85 -13t54.5 -36t29.5 -54.5t9 -68.5v-395zM155 760h111l60 -76l59 76h113l-111 -170h-121z" />
    <glyph glyph-name="napostrophe" unicode="&#x149;" horiz-adv-x="715" 
d="M150 700l-39 -213h-111l16 213h134zM663 0h-178v357q0 35 -9.5 51t-41.5 16q-23 0 -50.5 -8t-49.5 -24v-392h-177v553h132l12 -47q42 30 92 45.5t92 15.5q51 0 85 -13t54.5 -36t29.5 -54.5t9 -68.5v-395z" />
    <glyph glyph-name="Eng" unicode="&#x14a;" horiz-adv-x="740" 
d="M678 -32q0 -59 -13 -96t-37.5 -58t-61 -29t-82.5 -8q-38 0 -72.5 4t-64.5 11v138q26 -5 46 -6.5t39 -1.5q18 0 30 2t20 8.5t12 18.5t5 32l-221 397q-17 29 -28 55.5t-20 54.5v-490h-168v750h187l226 -409q10 -18 17.5 -36.5t17.5 -45.5v491h168v-782z" />
    <glyph glyph-name="eng" unicode="&#x14b;" horiz-adv-x="610" 
d="M562 -37q0 -56 -10 -92t-31 -57t-54 -29t-79 -8q-35 0 -60 3t-52 11v136q20 -4 32 -5.5t26 -1.5q15 0 25 3t15.5 11t7.5 22.5t2 37.5v363q0 35 -9.5 51t-41.5 16q-23 0 -50.5 -8t-49.5 -24v-392h-177v553h132l12 -47q42 30 92 45.5t92 15.5q51 0 85 -13t54.5 -36
t29.5 -54.5t9 -68.5v-432z" />
    <glyph glyph-name="Omacron" unicode="&#x14c;" horiz-adv-x="758" 
d="M720 311q0 -162 -90.5 -243t-250.5 -81q-79 0 -142 20t-107.5 60.5t-68 101.5t-23.5 142v128q0 81 24 141.5t68 101t107.5 61t141.5 20.5q79 0 142 -20.5t107.5 -61t68 -101t23.5 -141.5v-128zM534 423q0 97 -37 140t-118 43t-118.5 -43t-37.5 -140v-96q0 -97 37.5 -140
t118.5 -43t118 43t37 140v96zM226 935h306v-106h-306v106z" />
    <glyph glyph-name="omacron" unicode="&#x14d;" horiz-adv-x="616" 
d="M308 -13q-134 0 -202 62t-68 188v80q0 121 68 185.5t202 64.5t202 -64.5t68 -185.5v-80q0 -126 -68 -188t-202 -62zM308 432q-45 0 -68.5 -26.5t-23.5 -95.5v-66q0 -69 23.5 -95.5t68.5 -26.5t68.5 26.5t23.5 95.5v66q0 69 -23.5 95.5t-68.5 26.5zM154 735h306v-106h-306
v106z" />
    <glyph glyph-name="Obreve" unicode="&#x14e;" horiz-adv-x="758" 
d="M720 311q0 -162 -90.5 -243t-250.5 -81q-79 0 -142 20t-107.5 60.5t-68 101.5t-23.5 142v128q0 81 24 141.5t68 101t107.5 61t141.5 20.5q79 0 142 -20.5t107.5 -61t68 -101t23.5 -141.5v-128zM534 423q0 97 -37 140t-118 43t-118.5 -43t-37.5 -140v-96q0 -97 37.5 -140
t118.5 -43t118 43t37 140v96zM379 803q-35 0 -62.5 12t-47 32t-30 47.5t-11.5 59.5h93q4 -59 58 -59t58 59h93q-1 -32 -11.5 -59.5t-30 -47.5t-47 -32t-62.5 -12z" />
    <glyph glyph-name="obreve" unicode="&#x14f;" horiz-adv-x="616" 
d="M308 -13q-134 0 -202 62t-68 188v80q0 121 68 185.5t202 64.5t202 -64.5t68 -185.5v-80q0 -126 -68 -188t-202 -62zM308 432q-45 0 -68.5 -26.5t-23.5 -95.5v-66q0 -69 23.5 -95.5t68.5 -26.5t68.5 26.5t23.5 95.5v66q0 69 -23.5 95.5t-68.5 26.5zM307 603
q-35 0 -62.5 12t-47 32t-30 47.5t-11.5 59.5h93q4 -59 58 -59t58 59h93q-1 -32 -11.5 -59.5t-30 -47.5t-47 -32t-62.5 -12z" />
    <glyph glyph-name="Ohungarumlaut" unicode="&#x150;" horiz-adv-x="758" 
d="M720 311q0 -162 -90.5 -243t-250.5 -81q-79 0 -142 20t-107.5 60.5t-68 101.5t-23.5 142v128q0 81 24 141.5t68 101t107.5 61t141.5 20.5q79 0 142 -20.5t107.5 -61t68 -101t23.5 -141.5v-128zM534 423q0 97 -37 140t-118 43t-118.5 -43t-37.5 -140v-96q0 -97 37.5 -140
t118.5 -43t118 43t37 140v96zM460 948h127l-71 -147h-105zM283 948h128l-71 -147h-107z" />
    <glyph glyph-name="ohungarumlaut" unicode="&#x151;" horiz-adv-x="616" 
d="M308 -13q-134 0 -202 62t-68 188v80q0 121 68 185.5t202 64.5t202 -64.5t68 -185.5v-80q0 -126 -68 -188t-202 -62zM308 432q-45 0 -68.5 -26.5t-23.5 -95.5v-66q0 -69 23.5 -95.5t68.5 -26.5t68.5 26.5t23.5 95.5v66q0 69 -23.5 95.5t-68.5 26.5zM393 748h127l-71 -147
h-105zM216 748h128l-71 -147h-107z" />
    <glyph glyph-name="OE" unicode="&#x152;" horiz-adv-x="1055" 
d="M1009 750v-143h-332v-154h299v-142h-299v-168h347v-143h-617q-79 0 -142.5 18.5t-108.5 57.5t-69.5 98.5t-24.5 140.5v120q0 81 24.5 140t69.5 98t109 58t142 19h602zM247 329q0 -97 43 -140.5t124 -43.5h80v460h-80q-81 0 -124 -43.5t-43 -140.5v-92z" />
    <glyph glyph-name="oe" unicode="&#x153;" horiz-adv-x="931" 
d="M308 -13q-134 0 -202 62t-68 188v80q0 121 68 185.5t202 64.5q51 0 98 -17t78 -53q33 37 77.5 53.5t89.5 16.5q58 0 106 -13t82 -44.5t53 -83.5t19 -129v-78h-349v-11q0 -58 35.5 -77t103.5 -19q34 0 79.5 6t84.5 20v-118q-16 -8 -38.5 -13.5t-48 -9.5t-51.5 -6t-49 -2
q-59 0 -109 15.5t-84 50.5q-31 -35 -79.5 -51.5t-97.5 -16.5zM308 432q-45 0 -68.5 -26.5t-23.5 -95.5v-66q0 -69 23.5 -95.5t68.5 -26.5t68.5 26.5t23.5 95.5v66q0 69 -24.5 95.5t-67.5 26.5zM745 323v21q0 46 -21.5 72t-69.5 26q-45 0 -68.5 -26t-23.5 -74v-19h183z" />
    <glyph glyph-name="Racute" unicode="&#x154;" horiz-adv-x="699" 
d="M62 750h314q62 0 111 -8t83 -30t52 -60.5t18 -99.5v-75q0 -69 -25 -110.5t-76 -61.5l143 -305h-195l-124 281h-118v-281h-183v750zM245 621v-210h85q35 0 59 3.5t38.5 13t21 26.5t6.5 45v41q0 45 -26 63t-86 18h-98zM342 948h180l-117 -147h-154z" />
    <glyph glyph-name="racute" unicode="&#x155;" horiz-adv-x="426" 
d="M408 399q-50 -1 -97 -13.5t-78 -35.5v-350h-177v553h130l13 -77q35 36 85.5 62t123.5 29v-168zM230 748h180l-117 -147h-154z" />
    <glyph glyph-name="uni0156" unicode="&#x156;" horiz-adv-x="699" 
d="M62 750h314q62 0 111 -8t83 -30t52 -60.5t18 -99.5v-75q0 -69 -25 -110.5t-76 -61.5l143 -305h-195l-124 281h-118v-281h-183v750zM245 621v-210h85q35 0 59 3.5t38.5 13t21 26.5t6.5 45v41q0 45 -26 63t-86 18h-98zM308 -46h146l-67 -194h-121z" />
    <glyph glyph-name="uni0157" unicode="&#x157;" horiz-adv-x="426" 
d="M408 399q-50 -1 -97 -13.5t-78 -35.5v-350h-177v553h130l13 -77q35 36 85.5 62t123.5 29v-168zM73 -46h146l-67 -194h-121z" />
    <glyph glyph-name="Rcaron" unicode="&#x158;" horiz-adv-x="699" 
d="M62 750h314q62 0 111 -8t83 -30t52 -60.5t18 -99.5v-75q0 -69 -25 -110.5t-76 -61.5l143 -305h-195l-124 281h-118v-281h-183v750zM245 621v-210h85q35 0 59 3.5t38.5 13t21 26.5t6.5 45v41q0 45 -26 63t-86 18h-98zM182 960h111l60 -76l59 76h113l-111 -170h-121z" />
    <glyph glyph-name="rcaron" unicode="&#x159;" horiz-adv-x="426" 
d="M408 399q-50 -1 -97 -13.5t-78 -35.5v-350h-177v553h130l13 -77q35 36 85.5 62t123.5 29v-168zM60 760h111l60 -76l59 76h113l-111 -170h-121z" />
    <glyph glyph-name="Sacute" unicode="&#x15a;" horiz-adv-x="618" 
d="M590 220q0 -54 -16 -96.5t-51 -72t-91 -45.5t-136 -16q-56 0 -125 8.5t-132 31.5v146q66 -22 125 -30.5t104 -8.5q71 0 104 16t33 58q0 17 -5 29.5t-18.5 22t-38 18.5t-63.5 19l-74 19q-77 19 -122.5 72t-45.5 146q0 55 16.5 97t51 70t88.5 42t130 14q31 0 63 -1.5
t61.5 -5t54.5 -8t43 -10.5v-137q-40 10 -90.5 15t-93.5 5q-42 0 -69 -4.5t-43 -13.5t-22.5 -22.5t-6.5 -32.5q0 -20 7.5 -32t22 -21t36 -15.5t50.5 -13.5l75 -19q46 -12 79.5 -29.5t55.5 -44t32.5 -63.5t10.5 -87zM311 948h180l-117 -147h-154z" />
    <glyph glyph-name="sacute" unicode="&#x15b;" horiz-adv-x="500" 
d="M476 168q0 -38 -11.5 -70.5t-38.5 -56.5t-71 -37.5t-108 -13.5q-48 0 -107.5 8.5t-107.5 24.5v127q63 -20 115 -25.5t81 -5.5q54 0 72 9t18 33q0 11 -2.5 18t-10 12.5t-21.5 9.5t-37 10l-62 15q-44 11 -72.5 27t-46 37.5t-24.5 49t-7 61.5q0 85 54.5 125.5t175.5 40.5
q55 0 100.5 -7t70.5 -14v-122q-15 4 -35 8t-41.5 7t-42.5 4.5t-38 1.5q-27 0 -44.5 -2t-27.5 -7t-13.5 -12.5t-3.5 -17.5q0 -11 2.5 -17.5t11 -11t23 -9t38.5 -10.5l64 -17q45 -12 73.5 -26.5t45 -34.5t22.5 -47.5t6 -64.5zM241 748h180l-117 -147h-154z" />
    <glyph glyph-name="Scircumflex" unicode="&#x15c;" horiz-adv-x="618" 
d="M590 220q0 -54 -16 -96.5t-51 -72t-91 -45.5t-136 -16q-56 0 -125 8.5t-132 31.5v146q66 -22 125 -30.5t104 -8.5q71 0 104 16t33 58q0 17 -5 29.5t-18.5 22t-38 18.5t-63.5 19l-74 19q-77 19 -122.5 72t-45.5 146q0 55 16.5 97t51 70t88.5 42t130 14q31 0 63 -1.5
t61.5 -5t54.5 -8t43 -10.5v-137q-40 10 -90.5 15t-93.5 5q-42 0 -69 -4.5t-43 -13.5t-22.5 -22.5t-6.5 -32.5q0 -20 7.5 -32t22 -21t36 -15.5t50.5 -13.5l75 -19q46 -12 79.5 -29.5t55.5 -44t32.5 -63.5t10.5 -87zM259 967h121l111 -170h-113l-59 76l-60 -76h-111z" />
    <glyph glyph-name="scircumflex" unicode="&#x15d;" horiz-adv-x="500" 
d="M476 168q0 -38 -11.5 -70.5t-38.5 -56.5t-71 -37.5t-108 -13.5q-48 0 -107.5 8.5t-107.5 24.5v127q63 -20 115 -25.5t81 -5.5q54 0 72 9t18 33q0 11 -2.5 18t-10 12.5t-21.5 9.5t-37 10l-62 15q-44 11 -72.5 27t-46 37.5t-24.5 49t-7 61.5q0 85 54.5 125.5t175.5 40.5
q55 0 100.5 -7t70.5 -14v-122q-15 4 -35 8t-41.5 7t-42.5 4.5t-38 1.5q-27 0 -44.5 -2t-27.5 -7t-13.5 -12.5t-3.5 -17.5q0 -11 2.5 -17.5t11 -11t23 -9t38.5 -10.5l64 -17q45 -12 73.5 -26.5t45 -34.5t22.5 -47.5t6 -64.5zM190 767h121l111 -170h-113l-59 76l-60 -76h-111z
" />
    <glyph glyph-name="Scedilla" unicode="&#x15e;" horiz-adv-x="618" 
d="M289 -273q-20 0 -47 2t-49 6v84q15 -2 35 -3.5t45 -1.5q35 0 50.5 10.5t15.5 24.5v8q0 17 -15.5 26.5t-61.5 9.5h-26v99q-48 3 -98.5 12t-98.5 26v146q66 -22 125 -30.5t104 -8.5q71 0 104 16t33 58q0 17 -5 29.5t-18.5 22t-38 18.5t-63.5 19l-74 19q-77 19 -122.5 72
t-45.5 146q0 55 16.5 97t51 70t88.5 42t130 14q31 0 63 -1.5t61.5 -5t54.5 -8t43 -10.5v-137q-40 10 -90.5 15t-93.5 5q-42 0 -69 -4.5t-43 -13.5t-22.5 -22.5t-6.5 -32.5q0 -20 7.5 -32t22 -21t36 -15.5t50.5 -13.5l75 -19q46 -12 79.5 -29.5t55.5 -44t32.5 -63.5t10.5 -87
t-13.5 -90t-43 -69t-76.5 -47t-113 -22v-39q33 -3 54.5 -11.5t34 -21.5t17.5 -30.5t5 -37.5v-8q0 -62 -43 -89.5t-123 -27.5z" />
    <glyph glyph-name="scedilla" unicode="&#x15f;" horiz-adv-x="500" 
d="M230 -273q-20 0 -47 2t-49 6v84q15 -2 35 -3.5t45 -1.5q35 0 50.5 10.5t15.5 24.5v8q0 17 -15.5 26.5t-61.5 9.5h-26v101q-38 4 -75.5 11t-69.5 18v127q63 -20 115 -25.5t81 -5.5q54 0 72 9t18 33q0 11 -2.5 18t-10 12.5t-21.5 9.5t-37 10l-62 15q-44 11 -72.5 27
t-46 37.5t-24.5 49t-7 61.5q0 85 54.5 125.5t175.5 40.5q55 0 100.5 -7t70.5 -14v-122q-15 4 -35 8t-41.5 7t-42.5 4.5t-38 1.5q-27 0 -44.5 -2t-27.5 -7t-13.5 -12.5t-3.5 -17.5q0 -11 2.5 -17.5t11 -11t23 -9t38.5 -10.5l64 -17q45 -12 73.5 -26.5t45 -34.5t22.5 -47.5
t6 -64.5q0 -35 -10 -65.5t-32.5 -53.5t-59 -38t-89.5 -19v-39q33 -3 54.5 -11.5t34 -21.5t17.5 -30.5t5 -37.5v-8q0 -62 -43 -89.5t-123 -27.5z" />
    <glyph glyph-name="Scaron" unicode="&#x160;" horiz-adv-x="618" 
d="M590 220q0 -54 -16 -96.5t-51 -72t-91 -45.5t-136 -16q-56 0 -125 8.5t-132 31.5v146q66 -22 125 -30.5t104 -8.5q71 0 104 16t33 58q0 17 -5 29.5t-18.5 22t-38 18.5t-63.5 19l-74 19q-77 19 -122.5 72t-45.5 146q0 55 16.5 97t51 70t88.5 42t130 14q31 0 63 -1.5
t61.5 -5t54.5 -8t43 -10.5v-137q-40 10 -90.5 15t-93.5 5q-42 0 -69 -4.5t-43 -13.5t-22.5 -22.5t-6.5 -32.5q0 -20 7.5 -32t22 -21t36 -15.5t50.5 -13.5l75 -19q46 -12 79.5 -29.5t55.5 -44t32.5 -63.5t10.5 -87zM137 960h111l60 -76l59 76h113l-111 -170h-121z" />
    <glyph glyph-name="scaron" unicode="&#x161;" horiz-adv-x="500" 
d="M476 168q0 -38 -11.5 -70.5t-38.5 -56.5t-71 -37.5t-108 -13.5q-48 0 -107.5 8.5t-107.5 24.5v127q63 -20 115 -25.5t81 -5.5q54 0 72 9t18 33q0 11 -2.5 18t-10 12.5t-21.5 9.5t-37 10l-62 15q-44 11 -72.5 27t-46 37.5t-24.5 49t-7 61.5q0 85 54.5 125.5t175.5 40.5
q55 0 100.5 -7t70.5 -14v-122q-15 4 -35 8t-41.5 7t-42.5 4.5t-38 1.5q-27 0 -44.5 -2t-27.5 -7t-13.5 -12.5t-3.5 -17.5q0 -11 2.5 -17.5t11 -11t23 -9t38.5 -10.5l64 -17q45 -12 73.5 -26.5t45 -34.5t22.5 -47.5t6 -64.5zM79 760h111l60 -76l59 76h113l-111 -170h-121z
" />
    <glyph glyph-name="uni0162" unicode="&#x162;" horiz-adv-x="675" 
d="M338 -273q-20 0 -47 2t-49 6v84q15 -2 35 -3.5t45 -1.5q35 0 50.5 10.5t15.5 24.5v8q0 17 -15.5 26.5t-61.5 9.5h-26v107h-39v594h-224v156h631v-156h-224v-594h-36v-47q33 -3 54.5 -11.5t34 -21.5t17.5 -30.5t5 -37.5v-8q0 -62 -43 -89.5t-123 -27.5z" />
    <glyph glyph-name="uni0163" unicode="&#x163;" horiz-adv-x="452" 
d="M222 -273q-20 0 -47 2t-49 6v84q15 -2 35 -3.5t45 -1.5q35 0 50.5 10.5t15.5 24.5v8q0 17 -15.5 26.5t-61.5 9.5h-26v115q-67 33 -67 134v287h-87v124h87v115l178 34v-149h147v-124h-147v-240q0 -39 11 -53t45 -14q24 0 47.5 4t43.5 14v-117q-29 -17 -69 -24.5t-81 -8.5
v-37q33 -3 54.5 -11.5t34 -21.5t17.5 -30.5t5 -37.5v-8q0 -62 -43 -89.5t-123 -27.5z" />
    <glyph glyph-name="Tcaron" unicode="&#x164;" horiz-adv-x="675" 
d="M22 594v156h631v-156h-224v-594h-183v594h-224zM166 960h111l60 -76l59 76h113l-111 -170h-121z" />
    <glyph glyph-name="tcaron" unicode="&#x165;" horiz-adv-x="452" 
d="M456 771l-32 -192h-111l9 192h134zM427 429h-147v-240q0 -39 11 -53t45 -14q24 0 47.5 4t43.5 14v-117q-31 -17 -73 -25t-85 -8q-88 0 -127.5 37t-39.5 115v287h-87v124h87v115l178 34v-149h147v-124z" />
    <glyph glyph-name="Tbar" unicode="&#x166;" horiz-adv-x="675" 
d="M69 415h177v179h-224v156h631v-156h-224v-179h177v-111h-177v-304h-183v304h-177v111z" />
    <glyph glyph-name="tbar" unicode="&#x167;" horiz-adv-x="452" 
d="M16 351h86v78h-87v124h87v115l178 34v-149h147v-124h-147v-78h148v-101h-148v-61q0 -39 11 -53t45 -14q24 0 47.5 4t43.5 14v-117q-31 -17 -73 -25t-85 -8q-88 0 -127.5 37t-39.5 115v108h-86v101z" />
    <glyph glyph-name="Utilde" unicode="&#x168;" horiz-adv-x="756" 
d="M237 750v-423q0 -51 8 -84.5t25.5 -53.5t44.5 -28t65 -8q39 0 65.5 8t42.5 28t23 53.5t7 84.5v423h184v-473q0 -154 -82 -222t-240 -68q-164 0 -245 68t-81 222v473h183zM442 799q-26 0 -42 7t-28 16t-21.5 16t-22.5 7q-16 0 -23.5 -13t-10.5 -33h-92q3 25 10.5 51.5
t21 48.5t34.5 36t50 14q27 0 44.5 -7t30 -16t22 -16t21.5 -7q18 0 23.5 14t7.5 34h92q-2 -24 -8.5 -50.5t-19.5 -49t-34.5 -37.5t-54.5 -15z" />
    <glyph glyph-name="utilde" unicode="&#x169;" horiz-adv-x="612" 
d="M52 553h178v-357q0 -35 9 -52t40 -17q23 0 50 9t49 24v393h178v-553h-132l-13 47q-42 -32 -92.5 -45.5t-92.5 -13.5q-51 0 -84.5 13t-53.5 35.5t-28 54t-8 68.5v394zM373 599q-26 0 -42 7t-28 16t-21.5 16t-22.5 7q-16 0 -23.5 -13t-10.5 -33h-92q3 25 10.5 51.5t21 48.5
t34.5 36t50 14q27 0 44.5 -7t30 -16t22 -16t21.5 -7q18 0 23.5 14t7.5 34h92q-2 -24 -8.5 -50.5t-19.5 -49t-34.5 -37.5t-54.5 -15z" />
    <glyph glyph-name="Umacron" unicode="&#x16a;" horiz-adv-x="756" 
d="M237 750v-423q0 -51 8 -84.5t25.5 -53.5t44.5 -28t65 -8q39 0 65.5 8t42.5 28t23 53.5t7 84.5v423h184v-473q0 -154 -82 -222t-240 -68q-164 0 -245 68t-81 222v473h183zM224 935h306v-106h-306v106z" />
    <glyph glyph-name="umacron" unicode="&#x16b;" horiz-adv-x="612" 
d="M52 553h178v-357q0 -35 9 -52t40 -17q23 0 50 9t49 24v393h178v-553h-132l-13 47q-42 -32 -92.5 -45.5t-92.5 -13.5q-51 0 -84.5 13t-53.5 35.5t-28 54t-8 68.5v394zM155 735h306v-106h-306v106z" />
    <glyph glyph-name="Ubreve" unicode="&#x16c;" horiz-adv-x="756" 
d="M237 750v-423q0 -51 8 -84.5t25.5 -53.5t44.5 -28t65 -8q39 0 65.5 8t42.5 28t23 53.5t7 84.5v423h184v-473q0 -154 -82 -222t-240 -68q-164 0 -245 68t-81 222v473h183zM377 803q-35 0 -62.5 12t-47 32t-30 47.5t-11.5 59.5h93q4 -59 58 -59t58 59h93
q-1 -32 -11.5 -59.5t-30 -47.5t-47 -32t-62.5 -12z" />
    <glyph glyph-name="ubreve" unicode="&#x16d;" horiz-adv-x="612" 
d="M52 553h178v-357q0 -35 9 -52t40 -17q23 0 50 9t49 24v393h178v-553h-132l-13 47q-42 -32 -92.5 -45.5t-92.5 -13.5q-51 0 -84.5 13t-53.5 35.5t-28 54t-8 68.5v394zM309 603q-35 0 -62.5 12t-47 32t-30 47.5t-11.5 59.5h93q4 -59 58 -59t58 59h93q-1 -32 -11.5 -59.5
t-30 -47.5t-47 -32t-62.5 -12z" />
    <glyph glyph-name="Uring" unicode="&#x16e;" horiz-adv-x="756" 
d="M237 750v-423q0 -51 8 -84.5t25.5 -53.5t44.5 -28t65 -8q39 0 65.5 8t42.5 28t23 53.5t7 84.5v423h184v-473q0 -154 -82 -222t-240 -68q-164 0 -245 68t-81 222v473h183zM377 850q20 0 31.5 12t11.5 32t-11.5 31.5t-31.5 11.5q-19 0 -30.5 -11.5t-11.5 -31.5t11.5 -32
t30.5 -12zM377 782q-25 0 -46 9t-36.5 24.5t-24.5 35.5t-9 43t9 43t24.5 35t36.5 24t46 9t46.5 -9t37 -24t24.5 -35t9 -43t-9 -43t-24.5 -35.5t-37 -24.5t-46.5 -9z" />
    <glyph glyph-name="uring" unicode="&#x16f;" horiz-adv-x="612" 
d="M52 553h178v-357q0 -35 9 -52t40 -17q23 0 50 9t49 24v393h178v-553h-132l-13 47q-42 -32 -92.5 -45.5t-92.5 -13.5q-51 0 -84.5 13t-53.5 35.5t-28 54t-8 68.5v394zM308 650q20 0 31.5 12t11.5 32t-11.5 31.5t-31.5 11.5q-19 0 -30.5 -11.5t-11.5 -31.5t11.5 -32
t30.5 -12zM308 582q-25 0 -46 9t-36.5 24.5t-24.5 35.5t-9 43t9 43t24.5 35t36.5 24t46 9t46.5 -9t37 -24t24.5 -35t9 -43t-9 -43t-24.5 -35.5t-37 -24.5t-46.5 -9z" />
    <glyph glyph-name="Uhungarumlaut" unicode="&#x170;" horiz-adv-x="756" 
d="M237 750v-423q0 -51 8 -84.5t25.5 -53.5t44.5 -28t65 -8q39 0 65.5 8t42.5 28t23 53.5t7 84.5v423h184v-473q0 -154 -82 -222t-240 -68q-164 0 -245 68t-81 222v473h183zM458 948h127l-71 -147h-105zM281 948h128l-71 -147h-107z" />
    <glyph glyph-name="uhungarumlaut" unicode="&#x171;" horiz-adv-x="612" 
d="M52 553h178v-357q0 -35 9 -52t40 -17q23 0 50 9t49 24v393h178v-553h-132l-13 47q-42 -32 -92.5 -45.5t-92.5 -13.5q-51 0 -84.5 13t-53.5 35.5t-28 54t-8 68.5v394zM380 748h127l-71 -147h-105zM203 748h128l-71 -147h-107z" />
    <glyph glyph-name="Uogonek" unicode="&#x172;" horiz-adv-x="756" 
d="M439 -232q-39 0 -67 8.5t-46 23.5t-26.5 34t-8.5 40v9q0 32 21.5 59.5t52.5 44.5q-157 3 -234 71t-77 219v473h183v-423q0 -51 8 -84.5t25.5 -53.5t44.5 -28t65 -8q39 0 65.5 8t42.5 28t23 53.5t7 84.5v423h184v-473q0 -121 -50 -187.5t-149 -89.5q-18 -10 -34 -22.5
t-28 -26t-18.5 -27t-6.5 -25.5v-7q0 -20 14.5 -26t34.5 -6q15 0 32.5 2t28.5 5v-88q-13 -4 -36 -7.5t-51 -3.5z" />
    <glyph glyph-name="uogonek" unicode="&#x173;" horiz-adv-x="612" 
d="M491 -232q-39 0 -67 8.5t-46 23.5t-26.5 34t-8.5 40v9q0 19 8.5 37.5t23 34t33.5 27t39 18.5h-23l-13 47q-42 -32 -92.5 -45.5t-92.5 -13.5q-51 0 -84.5 13t-53.5 35.5t-28 54t-8 68.5v394h178v-357q0 -35 9 -52t40 -17q23 0 50 9t49 24v393h178v-553q-19 -10 -35 -22.5
t-28 -26t-18.5 -27t-6.5 -25.5v-7q0 -20 14.5 -26t34.5 -6q15 0 32.5 2t28.5 5v-88q-13 -4 -36 -7.5t-51 -3.5z" />
    <glyph glyph-name="Wcircumflex" unicode="&#x174;" horiz-adv-x="1033" 
d="M539 401q-7 32 -12.5 78.5t-10.5 91.5q-7 -46 -13.5 -92t-13.5 -78l-84 -401h-222l-172 750h185l77 -395q8 -42 14.5 -83.5t12.5 -89.5q8 49 15 89t16 84l81 395h204l87 -395q9 -41 14 -78.5t10 -88.5q7 45 14.5 85t15.5 82l83 395h183l-186 -750h-213zM456 967h121
l111 -170h-113l-59 76l-60 -76h-111z" />
    <glyph glyph-name="wcircumflex" unicode="&#x175;" horiz-adv-x="881" 
d="M178 553l72 -292q6 -23 9 -47.5t7 -53.5h3q2 25 5 51.5t9 49.5l76 292h170l77 -292q6 -23 10 -46t8 -55h2q3 32 7 55t10 46l77 292h147l-152 -553h-179l-78 285q-7 25 -9.5 55t-5.5 65h-2q-3 -35 -6.5 -65t-10.5 -55l-75 -285h-179l-156 553h164zM382 767h121l111 -170
h-113l-59 76l-60 -76h-111z" />
    <glyph glyph-name="Ycircumflex" unicode="&#x176;" horiz-adv-x="702" 
d="M443 295v-295h-183v293l-249 457h195l92 -188q16 -33 29.5 -64.5t29.5 -75.5q14 44 26.5 75.5t28.5 64.5l91 188h185zM297 967h121l111 -170h-113l-59 76l-60 -76h-111z" />
    <glyph glyph-name="ycircumflex" unicode="&#x177;" horiz-adv-x="602" 
d="M596 553l-273 -766h-187l75 214l-205 552h182l92 -291q8 -26 15 -53t14 -68q9 42 15 68.5t14 51.5l85 292h173zM249 767h121l111 -170h-113l-59 76l-60 -76h-111z" />
    <glyph glyph-name="Ydieresis" unicode="&#x178;" horiz-adv-x="702" 
d="M443 295v-295h-183v293l-249 457h195l92 -188q16 -33 29.5 -64.5t29.5 -75.5q14 44 26.5 75.5t28.5 64.5l91 188h185zM201 938h116v-126h-116v126zM397 938h116v-126h-116v126z" />
    <glyph glyph-name="Zacute" unicode="&#x179;" horiz-adv-x="655" 
d="M305 222q-8 -10 -14.5 -18t-14 -16.5t-17.5 -19t-23 -24.5h387v-144h-593v137l309 392q19 23 34 41t32 37h-360v143h566v-136zM317 948h180l-117 -147h-154z" />
    <glyph glyph-name="zacute" unicode="&#x17a;" horiz-adv-x="521" 
d="M484 448l-187 -255q-14 -19 -29 -36t-32 -36h262v-121h-472v105l187 253q13 17 28 37t32 37h-236v121h447v-105zM256 748h180l-117 -147h-154z" />
    <glyph glyph-name="Zdotaccent" unicode="&#x17b;" horiz-adv-x="655" 
d="M305 222q-8 -10 -14.5 -18t-14 -16.5t-17.5 -19t-23 -24.5h387v-144h-593v137l309 392q19 23 34 41t32 37h-360v143h566v-136zM268 938h118v-126h-118v126z" />
    <glyph glyph-name="zdotaccent" unicode="&#x17c;" horiz-adv-x="521" 
d="M484 448l-187 -255q-14 -19 -29 -36t-32 -36h262v-121h-472v105l187 253q13 17 28 37t32 37h-236v121h447v-105zM202 738h118v-126h-118v126z" />
    <glyph glyph-name="Zcaron" unicode="&#x17d;" horiz-adv-x="655" 
d="M305 222q-8 -10 -14.5 -18t-14 -16.5t-17.5 -19t-23 -24.5h387v-144h-593v137l309 392q19 23 34 41t32 37h-360v143h566v-136zM162 960h111l60 -76l59 76h113l-111 -170h-121z" />
    <glyph glyph-name="zcaron" unicode="&#x17e;" horiz-adv-x="521" 
d="M484 448l-187 -255q-14 -19 -29 -36t-32 -36h262v-121h-472v105l187 253q13 17 28 37t32 37h-236v121h447v-105zM91 760h111l60 -76l59 76h113l-111 -170h-121z" />
    <glyph glyph-name="longs" unicode="&#x17f;" horiz-adv-x="399" 
d="M239 0h-178v622q0 69 45 112t145 43q38 0 75.5 -4t60.5 -10v-113q-17 3 -35.5 5t-37.5 2q-48 0 -61.5 -16t-13.5 -55v-586z" />
    <glyph glyph-name="uni0180" unicode="&#x180;" horiz-adv-x="631" 
d="M-22 680h78v64l178 30v-94h129v-111h-129v-61q32 21 73 33t86 12q49 0 86 -14t61.5 -39t36.5 -58t12 -72v-158q0 -115 -56.5 -168.5t-168.5 -53.5q-48 0 -90 14t-73 37l-10 -41h-135v569h-78v111zM234 159q16 -12 43 -21t56 -9q42 0 60 22.5t18 77.5v102q0 45 -17.5 64.5
t-55.5 19.5q-26 0 -55 -10t-49 -26v-220z" />
    <glyph glyph-name="uni0181" unicode="&#x181;" horiz-adv-x="814" 
d="M506 750q55 0 100 -6.5t77.5 -24.5t50.5 -49t18 -80v-58q0 -44 -20 -82t-75 -56q66 -13 93 -49t27 -87v-79q0 -54 -16.5 -88.5t-50.5 -55t-86 -28t-123 -7.5h-314v628h-17q-30 0 -43 -10t-13 -36q0 -12 1.5 -24t6.5 -26h-130q-6 21 -9 39t-3 37q0 78 45.5 110t132.5 32
h348zM370 327v-202h101q33 0 55.5 3.5t36 13t19 25.5t5.5 41v33q0 48 -23 67t-84 19h-110zM370 625v-179h106q20 0 36 3t27 11.5t17 24t6 41.5v31q0 41 -20.5 54.5t-71.5 13.5h-100z" />
    <glyph glyph-name="uni0182" unicode="&#x182;" horiz-adv-x="667" 
d="M62 750h520v-129h-337v-172h112q71 0 124 -9t87.5 -31t51.5 -58.5t17 -91.5v-63q0 -61 -18.5 -99.5t-53 -60t-84 -29t-110.5 -7.5h-309v750zM338 125q60 0 86.5 19.5t26.5 64.5v25q0 28 -6.5 46t-21 28t-38.5 13.5t-59 3.5h-81v-200h93z" />
    <glyph glyph-name="uni0183" unicode="&#x183;" horiz-adv-x="634" 
d="M393 508q49 0 86 -14t61.5 -39t36.5 -58t12 -72v-113q0 -115 -56.5 -168.5t-168.5 -53.5q-48 0 -90 14t-73 37l-10 -41h-135v760h493v-133h-315v-164q32 21 73 33t86 12zM234 156q16 -12 43 -21t56 -9q42 0 60 22.5t18 77.5v63q0 45 -17.5 64.5t-55.5 19.5q-26 0 -55 -10
t-49 -26v-181z" />
    <glyph glyph-name="uni0184" unicode="&#x184;" horiz-adv-x="676" 
d="M404 519q57 0 99.5 -9t71 -30t42.5 -56t14 -87v-132q0 -57 -14.5 -96t-43 -63.5t-71 -35t-97.5 -10.5h-119q-56 0 -98.5 8.5t-72 29.5t-44.5 56t-15 87v569h178v-231h170zM234 200q0 -38 17 -51.5t55 -13.5h80q41 0 54 17t13 57v105q0 37 -12.5 51.5t-54.5 14.5h-152
v-180z" />
    <glyph glyph-name="uni0185" unicode="&#x185;" horiz-adv-x="631" 
d="M393 567q49 0 86 -14t61.5 -39t36.5 -58t12 -72v-172q0 -115 -57 -168.5t-169 -53.5h-77q-56 0 -98.5 8.5t-72 29.5t-44.5 56t-15 87v573l178 30v-252q32 21 73 33t86 12zM234 190q0 -38 19 -51.5t57 -13.5h27q42 0 58 22.5t16 77.5v120q0 45 -17.5 64.5t-55.5 19.5
q-26 0 -55 -10t-49 -26v-203z" />
    <glyph glyph-name="uni0186" unicode="&#x186;" horiz-adv-x="645" 
d="M49 735q35 12 91 18.5t113 6.5q85 0 149 -16.5t107 -55t64.5 -102t21.5 -157.5v-118q0 -89 -19 -150t-60.5 -99t-106.5 -55t-157 -17q-24 0 -52 1.5t-56.5 4.5t-56 9t-49.5 15v150q49 -14 99.5 -18.5t92.5 -4.5q55 0 90 10t55 31t27.5 52.5t7.5 75.5v125q0 40 -7.5 70.5
t-28 51t-55.5 31t-90 10.5q-48 0 -95 -4.5t-85 -12.5v148z" />
    <glyph glyph-name="uni0187" unicode="&#x187;" horiz-adv-x="647" 
d="M596 587q-38 8 -85 12.5t-95 4.5q-55 0 -90 -10.5t-55.5 -31t-28 -51t-7.5 -70.5v-125q0 -44 7.5 -75.5t27.5 -52.5t55 -31t90 -10q42 0 92.5 4.5t99.5 18.5v-150q-22 -9 -49.5 -15t-56 -9t-56.5 -4.5t-52 -1.5q-92 0 -157 17t-106.5 55t-60.5 99t-19 150v118
q0 94 21.5 157.5t64.5 102t107 55t149 16.5q14 0 28.5 -0.5t28.5 -1.5q5 75 50 112t121 37q19 0 40 -2t40 -8v-112q-24 6 -48 6q-27 0 -41.5 -13.5t-14.5 -45.5v-145z" />
    <glyph glyph-name="uni0188" unicode="&#x188;" horiz-adv-x="570" 
d="M488 420q-24 7 -60.5 12.5t-78.5 5.5q-76 0 -106 -29.5t-30 -97.5v-67q0 -36 7 -60t23.5 -38t43 -20t64.5 -6q33 0 70 5t77 19v-129q-17 -7 -40 -12t-47.5 -8.5t-47.5 -5t-41 -1.5q-143 0 -213.5 58.5t-70.5 190.5v72q0 69 18.5 118t54.5 80t88.5 45.5t121.5 14.5
q9 0 18 -0.5t19 -0.5q7 73 49.5 103.5t105.5 30.5q26 0 46 -2t41 -8v-103q-13 4 -26.5 5t-25.5 1q-30 0 -45 -14t-15 -46v-113z" />
    <glyph glyph-name="uni0189" unicode="&#x189;" horiz-adv-x="750" 
d="M0 445h82v305h314q82 0 141.5 -15.5t97.5 -50t56.5 -89.5t18.5 -134v-188q0 -74 -18.5 -126t-57.5 -84.5t-99 -47.5t-142 -15h-311v324h-82v121zM264 599v-154h165v-121h-165v-173h108q48 0 78 9.5t47 28.5t23 47.5t6 66.5v148q0 35 -6.5 62.5t-23 46.5t-46 29t-75.5 10
h-111z" />
    <glyph glyph-name="uni018A" unicode="&#x18a;" horiz-adv-x="855" 
d="M187 0v628h-17q-30 0 -43 -10t-13 -36q0 -12 1.5 -24t6.5 -26h-130q-6 21 -9 39t-3 37q0 78 45.5 110t132.5 32h343q82 0 141.5 -15.5t97.5 -50t56.5 -89.5t18.5 -134v-188q0 -74 -18.5 -126t-57.5 -84.5t-99 -47.5t-142 -15h-311zM369 599v-448h108q48 0 78 9.5t47 28.5
t23 47.5t6 66.5v148q0 35 -6.5 62.5t-23 46.5t-46 29t-75.5 10h-111z" />
    <glyph glyph-name="uni018B" unicode="&#x18b;" horiz-adv-x="667" 
d="M605 0h-309q-62 0 -111 7.5t-83.5 29t-53 60t-18.5 99.5v63q0 55 17 91.5t51.5 58.5t87.5 31t124 9h112v172h-337v129h520v-750zM422 125v200h-81q-35 0 -59 -3.5t-38.5 -13.5t-21 -28t-6.5 -46v-25q0 -45 26.5 -64.5t86.5 -19.5h93z" />
    <glyph glyph-name="uni018C" unicode="&#x18c;" horiz-adv-x="634" 
d="M241 508q45 0 86 -12t73 -33v164h-315v133h493v-760h-135l-10 41q-31 -23 -73 -37t-90 -14q-112 0 -168.5 53.5t-56.5 168.5v113q0 39 12 72t36.5 58t61.5 39t86 14zM400 337q-20 16 -49 26t-55 10q-38 0 -55.5 -19.5t-17.5 -64.5v-63q0 -55 18 -77.5t60 -22.5q29 0 56 9
t43 21v181z" />
    <glyph glyph-name="uni018D" unicode="&#x18d;" horiz-adv-x="617" 
d="M332 -72q0 17 -9.5 26.5t-30.5 20t-54.5 27t-81.5 47.5q-65 42 -91.5 101.5t-26.5 128.5v46q0 60 21 105.5t57 76t85.5 45.5t106.5 15t106.5 -15t86 -45.5t57.5 -76t21 -105.5v-46q0 -110 -53 -168t-148 -68q40 -21 66 -39t40.5 -34.5t20 -33.5t5.5 -37v-9
q0 -22 -12 -42.5t-37 -36t-63.5 -25t-91.5 -9.5q-22 0 -46.5 1.5t-48.5 5.5t-46 10t-40 14v124q83 -31 149 -31q20 0 39 5t19 19v3zM308 432q-46 0 -71 -26t-25 -88v-22q0 -63 25 -93t71 -30q47 0 72 30t25 93v22q0 62 -25 88t-72 26z" />
    <glyph glyph-name="uni018E" unicode="&#x18e;" horiz-adv-x="623" 
d="M561 750v-750h-530v143h347v168h-299v142h299v154h-332v143h515z" />
    <glyph glyph-name="uni018F" unicode="&#x18f;" horiz-adv-x="750" 
d="M36 447h492v23q0 31 -8.5 56.5t-30 44t-58 28.5t-91.5 10q-58 0 -120 -12.5t-120 -31.5v149q51 22 113.5 35.5t126.5 13.5q189 0 280.5 -81.5t91.5 -255.5v-91q0 -93 -25 -159t-70 -108t-106.5 -61.5t-133.5 -19.5q-64 0 -125 15.5t-109 54.5t-77.5 106t-29.5 169v115z
M215 312v-15q0 -32 9 -61t28.5 -51t49.5 -35t73 -13q41 0 70.5 12t48 33.5t27.5 51t9 63.5v15h-315z" />
    <glyph glyph-name="uni0190" unicode="&#x190;" horiz-adv-x="624" 
d="M368 318q-30 0 -56.5 -4t-46 -14.5t-31 -28t-11.5 -45.5q0 -51 36.5 -72.5t113.5 -21.5q56 0 116.5 10.5t104.5 27.5v-143q-38 -15 -96.5 -27t-126.5 -12q-170 0 -251.5 56t-81.5 170q0 70 39 114.5t100 58.5q-57 19 -87.5 67t-30.5 105q0 100 74.5 152t233.5 52
q63 0 116 -9t90 -23v-141q-86 29 -178 29q-75 0 -113 -18.5t-38 -63.5q0 -48 37 -68.5t94 -20.5h104v-130h-111z" />
    <glyph glyph-name="uni0191" unicode="&#x191;" horiz-adv-x="604" 
d="M567 750v-151h-322v-176h289v-151h-289v-273q0 -87 -48 -130t-150 -43q-35 0 -59.5 2.5t-52.5 8.5v135q18 -5 38 -6.5t32 -1.5q26 0 41.5 12.5t15.5 44.5v729h505z" />
    <glyph glyph-name="florin" unicode="&#x192;" horiz-adv-x="445" 
d="M283 424v-425q0 -87 -45.5 -130t-147.5 -43q-35 0 -59.5 2.5t-52.5 8.5v125q18 -5 38 -6.5t32 -1.5q26 0 41.5 12.5t15.5 44.5v413h-90v126h90v72q0 69 45 112t145 43q38 0 75.5 -4t60.5 -10v-113q-17 3 -35.5 5t-37.5 2q-48 0 -61.5 -16t-13.5 -55v-36h139v-126h-139z
" />
    <glyph glyph-name="uni0193" unicode="&#x193;" horiz-adv-x="712" 
d="M603 590q-38 8 -88 13t-98 5q-56 0 -92 -9t-57 -28.5t-29 -50.5t-8 -74v-136q0 -44 8.5 -75.5t30.5 -52.5t58 -31t92 -10q15 0 29.5 1t31.5 3v151h-114v134h289v-405q-54 -20 -121.5 -27.5t-134.5 -7.5q-93 0 -160.5 17t-110.5 55t-63.5 99t-20.5 150v118q0 94 22 157.5
t65.5 102t108.5 55t151 16.5q16 0 31.5 -0.5t32.5 -1.5q5 75 50 112t121 37q19 0 40 -2t40 -8v-112q-24 6 -48 6q-27 0 -41.5 -13.5t-14.5 -45.5v-142z" />
    <glyph glyph-name="uni0194" unicode="&#x194;" horiz-adv-x="653" 
d="M110 160q0 35 13.5 65t27.5 52l85 130l-231 343h195l128 -201l132 201h188l-231 -339l71 -111q20 -31 36.5 -70t16.5 -71v-12q0 -30 -11.5 -58.5t-37.5 -51t-67.5 -36.5t-100.5 -14q-60 0 -101 15t-66 38.5t-36 52.5t-11 58v9zM372 183q0 13 -11.5 34t-36.5 58
q-25 -37 -35.5 -57t-10.5 -35v-4q0 -28 14.5 -38.5t34.5 -10.5q21 0 33 13t12 36v4z" />
    <glyph glyph-name="uni0195" unicode="&#x195;" horiz-adv-x="921" 
d="M552 200q0 -35 17 -52t55 -17t54.5 17t16.5 52v353h178v-374q0 -37 -10 -71.5t-37.5 -61t-76 -42.5t-125.5 -16t-125.5 16t-76.5 42.5t-38 61t-10 71.5v178q0 35 -7.5 51t-38.5 16q-22 0 -46.5 -8.5t-47.5 -22.5v-393h-178v744l178 30v-250q34 20 73.5 31.5t76.5 11.5
q47 0 79 -13t52 -36t28.5 -54.5t8.5 -68.5v-195z" />
    <glyph glyph-name="uni0196" unicode="&#x196;" horiz-adv-x="371" 
d="M56 744l178 30v-591q0 -39 14 -50t45 -11q14 0 33.5 3.5t36.5 12.5v-118q-31 -17 -65.5 -23.5t-74.5 -6.5q-88 0 -127.5 37t-39.5 115v602z" />
    <glyph glyph-name="uni0197" unicode="&#x197;" horiz-adv-x="383" 
d="M283 0h-183v329h-120v111h120v310h183v-310h120v-111h-120v-329z" />
    <glyph glyph-name="uni0198" unicode="&#x198;" horiz-adv-x="744" 
d="M469 380l259 -380h-213l-195 308h-75v-308h-183v750h183v-299h75l145 214q14 20 28.5 38t33.5 31.5t44 21.5t60 8q26 0 46.5 -2.5t41.5 -10.5v-142q-16 5 -26.5 7.5t-28.5 2.5q-14 0 -24 -4t-18 -11.5t-15 -18t-16 -23.5z" />
    <glyph glyph-name="uni0199" unicode="&#x199;" horiz-adv-x="619" 
d="M234 365h51l123 188h196l-172 -254l182 -299h-211l-123 225h-46v-225h-178v601q0 87 45.5 130t147.5 43q35 0 59.5 -3t52.5 -9v-116q-18 5 -38 6.5t-32 1.5q-26 0 -41.5 -12.5t-15.5 -44.5v-232z" />
    <glyph glyph-name="uni019A" unicode="&#x19a;" horiz-adv-x="422" 
d="M122 0v336h-112v107h112v301l178 30v-331h112v-107h-112v-336h-178z" />
    <glyph glyph-name="uni019B" unicode="&#x19b;" horiz-adv-x="602" 
d="M77 529l121 52l-13 42q-10 29 -44 29q-11 0 -24 -3t-30 -12v116q22 11 47 17.5t53 6.5q37 0 62 -7.5t42 -22.5t29 -37t23 -51l4 -12l136 59v-107l-100 -44l215 -555h-172l-84 265q-8 25 -14.5 51.5t-15.5 68.5q-7 -41 -14 -68t-16 -53l-93 -264h-177l192 477l-127 -55
v107z" />
    <glyph glyph-name="uni019C" unicode="&#x19c;" horiz-adv-x="985" 
d="M58 751h179v-539q0 -37 14 -56.5t46 -19.5q22 0 52 8t52 22v585h179v-539q0 -38 14 -58t47 -20q22 0 52 8.5t52 23.5v585h178v-751h-134l-12 47q-40 -31 -92.5 -45.5t-95.5 -14.5q-48 0 -86.5 18t-58.5 44q-21 -15 -46.5 -26.5t-52 -19.5t-52.5 -12t-48 -4q-91 0 -139 47
t-48 154v563z" />
    <glyph glyph-name="uni019D" unicode="&#x19d;" horiz-adv-x="740" 
d="M678 0h-188l-212 380q-17 29 -28 55.5t-20 54.5v-491q0 -86 -41 -129.5t-142 -43.5q-35 0 -59.5 2.5t-52.5 8.5v135q18 -5 38 -6.5t32 -1.5q25 0 40 11t17 40v735h187l226 -409q10 -18 17.5 -36.5t17.5 -45.5v491h168v-750z" />
    <glyph glyph-name="uni019E" unicode="&#x19e;" horiz-adv-x="610" 
d="M562 -216h-178v573q0 35 -9.5 51t-41.5 16q-23 0 -50.5 -8t-49.5 -24v-392h-177v553h132l12 -47q42 30 92 45.5t92 15.5q51 0 85 -13t54.5 -36t29.5 -54.5t9 -68.5v-611z" />
    <glyph glyph-name="uni019F" unicode="&#x19f;" horiz-adv-x="758" 
d="M720 311q0 -162 -90.5 -243t-250.5 -81q-79 0 -142 20t-107.5 60.5t-68 101.5t-23.5 142v128q0 81 24 141.5t68 101t107.5 61t141.5 20.5q79 0 142 -20.5t107.5 -61t68 -101t23.5 -141.5v-128zM379 144q79 0 116 41t39 134h-311q2 -93 39 -134t117 -41zM379 606
q-78 0 -115.5 -39t-40.5 -127h310q-3 88 -39.5 127t-114.5 39z" />
    <glyph glyph-name="Ohorn" unicode="&#x1a0;" horiz-adv-x="821" 
d="M720 311q0 -162 -90.5 -243t-250.5 -81q-79 0 -142 20t-107.5 60.5t-68 101.5t-23.5 142v128q0 81 24 141.5t68 101t107.5 61t141.5 20.5q153 0 242 -75h31q37 0 48.5 15.5t11.5 41.5q0 12 -1.5 25.5t-6.5 27.5h130q12 -42 12 -81q0 -75 -33.5 -110t-111.5 -40
q9 -28 14 -60t5 -68v-128zM534 423q0 97 -37 140t-118 43t-118.5 -43t-37.5 -140v-96q0 -97 37.5 -140t118.5 -43t118 43t37 140v96z" />
    <glyph glyph-name="ohorn" unicode="&#x1a1;" horiz-adv-x="691" 
d="M308 -13q-134 0 -202 62t-68 188v80q0 121 68 185.5t202 64.5q147 0 216 -80h8q34 0 44.5 16t10.5 40t-7 46h115q5 -20 8 -37t3 -34q0 -69 -30.5 -103t-102.5 -39q2 -14 3.5 -28.5t1.5 -30.5v-80q0 -126 -68 -188t-202 -62zM308 432q-45 0 -68.5 -26.5t-23.5 -95.5v-66
q0 -69 23.5 -95.5t68.5 -26.5t68.5 26.5t23.5 95.5v66q0 69 -23.5 95.5t-68.5 26.5z" />
    <glyph glyph-name="uni01A2" unicode="&#x1a2;" horiz-adv-x="1090" 
d="M720 311q0 -162 -90.5 -243t-250.5 -81q-79 0 -142 20t-107.5 60.5t-68 101.5t-23.5 142v128q0 81 24 141.5t68 101t107.5 61t141.5 20.5q130 0 214 -54q44 26 94 40t95 14q69 0 116.5 -16t77 -43.5t43 -64.5t13.5 -79v-776h-183v728q0 27 -3.5 46t-12.5 30.5t-25 16.5
t-41 5q-41 0 -77 -16q14 -32 22 -71t8 -84v-128zM534 423q0 97 -37 140t-118 43t-118.5 -43t-37.5 -140v-96q0 -97 37.5 -140t118.5 -43t118 43t37 140v96z" />
    <glyph glyph-name="uni01A3" unicode="&#x1a3;" horiz-adv-x="932" 
d="M308 -13q-134 0 -202 62t-68 188v80q0 121 68 185.5t202 64.5q100 0 165 -38q39 20 81 29.5t80 9.5q69 0 116.5 -16t77 -43.5t43 -64.5t13.5 -79v-581h-178v553q0 54 -18.5 75t-68.5 21q-31 0 -59 -9q18 -47 18 -107v-80q0 -126 -68 -188t-202 -62zM308 432
q-45 0 -68.5 -26.5t-23.5 -95.5v-66q0 -69 23.5 -95.5t68.5 -26.5t68.5 26.5t23.5 95.5v66q0 69 -23.5 95.5t-68.5 26.5z" />
    <glyph glyph-name="uni01A4" unicode="&#x1a4;" horiz-adv-x="788" 
d="M496 750q61 0 110.5 -8t84 -30t53 -60.5t18.5 -99.5v-86q0 -57 -17 -94t-51.5 -58.5t-87.5 -30.5t-124 -9h-112v-274h-183v628h-17q-30 0 -43 -10t-13 -36q0 -12 1.5 -24t6.5 -26h-130q-6 21 -9 39t-3 37q0 78 45.5 110t132.5 32h338zM370 621v-217h81q35 0 59 3.5
t38.5 13t21 27t6.5 45.5v46q0 45 -26.5 63.5t-86.5 18.5h-93z" />
    <glyph glyph-name="uni01A5" unicode="&#x1a5;" horiz-adv-x="631" 
d="M395 567q87 0 140.5 -46.5t53.5 -136.5v-172q0 -115 -57 -168.5t-174 -53.5q-23 0 -57 4t-67 15v-225h-178v817q0 87 45.5 130t147.5 43q35 0 59.5 -3t52.5 -9v-116q-18 5 -38 6.5t-32 1.5q-26 0 -41.5 -12.5t-15.5 -44.5v-71q42 22 81.5 31.5t79.5 9.5zM234 137
q26 -7 46 -9t42 -2q45 0 67 22t22 74v121q0 45 -16.5 65.5t-56.5 20.5q-26 0 -52.5 -9t-51.5 -25v-258z" />
    <glyph glyph-name="uni01A6" unicode="&#x1a6;" horiz-adv-x="699" 
d="M62 750h183v-106h131q62 0 111 -8t83 -30t52 -60.5t18 -99.5v-75q0 -69 -25 -110.5t-76 -61.5l143 -305h-195l-124 281h-118v-175h-183v750zM245 515v-210h85q35 0 59 3.5t38.5 13t21 26.5t6.5 45v41q0 45 -26 63t-86 18h-98z" />
    <glyph glyph-name="uni01A7" unicode="&#x1a7;" horiz-adv-x="618" 
d="M28 220q0 50 10.5 87t32.5 63.5t55.5 44t79.5 29.5l75 19q29 7 50.5 13.5t36 15.5t22 21t7.5 32q0 19 -6.5 32.5t-22.5 22.5t-43 13.5t-69 4.5q-43 0 -93.5 -5t-90.5 -15v137q18 6 43 10.5t54.5 8t61.5 5t63 1.5q151 0 218.5 -56t67.5 -167q0 -93 -45.5 -146t-122.5 -72
l-74 -19q-39 -10 -63.5 -19t-38 -18.5t-18.5 -22t-5 -29.5q0 -42 33 -58t104 -16q45 0 104 8.5t125 30.5v-146q-63 -23 -132 -31.5t-125 -8.5q-80 0 -136 16t-91 45.5t-51 72t-16 96.5z" />
    <glyph glyph-name="uni01A8" unicode="&#x1a8;" horiz-adv-x="500" 
d="M24 168q0 37 6 64.5t22.5 47.5t45 34.5t73.5 26.5l64 17q24 6 38.5 10.5t23 9t11 11t2.5 17.5q0 10 -3.5 17.5t-13.5 12.5t-27.5 7t-44.5 2q-17 0 -38 -1.5t-42.5 -4.5t-41.5 -7t-35 -8v122q25 7 70.5 14t100.5 7q121 0 175.5 -40.5t54.5 -125.5q0 -34 -7 -61.5
t-24.5 -49t-46.5 -37.5t-72 -27l-62 -15q-23 -6 -37 -10t-21.5 -9.5t-10 -12.5t-2.5 -18q0 -24 18 -33t72 -9q29 0 81 5.5t115 25.5v-127q-48 -16 -107.5 -24.5t-107.5 -8.5q-65 0 -108.5 13.5t-70.5 37.5t-38.5 56.5t-11.5 70.5z" />
    <glyph glyph-name="uni01A9" unicode="&#x1a9;" horiz-adv-x="617" 
d="M566 750v-137h-294l201 -241l-204 -234h305v-138h-516v121l225 250l-225 262v117h508z" />
    <glyph glyph-name="uni01AA" unicode="&#x1aa;" horiz-adv-x="503" 
d="M181 450q-37 0 -68.5 14t-54 37.5t-35.5 54t-13 63.5q0 34 13 64.5t36.5 53t55 36t69.5 13.5q37 0 69.5 -13.5t55.5 -36t36.5 -53t13.5 -64.5v-600q0 -39 14 -50t45 -11q14 0 33.5 3.5t36.5 12.5v-118q-31 -17 -65.5 -23.5t-74.5 -6.5q-88 0 -127.5 37t-39.5 115v472z
M184 559q27 0 43 15.5t16 44.5q0 27 -16 44t-43 17q-26 0 -42.5 -17t-16.5 -44q0 -29 16.5 -44.5t42.5 -15.5z" />
    <glyph glyph-name="uni01AB" unicode="&#x1ab;" horiz-adv-x="452" 
d="M427 429h-147v-240q0 -39 11 -53t45 -14q24 0 47.5 4t43.5 14v-32h1v-109q0 -87 -47 -130t-149 -43q-35 0 -59.5 2.5t-52.5 8.5v120q18 -5 38 -6.5t38 -1.5q13 0 28 1.5t27.5 5.5t21.5 12t11 22h-15q-88 0 -127.5 37t-39.5 115v287h-87v124h87v115l178 34v-149h147v-124z
" />
    <glyph glyph-name="uni01AC" unicode="&#x1ac;" horiz-adv-x="692" 
d="M232 594q-41 0 -58 -14t-17 -47q0 -32 11 -64h-153q-8 27 -11.5 50t-3.5 48q0 52 14 87t42 56.5t69.5 30.5t97.5 9h447v-156h-224v-594h-183v594h-31z" />
    <glyph glyph-name="uni01AD" unicode="&#x1ad;" horiz-adv-x="453" 
d="M428 429h-147v-240q0 -39 11 -53t45 -14q24 0 47.5 4t43.5 14v-117q-31 -17 -73 -25t-85 -8q-88 0 -127.5 37t-39.5 115v287h-87v124h87v48q0 87 45.5 130t147.5 43q35 0 59.5 -3t52.5 -9v-116q-18 5 -38 6.5t-32 1.5q-26 0 -41.5 -12.5t-15.5 -44.5v-44h147v-124z" />
    <glyph glyph-name="uni01AE" unicode="&#x1ae;" horiz-adv-x="675" 
d="M22 594v156h631v-156h-224v-589q2 -29 16.5 -40t40.5 -11q12 0 32 1.5t38 6.5v-125q-28 -6 -52.5 -8.5t-59.5 -2.5q-102 0 -150 43t-48 130v595h-224z" />
    <glyph glyph-name="Uhorn" unicode="&#x1af;" horiz-adv-x="889" 
d="M238 750v-423q0 -51 8 -84.5t25.5 -53.5t44.5 -28t65 -8q39 0 65.5 8t42.5 28t23 53.5t7 84.5v423h184v-62h17q37 0 48.5 15.5t11.5 41.5q0 12 -1.5 25.5t-6.5 27.5h130q12 -42 12 -81q0 -80 -39.5 -115t-131.5 -35h-40v-290q0 -154 -82 -222t-240 -68q-164 0 -245 68
t-81 222v473h183z" />
    <glyph glyph-name="uhorn" unicode="&#x1b0;" horiz-adv-x="721" 
d="M48 553h178v-357q0 -35 9 -52t40 -17q23 0 50 9t49 24v393h178v-66h10q34 0 44.5 16t10.5 40t-7 46h115q5 -20 8 -37t3 -34q0 -74 -36 -108t-120 -34h-28v-376h-132l-13 47q-42 -32 -92.5 -45.5t-92.5 -13.5q-51 0 -84.5 13t-53.5 35.5t-28 54t-8 68.5v394z" />
    <glyph glyph-name="uni01B1" unicode="&#x1b1;" horiz-adv-x="825" 
d="M412 145q46 0 76.5 13t48.5 36.5t25.5 57t7.5 74.5v82q0 33 -1.5 60t-9.5 50t-24 42t-45 36v154h330v-152h-179q18 -6 38 -22t36.5 -43t27.5 -65.5t11 -88.5v-65q0 -164 -89.5 -245.5t-252.5 -81.5t-252.5 81.5t-89.5 245.5v65q0 43 9.5 80t25 65t36 47t42.5 27h-178v152
h329v-154q-29 -17 -45 -36t-24 -42t-10 -50t-2 -60v-82q0 -42 8 -76t26.5 -57t49 -35.5t75.5 -12.5z" />
    <glyph glyph-name="uni01B2" unicode="&#x1b2;" horiz-adv-x="686" 
d="M491 567q4 13 6.5 24t2.5 19q0 14 -7 22t-26 8q-11 0 -18.5 -1t-15.5 -3v117q12 3 34.5 6t51.5 3q45 0 75 -10t49 -27t27 -41.5t8 -52.5q0 -26 -7 -51.5t-15 -50.5l-178 -529h-213l-260 750h200l132 -429q6 -20 10.5 -37.5t9 -36.5t8 -40t8.5 -48q4 27 8 48.5t8.5 40.5
t10 36.5t11.5 36.5z" />
    <glyph glyph-name="uni01B3" unicode="&#x1b3;" horiz-adv-x="762" 
d="M461 668q22 43 56.5 69.5t93.5 26.5q83 0 122.5 -38t39.5 -97q0 -25 -2.5 -44t-8.5 -44h-115q2 11 3 22t1 19q0 31 -28 31q-17 0 -26 -12.5t-22 -38.5l-132 -267v-295h-183v293l-249 457h191l92 -188q16 -33 29.5 -64.5t29.5 -75.5q14 47 27 78.5t24 54.5z" />
    <glyph glyph-name="uni01B4" unicode="&#x1b4;" horiz-adv-x="691" 
d="M482 667q16 47 49 77t97 30q20 0 43.5 -3.5t43.5 -11.5v-139q-11 5 -22.5 7t-26.5 2q-22 0 -36.5 -12.5t-25.5 -42.5l-281 -787h-187l75 214l-205 552h182l93 -289q8 -26 15 -53t14 -68q9 42 15 68.5t15 51.5z" />
    <glyph glyph-name="uni01B5" unicode="&#x1b5;" horiz-adv-x="655" 
d="M305 222q-8 -10 -14.5 -18t-14 -16.5t-17.5 -19t-23 -24.5h387v-144h-593v137l153 194h-109v111h196l69 87q19 23 34 41t32 37h-360v143h566v-136l-135 -172h93v-111h-179z" />
    <glyph glyph-name="uni01B6" unicode="&#x1b6;" horiz-adv-x="521" 
d="M57 332h137l19 26q13 17 28 37t32 37h-236v121h447v-105l-85 -116h57v-100h-131l-28 -39q-14 -19 -29 -36t-32 -36h262v-121h-472v105l94 127h-63v100z" />
    <glyph glyph-name="uni01B7" unicode="&#x1b7;" horiz-adv-x="707" 
d="M421 614h-361v136h568v-128l-234 -256q84 0 137.5 -23t84.5 -61t43 -87t12 -100v-48q0 -57 -18 -106.5t-59.5 -85.5t-110.5 -57t-171 -21q-87 0 -163 14t-121 31v147q53 -19 123 -32t155 -13q48 0 83 6.5t57.5 23t33.5 44t11 69.5v32q0 43 -13 70t-36.5 42.5t-56.5 21
t-73 5.5q-19 0 -33.5 -0.5t-28 -1.5t-27 -3t-30.5 -4l-15 103z" />
    <glyph glyph-name="uni01B8" unicode="&#x1b8;" horiz-adv-x="707" 
d="M529 332l-15 -103q-17 2 -30.5 4t-27 3t-28 1.5t-33.5 0.5q-40 0 -73 -5.5t-56.5 -21t-36.5 -42.5t-13 -70v-32q0 -42 11 -69.5t33.5 -44t57.5 -23t83 -6.5q85 0 155 13t123 32v-147q-45 -17 -121 -31t-163 -14q-102 0 -171 21t-110.5 57t-59.5 85.5t-18 106.5v48
q0 51 12 100t43 87t84.5 61t137.5 23l-234 256v128h568v-136h-361z" />
    <glyph glyph-name="uni01B9" unicode="&#x1b9;" horiz-adv-x="551" 
d="M458 220l-30 -87q-27 4 -54 6t-51 2q-29 0 -53.5 -3.5t-42.5 -14t-28.5 -30t-10.5 -52.5v-24q0 -30 11 -49.5t30 -31t45.5 -16.5t57.5 -5q57 0 108.5 8t93.5 24v-134q-35 -14 -92 -25t-126 -11q-86 0 -142.5 18.5t-91 49.5t-48.5 72t-14 87v42q0 45 11 83.5t37 66
t68.5 42.5t105.5 15l-170 195v105h453v-121h-249z" />
    <glyph glyph-name="uni01BA" unicode="&#x1ba;" horiz-adv-x="558" 
d="M127 309l99 90q16 12 33 21t34 17h-261v116h446v-100l-156 -126q62 0 103.5 -12t66 -33t34.5 -50t10 -64q0 -65 -22 -104t-59.5 -61t-88 -32.5t-108.5 -17.5q-21 -3 -32.5 -6.5t-17 -8t-7 -10t-1.5 -10.5q0 -14 20.5 -21.5t74.5 -7.5q51 0 96.5 8t94.5 27v-116
q-40 -16 -89.5 -25t-116.5 -9q-53 0 -97 7t-76.5 24.5t-50.5 46t-18 72.5q0 24 7 46.5t24.5 41t47.5 33t76 22.5q56 10 90.5 17.5t53 16.5t25 22.5t6.5 35.5q0 16 -3.5 28.5t-14.5 20.5t-32.5 12t-57.5 4q-19 0 -47 -2.5t-51 -7.5z" />
    <glyph glyph-name="uni01BB" unicode="&#x1bb;" horiz-adv-x="630" 
d="M40 0v121l177 170h-135v111h250q20 19 33 33.5t20 27t9.5 26.5t2.5 34v14q0 19 -5.5 33t-19.5 22t-37 12t-59 4q-23 0 -50.5 -3t-55.5 -8.5t-54.5 -12.5t-46.5 -15v143q21 8 48.5 16t57.5 14t60 9.5t56 3.5q77 0 130.5 -14t87 -40t48.5 -63t15 -82v-33q0 -37 -8.5 -65
t-28.5 -56h42v-111h-145l-159 -151h318v-140h-551z" />
    <glyph glyph-name="uni01BC" unicode="&#x1bc;" horiz-adv-x="637" 
d="M30 745h532v-139h-282l-21 -139q25 4 42 5t31 1q76 0 126.5 -16.5t80 -44.5t41.5 -66t12 -80v-58q0 -106 -75 -162t-224 -56q-36 0 -72 3.5t-68.5 8.5t-60 12t-45.5 14v135q44 -16 102.5 -25t124.5 -9q74 0 108 23t34 67v29q0 53 -36.5 72t-117.5 19q-49 0 -93.5 -5
t-86.5 -13l44 285h-96v139z" />
    <glyph glyph-name="uni01BD" unicode="&#x1bd;" horiz-adv-x="521" 
d="M37 553h441v-117h-216l-10 -87q19 3 31 3.5t24 0.5q51 0 85.5 -10.5t56 -31t31 -50t9.5 -66.5v-36q0 -79 -57 -124t-183 -45q-27 0 -54.5 2.5t-52.5 6.5t-46 9t-34 10v129q32 -11 75.5 -18t93.5 -7q18 0 34.5 1t29.5 5t21 13t8 26v13q0 13 -2.5 23t-11.5 16t-26.5 9
t-46.5 3q-38 0 -72 -4t-65 -9l25 218h-88v117z" />
    <glyph glyph-name="uni01BE" unicode="&#x1be;" horiz-adv-x="505" 
d="M29 429v124h114v115l148 34v-149h142v-124h-132q8 -10 24.5 -21.5t45.5 -31.5q18 -12 36.5 -26.5t34 -36t25.5 -52t10 -73.5q0 -47 -11.5 -84t-40.5 -63t-79 -40t-127 -14q-54 0 -107 11t-88 27v125q39 -15 84 -24.5t88 -9.5q34 0 56.5 4t35.5 13.5t18 24.5t5 38
q0 22 -3 37t-11.5 27t-22 22.5t-34.5 24.5q-29 19 -47 33.5t-28.5 28t-15.5 27.5t-6 33h-114z" />
    <glyph glyph-name="uni01BF" unicode="&#x1bf;" horiz-adv-x="631" 
d="M395 567q87 0 140.5 -46.5t53.5 -136.5v-131q0 -83 -28 -133t-76.5 -78.5t-113 -41.5t-137.5 -21v-195h-178v769h132l17 -43q51 31 97 44t93 13zM234 104q43 6 76 15t55.5 25.5t34 40.5t11.5 60v98q0 45 -16.5 65.5t-56.5 20.5q-26 0 -52.5 -9t-51.5 -25v-291z" />
    <glyph glyph-name="uni01C0" unicode="&#x1c0;" horiz-adv-x="267" 
d="M205 -216h-143v990h143v-990z" />
    <glyph glyph-name="uni01C1" unicode="&#x1c1;" horiz-adv-x="508" 
d="M205 -216h-143v990h143v-990zM446 -216h-143v990h143v-990z" />
    <glyph glyph-name="uni01C2" unicode="&#x1c2;" horiz-adv-x="343" 
d="M243 -216h-143v360h-105v106h105v89h-105v106h105v329h143v-329h105v-106h-105v-89h105v-106h-105v-360z" />
    <glyph glyph-name="uni01C3" unicode="&#x1c3;" horiz-adv-x="289" 
d="M238 750l-22 -510h-144l-22 510h188zM62 159h164v-159h-164v159z" />
    <glyph glyph-name="uni01C4" unicode="&#x1c4;" horiz-adv-x="1365" 
d="M62 0v750h314q82 0 141.5 -15.5t97.5 -50t56.5 -89.5t18.5 -134v-188q0 -74 -18.5 -126t-57.5 -84.5t-99 -47.5t-142 -15h-311zM244 599v-448h108q48 0 78 9.5t47 28.5t23 47.5t6 66.5v148q0 35 -6.5 62.5t-23 46.5t-46 29t-75.5 10h-111zM1015 222q-8 -10 -14.5 -18
t-14 -16.5t-17.5 -19t-23 -24.5h387v-144h-593v137l309 392q19 23 34 41t32 37h-360v143h566v-136zM876 960h111l60 -76l59 76h113l-111 -170h-121z" />
    <glyph glyph-name="uni01C5" unicode="&#x1c5;" horiz-adv-x="1241" 
d="M62 0v750h314q82 0 141.5 -15.5t97.5 -50t56.5 -89.5t18.5 -134v-188q0 -74 -18.5 -126t-57.5 -84.5t-99 -47.5t-142 -15h-311zM244 599v-448h108q48 0 78 9.5t47 28.5t23 47.5t6 66.5v148q0 35 -6.5 62.5t-23 46.5t-46 29t-75.5 10h-111zM1204 448l-187 -255
q-14 -19 -29 -36t-32 -36h262v-121h-472v105l187 253q13 17 28 37t32 37h-236v121h447v-105zM818 760h111l60 -76l59 76h113l-111 -170h-121z" />
    <glyph glyph-name="uni01C6" unicode="&#x1c6;" horiz-adv-x="1132" 
d="M231 -10q-97 0 -143 50t-46 132v172q0 60 17 102.5t47 69t70.5 39t87.5 12.5q42 0 74.5 -6.5t58.5 -18.5v202l178 30v-774h-141l-14 49q-71 -59 -189 -59zM397 406q-16 11 -39 17t-46 6q-43 0 -67.5 -20.5t-24.5 -78.5v-118q0 -39 13.5 -61.5t52.5 -22.5q27 0 56.5 8
t54.5 27v243zM1095 448l-187 -255q-14 -19 -29 -36t-32 -36h262v-121h-472v105l187 253q13 17 28 37t32 37h-236v121h447v-105zM709 760h111l60 -76l59 76h113l-111 -170h-121z" />
    <glyph glyph-name="uni01C7" unicode="&#x1c7;" horiz-adv-x="1039" 
d="M245 750v-594h326v-156h-509v750h183zM979 750v-540q0 -57 -10.5 -98.5t-36 -68.5t-69 -40t-108.5 -13q-13 0 -32.5 1.5t-40.5 4.5t-42 7.5t-37 10.5v153q38 -13 67.5 -17t55.5 -4q38 0 54 17t16 67v520h183z" />
    <glyph glyph-name="uni01C8" unicode="&#x1c8;" horiz-adv-x="906" 
d="M245 750v-594h326v-156h-509v750h183zM845 553v-585q0 -59 -12.5 -96t-37 -58t-60.5 -29t-82 -8q-42 0 -76.5 4t-64.5 11v138q25 -5 46.5 -6.5t40.5 -1.5t32 2.5t21 10.5t11.5 22.5t3.5 39.5v556h178zM845 625h-178v163h178v-163z" />
    <glyph glyph-name="uni01C9" unicode="&#x1c9;" horiz-adv-x="607" 
d="M56 0v744l178 30v-774h-178zM546 553v-585q0 -59 -12.5 -96t-37 -58t-60.5 -29t-82 -8q-42 0 -76.5 4t-64.5 11v138q25 -5 46.5 -6.5t40.5 -1.5t32 2.5t21 10.5t11.5 22.5t3.5 39.5v556h178zM546 625h-178v163h178v-163z" />
    <glyph glyph-name="uni01CA" unicode="&#x1ca;" horiz-adv-x="1209" 
d="M678 0h-188l-212 380q-17 29 -28 55.5t-20 54.5v-490h-168v750h187l226 -409q10 -18 17.5 -36.5t17.5 -45.5v491h168v-750zM1149 750v-540q0 -57 -10.5 -98.5t-36 -68.5t-69 -40t-108.5 -13q-13 0 -32.5 1.5t-40.5 4.5t-42 7.5t-37 10.5v153q38 -13 67.5 -17t55.5 -4
q38 0 54 17t16 67v520h183z" />
    <glyph glyph-name="uni01CB" unicode="&#x1cb;" horiz-adv-x="1075" 
d="M678 0h-188l-212 380q-17 29 -28 55.5t-20 54.5v-490h-168v750h187l226 -409q10 -18 17.5 -36.5t17.5 -45.5v491h168v-750zM1015 553v-585q0 -59 -12.5 -96t-37 -58t-60.5 -29t-82 -8q-42 0 -76.5 4t-64.5 11v138q25 -5 46.5 -6.5t40.5 -1.5t32 2.5t21 10.5t11.5 22.5
t3.5 39.5v556h178zM1015 625h-178v163h178v-163z" />
    <glyph glyph-name="uni01CC" unicode="&#x1cc;" horiz-adv-x="926" 
d="M562 0h-178v357q0 35 -9.5 51t-41.5 16q-23 0 -50.5 -8t-49.5 -24v-392h-177v553h132l12 -47q42 30 92 45.5t92 15.5q51 0 85 -13t54.5 -36t29.5 -54.5t9 -68.5v-395zM866 553v-585q0 -59 -12.5 -96t-37 -58t-60.5 -29t-82 -8q-42 0 -76.5 4t-64.5 11v138
q25 -5 46.5 -6.5t40.5 -1.5t32 2.5t21 10.5t11.5 22.5t3.5 39.5v556h178zM866 625h-178v163h178v-163z" />
    <glyph glyph-name="uni01CD" unicode="&#x1cd;" horiz-adv-x="748" 
d="M477 750l264 -750h-200l-52 162h-244l-52 -162h-186l257 750h213zM287 310h159l-48 162q-5 17 -9.5 31.5t-8 29.5t-7 31.5t-6.5 36.5q-3 -20 -6 -36t-7 -31t-8.5 -29.5t-9.5 -32.5zM202 960h111l60 -76l59 76h113l-111 -170h-121z" />
    <glyph glyph-name="uni01CE" unicode="&#x1ce;" horiz-adv-x="568" 
d="M522 0h-132l-16 50q-30 -25 -81.5 -42.5t-106.5 -17.5q-77 0 -118.5 36t-41.5 120v38q0 47 17 78t50.5 49.5t82.5 26t113 7.5h62v30q0 21 -3.5 35t-13 22t-26 11t-42.5 3q-15 0 -36 -2t-45 -6.5t-49 -10.5t-47 -15v122q21 7 47 13t53 10.5t52.5 7t46.5 2.5
q67 0 112 -13.5t72 -39t38.5 -62.5t11.5 -85v-367zM351 240h-66q-38 0 -62.5 -13t-24.5 -54v-11q0 -28 11.5 -40t40.5 -12q23 0 52.5 8t48.5 25v97zM114 760h111l60 -76l59 76h113l-111 -170h-121z" />
    <glyph glyph-name="uni01CF" unicode="&#x1cf;" horiz-adv-x="307" 
d="M245 0h-183v750h183v-750zM-18 960h111l60 -76l59 76h113l-111 -170h-121z" />
    <glyph glyph-name="uni01D0" unicode="&#x1d0;" horiz-adv-x="292" 
d="M235 0h-178v553h178v-553zM-25 760h111l60 -76l59 76h113l-111 -170h-121z" />
    <glyph glyph-name="uni01D1" unicode="&#x1d1;" horiz-adv-x="758" 
d="M720 311q0 -162 -90.5 -243t-250.5 -81q-79 0 -142 20t-107.5 60.5t-68 101.5t-23.5 142v128q0 81 24 141.5t68 101t107.5 61t141.5 20.5q79 0 142 -20.5t107.5 -61t68 -101t23.5 -141.5v-128zM534 423q0 97 -37 140t-118 43t-118.5 -43t-37.5 -140v-96q0 -97 37.5 -140
t118.5 -43t118 43t37 140v96zM207 960h111l60 -76l59 76h113l-111 -170h-121z" />
    <glyph glyph-name="uni01D2" unicode="&#x1d2;" horiz-adv-x="616" 
d="M308 -13q-134 0 -202 62t-68 188v80q0 121 68 185.5t202 64.5t202 -64.5t68 -185.5v-80q0 -126 -68 -188t-202 -62zM308 432q-45 0 -68.5 -26.5t-23.5 -95.5v-66q0 -69 23.5 -95.5t68.5 -26.5t68.5 26.5t23.5 95.5v66q0 69 -23.5 95.5t-68.5 26.5zM136 760h111l60 -76
l59 76h113l-111 -170h-121z" />
    <glyph glyph-name="uni01D3" unicode="&#x1d3;" horiz-adv-x="756" 
d="M237 750v-423q0 -51 8 -84.5t25.5 -53.5t44.5 -28t65 -8q39 0 65.5 8t42.5 28t23 53.5t7 84.5v423h184v-473q0 -154 -82 -222t-240 -68q-164 0 -245 68t-81 222v473h183zM206 960h111l60 -76l59 76h113l-111 -170h-121z" />
    <glyph glyph-name="uni01D4" unicode="&#x1d4;" horiz-adv-x="612" 
d="M52 553h178v-357q0 -35 9 -52t40 -17q23 0 50 9t49 24v393h178v-553h-132l-13 47q-42 -32 -92.5 -45.5t-92.5 -13.5q-51 0 -84.5 13t-53.5 35.5t-28 54t-8 68.5v394zM137 760h111l60 -76l59 76h113l-111 -170h-121z" />
    <glyph glyph-name="uni01D5" unicode="&#x1d5;" horiz-adv-x="756" 
d="M237 750v-423q0 -51 8 -84.5t25.5 -53.5t44.5 -28t65 -8q39 0 65.5 8t42.5 28t23 53.5t7 84.5v423h184v-473q0 -154 -82 -222t-240 -68q-164 0 -245 68t-81 222v473h183zM222 906h116v-126h-116v126zM418 906h116v-126h-116v126zM225 1050h306v-106h-306v106z" />
    <glyph glyph-name="uni01D6" unicode="&#x1d6;" horiz-adv-x="612" 
d="M52 553h178v-357q0 -35 9 -52t40 -17q23 0 50 9t49 24v393h178v-553h-132l-13 47q-42 -32 -92.5 -45.5t-92.5 -13.5q-51 0 -84.5 13t-53.5 35.5t-28 54t-8 68.5v394zM152 711h116v-126h-116v126zM348 711h116v-126h-116v126zM155 847h306v-106h-306v106z" />
    <glyph glyph-name="uni01D7" unicode="&#x1d7;" horiz-adv-x="756" 
d="M237 750v-423q0 -51 8 -84.5t25.5 -53.5t44.5 -28t65 -8q39 0 65.5 8t42.5 28t23 53.5t7 84.5v423h184v-473q0 -154 -82 -222t-240 -68q-164 0 -245 68t-81 222v473h183zM383 1072h180l-117 -147h-154zM222 906h116v-126h-116v126zM418 906h116v-126h-116v126z" />
    <glyph glyph-name="uni01D8" unicode="&#x1d8;" horiz-adv-x="612" 
d="M52 553h178v-357q0 -35 9 -52t40 -17q23 0 50 9t49 24v393h178v-553h-132l-13 47q-42 -32 -92.5 -45.5t-92.5 -13.5q-51 0 -84.5 13t-53.5 35.5t-28 54t-8 68.5v394zM321 884h180l-117 -147h-154zM152 711h116v-126h-116v126zM348 711h116v-126h-116v126z" />
    <glyph glyph-name="uni01D9" unicode="&#x1d9;" horiz-adv-x="756" 
d="M237 750v-423q0 -51 8 -84.5t25.5 -53.5t44.5 -28t65 -8q39 0 65.5 8t42.5 28t23 53.5t7 84.5v423h184v-473q0 -154 -82 -222t-240 -68q-164 0 -245 68t-81 222v473h183zM207 1095h111l60 -76l59 76h113l-111 -170h-121zM222 906h116v-126h-116v126zM418 906h116v-126
h-116v126z" />
    <glyph glyph-name="uni01DA" unicode="&#x1da;" horiz-adv-x="612" 
d="M52 553h178v-357q0 -35 9 -52t40 -17q23 0 50 9t49 24v393h178v-553h-132l-13 47q-42 -32 -92.5 -45.5t-92.5 -13.5q-51 0 -84.5 13t-53.5 35.5t-28 54t-8 68.5v394zM137 907h111l60 -76l59 76h113l-111 -170h-121zM152 711h116v-126h-116v126zM348 711h116v-126h-116
v126z" />
    <glyph glyph-name="uni01DB" unicode="&#x1db;" horiz-adv-x="756" 
d="M237 750v-423q0 -51 8 -84.5t25.5 -53.5t44.5 -28t65 -8q39 0 65.5 8t42.5 28t23 53.5t7 84.5v423h184v-473q0 -154 -82 -222t-240 -68q-164 0 -245 68t-81 222v473h183zM465 925h-154l-117 147h180zM222 906h116v-126h-116v126zM418 906h116v-126h-116v126z" />
    <glyph glyph-name="uni01DC" unicode="&#x1dc;" horiz-adv-x="612" 
d="M52 553h178v-357q0 -35 9 -52t40 -17q23 0 50 9t49 24v393h178v-553h-132l-13 47q-42 -32 -92.5 -45.5t-92.5 -13.5q-51 0 -84.5 13t-53.5 35.5t-28 54t-8 68.5v394zM389 737h-154l-117 147h180zM152 711h116v-126h-116v126zM348 711h116v-126h-116v126z" />
    <glyph glyph-name="uni01DD" unicode="&#x1dd;" horiz-adv-x="593" 
d="M34 337h349v11q0 58 -35.5 77t-103.5 19q-34 0 -79.5 -6t-84.5 -20v118q16 7 38.5 13t48 10t51.5 6t49 2q144 0 216 -60t72 -192v-70q0 -69 -21 -117.5t-56.5 -79.5t-83 -45t-100.5 -14q-58 0 -106 13t-82 44.5t-53 83.5t-19 129v78zM200 233v-21q0 -46 21.5 -72
t69.5 -26q45 0 68.5 26t23.5 74v19h-183z" />
    <glyph glyph-name="uni01DE" unicode="&#x1de;" horiz-adv-x="748" 
d="M477 750l264 -750h-200l-52 162h-244l-52 -162h-186l257 750h213zM287 310h159l-48 162q-5 17 -9.5 31.5t-8 29.5t-7 31.5t-6.5 36.5q-3 -20 -6 -36t-7 -31t-8.5 -29.5t-9.5 -32.5zM211 906h116v-126h-116v126zM407 906h116v-126h-116v126zM214 1050h306v-106h-306v106z
" />
    <glyph glyph-name="uni01DF" unicode="&#x1df;" horiz-adv-x="568" 
d="M522 0h-132l-16 50q-30 -25 -81.5 -42.5t-106.5 -17.5q-77 0 -118.5 36t-41.5 120v38q0 47 17 78t50.5 49.5t82.5 26t113 7.5h62v30q0 21 -3.5 35t-13 22t-26 11t-42.5 3q-15 0 -36 -2t-45 -6.5t-49 -10.5t-47 -15v122q21 7 47 13t53 10.5t52.5 7t46.5 2.5
q67 0 112 -13.5t72 -39t38.5 -62.5t11.5 -85v-367zM351 240h-66q-38 0 -62.5 -13t-24.5 -54v-11q0 -28 11.5 -40t40.5 -12q23 0 52.5 8t48.5 25v97zM136 711h116v-126h-116v126zM332 711h116v-126h-116v126zM139 847h306v-106h-306v106z" />
    <glyph glyph-name="uni01E0" unicode="&#x1e0;" horiz-adv-x="748" 
d="M477 750l264 -750h-200l-52 162h-244l-52 -162h-186l257 750h213zM287 310h159l-48 162q-5 17 -9.5 31.5t-8 29.5t-7 31.5t-6.5 36.5q-3 -20 -6 -36t-7 -31t-8.5 -29.5t-9.5 -32.5zM308 912h118v-126h-118v126zM214 1050h306v-106h-306v106z" />
    <glyph glyph-name="uni01E1" unicode="&#x1e1;" horiz-adv-x="568" 
d="M522 0h-132l-16 50q-30 -25 -81.5 -42.5t-106.5 -17.5q-77 0 -118.5 36t-41.5 120v38q0 47 17 78t50.5 49.5t82.5 26t113 7.5h62v30q0 21 -3.5 35t-13 22t-26 11t-42.5 3q-15 0 -36 -2t-45 -6.5t-49 -10.5t-47 -15v122q21 7 47 13t53 10.5t52.5 7t46.5 2.5
q67 0 112 -13.5t72 -39t38.5 -62.5t11.5 -85v-367zM351 240h-66q-38 0 -62.5 -13t-24.5 -54v-11q0 -28 11.5 -40t40.5 -12q23 0 52.5 8t48.5 25v97zM232 717h118v-126h-118v126zM139 847h306v-106h-306v106z" />
    <glyph glyph-name="uni01E2" unicode="&#x1e2;" horiz-adv-x="1078" 
d="M1032 750v-143h-332v-154h299v-142h-299v-168h347v-143h-527v162h-227l-95 -162h-191l452 750h573zM476 935h306v-106h-306v106zM373 310h147v283q-16 -36 -29.5 -65.5t-27.5 -55.5z" />
    <glyph glyph-name="uni01E3" unicode="&#x1e3;" horiz-adv-x="885" 
d="M865 233h-349v-11q0 -58 35 -84t104 -26q34 0 79.5 6t84.5 20v-118q-16 -8 -38.5 -13.5t-48 -9.5t-51.5 -6t-49 -2q-41 0 -71.5 5t-54.5 14.5t-43 23.5t-36 32q-44 -32 -101 -53t-130 -21q-77 0 -123.5 36t-46.5 120v38q0 45 16.5 74.5t49 47t80.5 24.5t112 7h67v38
q0 21 -3.5 35t-13 22t-26 11t-42.5 3q-15 0 -36 -2t-45 -6.5t-49 -10.5t-47 -15v122q43 14 96 23.5t103 9.5q63 0 102.5 -14t61.5 -46q28 29 70 44.5t91 15.5q54 0 100.5 -13t80 -43t52.5 -79t19 -121v-78zM699 337v11q0 44 -21.5 69t-69.5 25q-45 0 -68.5 -25.5
t-23.5 -70.5v-9h183zM351 232h-66q-19 0 -35 -1.5t-27.5 -7.5t-18 -17.5t-6.5 -32.5v-11q0 -28 11.5 -40t40.5 -12q23 0 52.5 8t48.5 25v89zM299 735h306v-106h-306v106z" />
    <glyph glyph-name="uni01E4" unicode="&#x1e4;" horiz-adv-x="710" 
d="M367 285h114v38h-114v127h289v-165h64v-107h-64v-153q-54 -20 -121.5 -27.5t-134.5 -7.5q-93 0 -160.5 17t-110.5 55t-63.5 99t-20.5 150v118q0 94 22 157.5t65.5 102t108.5 55t151 16.5q28 0 58 -2t58 -5t52.5 -8t42.5 -11v-144q-38 8 -88 13t-98 5q-56 0 -92 -9
t-57 -28.5t-29 -50.5t-8 -74v-136q0 -44 8.5 -75.5t30.5 -52.5t58 -31t92 -10q15 0 29.5 1t31.5 3v33h-114v107z" />
    <glyph glyph-name="uni01E5" unicode="&#x1e5;" horiz-adv-x="631" 
d="M79 11h318v53q-29 -18 -67 -27t-82 -9q-56 0 -95 13.5t-64 38.5t-36 59t-11 75v130q0 60 16.5 102.5t46.5 69t70.5 39t88.5 12.5q38 0 80 -9t82 -36l12 31h137v-542h66v-90h-74q-9 -37 -27.5 -65t-51 -46.5t-79.5 -28t-112 -9.5q-43 0 -83 5t-69 12v109q32 -8 68 -12
t72 -4q45 0 69 9t35 30h-310v90zM397 402q-17 14 -40 21t-46 7q-43 0 -67 -20.5t-24 -78.5v-81q0 -44 17 -64t59 -20q59 0 101 21v215z" />
    <glyph glyph-name="Gcaron" unicode="&#x1e6;" horiz-adv-x="710" 
d="M603 590q-38 8 -88 13t-98 5q-56 0 -92 -9t-57 -28.5t-29 -50.5t-8 -74v-136q0 -44 8.5 -75.5t30.5 -52.5t58 -31t92 -10q15 0 29.5 1t31.5 3v151h-114v134h289v-405q-54 -20 -121.5 -27.5t-134.5 -7.5q-93 0 -160.5 17t-110.5 55t-63.5 99t-20.5 150v118q0 94 22 157.5
t65.5 102t108.5 55t151 16.5q28 0 58 -2t58 -5t52.5 -8t42.5 -11v-144zM237 960h111l60 -76l59 76h113l-111 -170h-121z" />
    <glyph glyph-name="gcaron" unicode="&#x1e7;" horiz-adv-x="631" 
d="M248 -6q-56 0 -95 13.5t-64 38.5t-36 59t-11 75v164q0 60 16.5 102.5t46.5 69t70.5 39t88.5 12.5q38 0 80 -9t82 -36l12 31h137v-544q0 -57 -13 -100.5t-44.5 -72.5t-85 -44t-135.5 -15q-43 0 -83 5t-69 12v124q32 -8 68 -12t72 -4q62 0 87 18t25 65v45q-29 -18 -67 -27
t-82 -9zM397 402q-17 14 -40 21t-46 7q-43 0 -67 -20.5t-24 -78.5v-115q0 -44 17 -64t59 -20q59 0 101 21v249zM158 760h111l60 -76l59 76h113l-111 -170h-121z" />
    <glyph glyph-name="uni01E8" unicode="&#x1e8;" horiz-adv-x="749" 
d="M472 380l263 -380h-215l-198 308h-77v-308h-183v750h183v-299h74l174 299h213zM199 960h111l60 -76l59 76h113l-111 -170h-121z" />
    <glyph glyph-name="uni01E9" unicode="&#x1e9;" horiz-adv-x="616" 
d="M234 774v-409h51l123 188h196l-172 -254l182 -299h-211l-123 225h-46v-225h-178v744zM173 960h111l60 -76l59 76h113l-111 -170h-121z" />
    <glyph glyph-name="uni01EA" unicode="&#x1ea;" horiz-adv-x="758" 
d="M428 -232q-39 0 -67 8.5t-46 23.5t-26.5 34t-8.5 40v9q0 32 21.5 60t53.5 45q-74 3 -132.5 24.5t-99.5 61.5t-63 99.5t-22 137.5v128q0 81 24 141.5t68 101t107.5 61t141.5 20.5q79 0 142 -20.5t107.5 -61t68 -101t23.5 -141.5v-128q0 -132 -60 -210t-170 -102
q-18 -10 -33.5 -22.5t-27 -26t-18 -26.5t-6.5 -25v-7q0 -20 14.5 -26t34.5 -6q15 0 32.5 2t28.5 5v-88q-13 -4 -36 -7.5t-51 -3.5zM534 423q0 97 -37 140t-118 43t-118.5 -43t-37.5 -140v-96q0 -97 37.5 -140t118.5 -43t118 43t37 140v96z" />
    <glyph glyph-name="uni01EB" unicode="&#x1eb;" horiz-adv-x="616" 
d="M351 -232q-39 0 -67 8.5t-46 23.5t-26.5 34t-8.5 40v9q0 32 22 60t54 45q-119 7 -180 68.5t-61 180.5v80q0 121 68 185.5t202 64.5t202 -64.5t68 -185.5v-80q0 -97 -41 -156t-121 -81q-19 -10 -35 -22.5t-28 -26t-18.5 -27t-6.5 -25.5v-7q0 -20 14.5 -26t34.5 -6
q15 0 32.5 2t28.5 5v-88q-13 -4 -36 -7.5t-51 -3.5zM308 432q-45 0 -68.5 -26.5t-23.5 -95.5v-66q0 -69 23.5 -95.5t68.5 -26.5t68.5 26.5t23.5 95.5v66q0 69 -23.5 95.5t-68.5 26.5z" />
    <glyph glyph-name="uni01EC" unicode="&#x1ec;" horiz-adv-x="758" 
d="M428 -232q-39 0 -67 8.5t-46 23.5t-26.5 34t-8.5 40v9q0 32 21.5 60t53.5 45q-74 3 -132.5 24.5t-99.5 61.5t-63 99.5t-22 137.5v128q0 81 24 141.5t68 101t107.5 61t141.5 20.5q79 0 142 -20.5t107.5 -61t68 -101t23.5 -141.5v-128q0 -132 -60 -210t-170 -102
q-18 -10 -33.5 -22.5t-27 -26t-18 -26.5t-6.5 -25v-7q0 -20 14.5 -26t34.5 -6q15 0 32.5 2t28.5 5v-88q-13 -4 -36 -7.5t-51 -3.5zM534 423q0 97 -37 140t-118 43t-118.5 -43t-37.5 -140v-96q0 -97 37.5 -140t118.5 -43t118 43t37 140v96zM226 935h306v-106h-306v106z" />
    <glyph glyph-name="uni01ED" unicode="&#x1ed;" horiz-adv-x="616" 
d="M351 -232q-39 0 -67 8.5t-46 23.5t-26.5 34t-8.5 40v9q0 32 22 60t54 45q-119 7 -180 68.5t-61 180.5v80q0 121 68 185.5t202 64.5t202 -64.5t68 -185.5v-80q0 -97 -41 -156t-121 -81q-19 -10 -35 -22.5t-28 -26t-18.5 -27t-6.5 -25.5v-7q0 -20 14.5 -26t34.5 -6
q15 0 32.5 2t28.5 5v-88q-13 -4 -36 -7.5t-51 -3.5zM308 432q-45 0 -68.5 -26.5t-23.5 -95.5v-66q0 -69 23.5 -95.5t68.5 -26.5t68.5 26.5t23.5 95.5v66q0 69 -23.5 95.5t-68.5 26.5zM154 735h306v-106h-306v106z" />
    <glyph glyph-name="uni01EE" unicode="&#x1ee;" horiz-adv-x="707" 
d="M421 614h-361v136h568v-128l-234 -256q84 0 137.5 -23t84.5 -61t43 -87t12 -100v-48q0 -57 -18 -106.5t-59.5 -85.5t-110.5 -57t-171 -21q-87 0 -163 14t-121 31v147q53 -19 123 -32t155 -13q48 0 83 6.5t57.5 23t33.5 44t11 69.5v32q0 43 -13 70t-36.5 42.5t-56.5 21
t-73 5.5q-19 0 -33.5 -0.5t-28 -1.5t-27 -3t-30.5 -4l-15 103zM182 960h111l60 -76l59 76h113l-111 -170h-121z" />
    <glyph glyph-name="uni01EF" unicode="&#x1ef;" 
d="M296 432h-249v121h453v-105l-170 -195q63 0 105.5 -15t68.5 -42.5t37 -66t11 -83.5v-42q0 -46 -14 -87t-48.5 -72t-91.5 -49.5t-142 -18.5q-69 0 -126 11t-92 25v134q42 -16 93.5 -24t108.5 -8q31 0 57.5 5t45.5 16.5t30 31t11 49.5v24q0 33 -10.5 52.5t-28.5 30
t-42.5 14t-53.5 3.5q-24 0 -51 -2t-54 -6l-30 87zM119 760h111l60 -76l59 76h113l-111 -170h-121z" />
    <glyph glyph-name="uni01F0" unicode="&#x1f0;" horiz-adv-x="317" 
d="M256 553v-585q0 -59 -12.5 -96t-37 -58t-60.5 -29t-82 -8q-42 0 -76.5 4t-64.5 11v138q25 -5 46.5 -6.5t40.5 -1.5t32 2.5t21 10.5t11.5 22.5t3.5 39.5v556h178zM-4 760h111l60 -76l59 76h113l-111 -170h-121z" />
    <glyph glyph-name="uni01F1" unicode="&#x1f1;" horiz-adv-x="1365" 
d="M62 0v750h314q82 0 141.5 -15.5t97.5 -50t56.5 -89.5t18.5 -134v-188q0 -74 -18.5 -126t-57.5 -84.5t-99 -47.5t-142 -15h-311zM244 599v-448h108q48 0 78 9.5t47 28.5t23 47.5t6 66.5v148q0 35 -6.5 62.5t-23 46.5t-46 29t-75.5 10h-111zM1015 222q-8 -10 -14.5 -18
t-14 -16.5t-17.5 -19t-23 -24.5h387v-144h-593v137l309 392q19 23 34 41t32 37h-360v143h566v-136z" />
    <glyph glyph-name="uni01F2" unicode="&#x1f2;" horiz-adv-x="1241" 
d="M62 0v750h314q82 0 141.5 -15.5t97.5 -50t56.5 -89.5t18.5 -134v-188q0 -74 -18.5 -126t-57.5 -84.5t-99 -47.5t-142 -15h-311zM244 599v-448h108q48 0 78 9.5t47 28.5t23 47.5t6 66.5v148q0 35 -6.5 62.5t-23 46.5t-46 29t-75.5 10h-111zM1204 448l-187 -255
q-14 -19 -29 -36t-32 -36h262v-121h-472v105l187 253q13 17 28 37t32 37h-236v121h447v-105z" />
    <glyph glyph-name="uni01F3" unicode="&#x1f3;" horiz-adv-x="1152" 
d="M231 -10q-97 0 -143 50t-46 132v172q0 60 17 102.5t47 69t70.5 39t87.5 12.5q42 0 74.5 -6.5t58.5 -18.5v202l178 30v-774h-141l-14 49q-71 -59 -189 -59zM397 406q-16 11 -39 17t-46 6q-43 0 -67.5 -20.5t-24.5 -78.5v-118q0 -39 13.5 -61.5t52.5 -22.5q27 0 56.5 8
t54.5 27v243zM1115 448l-187 -255q-14 -19 -29 -36t-32 -36h262v-121h-472v105l187 253q13 17 28 37t32 37h-236v121h447v-105z" />
    <glyph glyph-name="uni01F4" unicode="&#x1f4;" horiz-adv-x="710" 
d="M603 590q-38 8 -88 13t-98 5q-56 0 -92 -9t-57 -28.5t-29 -50.5t-8 -74v-136q0 -44 8.5 -75.5t30.5 -52.5t58 -31t92 -10q15 0 29.5 1t31.5 3v151h-114v134h289v-405q-54 -20 -121.5 -27.5t-134.5 -7.5q-93 0 -160.5 17t-110.5 55t-63.5 99t-20.5 150v118q0 94 22 157.5
t65.5 102t108.5 55t151 16.5q28 0 58 -2t58 -5t52.5 -8t42.5 -11v-144zM385 948h180l-117 -147h-154z" />
    <glyph glyph-name="uni01F5" unicode="&#x1f5;" horiz-adv-x="631" 
d="M248 -6q-56 0 -95 13.5t-64 38.5t-36 59t-11 75v164q0 60 16.5 102.5t46.5 69t70.5 39t88.5 12.5q38 0 80 -9t82 -36l12 31h137v-544q0 -57 -13 -100.5t-44.5 -72.5t-85 -44t-135.5 -15q-43 0 -83 5t-69 12v124q32 -8 68 -12t72 -4q62 0 87 18t25 65v45q-29 -18 -67 -27
t-82 -9zM397 402q-17 14 -40 21t-46 7q-43 0 -67 -20.5t-24 -78.5v-115q0 -44 17 -64t59 -20q59 0 101 21v249zM295 748h180l-117 -147h-154z" />
    <glyph glyph-name="uni01F6" unicode="&#x1f6;" horiz-adv-x="1063" 
d="M757 -12q-77 0 -127 16t-79 42.5t-40.5 61t-11.5 71.5v124h-255v-303h-182v750h182v-285h255v285h182v-550q0 -69 76 -69t76 69v353h182v-374q0 -37 -11.5 -71.5t-40.5 -61t-79 -42.5t-127 -16z" />
    <glyph glyph-name="uni01F7" unicode="&#x1f7;" horiz-adv-x="698" 
d="M62 750h183v-52l96 40q24 10 54.5 17.5t65.5 7.5q56 0 94 -18t61 -48t33 -70.5t10 -85.5v-137q0 -66 -19.5 -125.5t-67 -109.5t-127.5 -90.5t-200 -68.5v-226h-183v966zM245 551v-382q70 19 114.5 40.5t69.5 49.5t34 63.5t9 81.5v104q0 57 -14.5 77.5t-50.5 20.5
q-20 0 -35 -5t-30 -11z" />
    <glyph glyph-name="uni01F8" unicode="&#x1f8;" horiz-adv-x="740" 
d="M678 0h-188l-212 380q-17 29 -28 55.5t-20 54.5v-490h-168v750h187l226 -409q10 -18 17.5 -36.5t17.5 -45.5v491h168v-750zM515 801h-154l-117 147h180z" />
    <glyph glyph-name="uni01F9" unicode="&#x1f9;" horiz-adv-x="614" 
d="M562 0h-178v357q0 35 -9.5 51t-41.5 16q-23 0 -50.5 -8t-49.5 -24v-392h-177v553h132l12 -47q42 30 92 45.5t92 15.5q51 0 85 -13t54.5 -36t29.5 -54.5t9 -68.5v-395zM440 601h-154l-117 147h180z" />
    <glyph glyph-name="Aringacute" unicode="&#x1fa;" horiz-adv-x="748" 
d="M477 750l264 -750h-200l-52 162h-244l-52 -162h-186l257 750h213zM287 310h159l-48 162q-5 17 -9.5 31.5t-8 29.5t-7 31.5t-6.5 36.5q-3 -20 -6 -36t-7 -31t-8.5 -29.5t-9.5 -32.5zM367 839q20 0 31.5 12t11.5 32t-11.5 31.5t-31.5 11.5q-19 0 -30.5 -11.5t-11.5 -31.5
t11.5 -32t30.5 -12zM367 771q-25 0 -46 9t-36.5 24.5t-24.5 35.5t-9 43t9 43t24.5 35t36.5 24t46 9t46.5 -9t37 -24t24.5 -35t9 -43t-9 -43t-24.5 -35.5t-37 -24.5t-46.5 -9zM393 1159h180l-117 -147h-154z" />
    <glyph glyph-name="aringacute" unicode="&#x1fb;" horiz-adv-x="568" 
d="M522 0h-132l-16 50q-30 -25 -81.5 -42.5t-106.5 -17.5q-77 0 -118.5 36t-41.5 120v38q0 47 17 78t50.5 49.5t82.5 26t113 7.5h62v30q0 21 -3.5 35t-13 22t-26 11t-42.5 3q-15 0 -36 -2t-45 -6.5t-49 -10.5t-47 -15v122q21 7 47 13t53 10.5t52.5 7t46.5 2.5
q67 0 112 -13.5t72 -39t38.5 -62.5t11.5 -85v-367zM351 240h-66q-38 0 -62.5 -13t-24.5 -54v-11q0 -28 11.5 -40t40.5 -12q23 0 52.5 8t48.5 25v97zM298 649q20 0 31.5 12t11.5 32t-11.5 31.5t-31.5 11.5q-19 0 -30.5 -11.5t-11.5 -31.5t11.5 -32t30.5 -12zM298 581
q-25 0 -46 9t-36.5 24.5t-24.5 35.5t-9 43t9 43t24.5 35t36.5 24t46 9t46.5 -9t37 -24t24.5 -35t9 -43t-9 -43t-24.5 -35.5t-37 -24.5t-46.5 -9zM314 964h180l-117 -147h-154z" />
    <glyph glyph-name="AEacute" unicode="&#x1fc;" horiz-adv-x="1078" 
d="M1032 750v-143h-332v-154h299v-142h-299v-168h347v-143h-527v162h-227l-95 -162h-191l452 750h573zM591 948h180l-117 -147h-154zM373 310h147v283q-16 -36 -29.5 -65.5t-27.5 -55.5z" />
    <glyph glyph-name="aeacute" unicode="&#x1fd;" horiz-adv-x="885" 
d="M865 233h-349v-11q0 -58 35 -84t104 -26q34 0 79.5 6t84.5 20v-118q-16 -8 -38.5 -13.5t-48 -9.5t-51.5 -6t-49 -2q-41 0 -71.5 5t-54.5 14.5t-43 23.5t-36 32q-44 -32 -101 -53t-130 -21q-77 0 -123.5 36t-46.5 120v38q0 45 16.5 74.5t49 47t80.5 24.5t112 7h67v38
q0 21 -3.5 35t-13 22t-26 11t-42.5 3q-15 0 -36 -2t-45 -6.5t-49 -10.5t-47 -15v122q43 14 96 23.5t103 9.5q63 0 102.5 -14t61.5 -46q28 29 70 44.5t91 15.5q54 0 100.5 -13t80 -43t52.5 -79t19 -121v-78zM699 337v11q0 44 -21.5 69t-69.5 25q-45 0 -68.5 -25.5
t-23.5 -70.5v-9h183zM351 232h-66q-19 0 -35 -1.5t-27.5 -7.5t-18 -17.5t-6.5 -32.5v-11q0 -28 11.5 -40t40.5 -12q23 0 52.5 8t48.5 25v89zM467 748h180l-117 -147h-154z" />
    <glyph glyph-name="Oslashacute" unicode="&#x1fe;" horiz-adv-x="758" 
d="M723 311q0 -81 -24 -142t-68.5 -101.5t-108 -60.5t-143.5 -20q-99 0 -174 32l-42 -62h-133l84 124q-38 41 -58.5 98t-20.5 132v128q0 81 24.5 141.5t69.5 101t108.5 61t141.5 20.5q100 0 174 -33l42 62h133l-84 -124q38 -41 58.5 -97.5t20.5 -131.5v-128zM379 606
q-81 0 -121.5 -43t-40.5 -140v-96q0 -47 9 -80l233 344q-33 15 -80 15zM541 423q0 44 -9 79l-233 -344q31 -14 80 -14q81 0 121.5 43t40.5 140v96zM380 948h180l-117 -147h-154z" />
    <glyph glyph-name="oslashacute" unicode="&#x1ff;" horiz-adv-x="615" 
d="M308 -13q-72 0 -126 18l-33 -48h-120l69 99q-63 63 -63 181v80q0 121 69.5 185.5t203.5 64.5q74 0 132 -22l27 39h120l-65 -93q59 -65 59 -174v-80q0 -126 -69.5 -188t-203.5 -62zM308 748h180l-117 -147h-154zM308 434q-45 0 -73.5 -26.5t-28.5 -95.5v-70v-15.5t1 -14.5
l149 213q-21 9 -48 9zM308 120q45 0 73.5 26.5t28.5 95.5v70v9t-1 9l-142 -204q9 -4 19.5 -5t21.5 -1z" />
    <glyph glyph-name="uni0200" unicode="&#x200;" horiz-adv-x="748" 
d="M477 750l264 -750h-200l-52 162h-244l-52 -162h-186l257 750h213zM287 310h159l-48 162q-5 17 -9.5 31.5t-8 29.5t-7 31.5t-6.5 36.5q-3 -20 -6 -36t-7 -31t-8.5 -29.5t-9.5 -32.5zM335 801h-105l-71 147h127zM513 801h-107l-71 147h128z" />
    <glyph glyph-name="uni0201" unicode="&#x201;" horiz-adv-x="568" 
d="M522 0h-132l-16 50q-30 -25 -81.5 -42.5t-106.5 -17.5q-77 0 -118.5 36t-41.5 120v38q0 47 17 78t50.5 49.5t82.5 26t113 7.5h62v30q0 21 -3.5 35t-13 22t-26 11t-42.5 3q-15 0 -36 -2t-45 -6.5t-49 -10.5t-47 -15v122q21 7 47 13t53 10.5t52.5 7t46.5 2.5
q67 0 112 -13.5t72 -39t38.5 -62.5t11.5 -85v-367zM351 240h-66q-38 0 -62.5 -13t-24.5 -54v-11q0 -28 11.5 -40t40.5 -12q23 0 52.5 8t48.5 25v97zM285 601h-105l-71 147h127zM463 601h-107l-71 147h128z" />
    <glyph glyph-name="uni0202" unicode="&#x202;" horiz-adv-x="748" 
d="M477 750l264 -750h-200l-52 162h-244l-52 -162h-186l257 750h213zM287 310h159l-48 162q-5 17 -9.5 31.5t-8 29.5t-7 31.5t-6.5 36.5q-3 -20 -6 -36t-7 -31t-8.5 -29.5t-9.5 -32.5zM367 954q35 0 62.5 -12t47 -32t30 -48t11.5 -59h-92q-4 59 -59 59t-59 -59h-92
q1 31 11.5 59t30 48t47 32t62.5 12z" />
    <glyph glyph-name="uni0203" unicode="&#x203;" horiz-adv-x="568" 
d="M522 0h-132l-16 50q-30 -25 -81.5 -42.5t-106.5 -17.5q-77 0 -118.5 36t-41.5 120v38q0 47 17 78t50.5 49.5t82.5 26t113 7.5h62v30q0 21 -3.5 35t-13 22t-26 11t-42.5 3q-15 0 -36 -2t-45 -6.5t-49 -10.5t-47 -15v122q21 7 47 13t53 10.5t52.5 7t46.5 2.5
q67 0 112 -13.5t72 -39t38.5 -62.5t11.5 -85v-367zM351 240h-66q-38 0 -62.5 -13t-24.5 -54v-11q0 -28 11.5 -40t40.5 -12q23 0 52.5 8t48.5 25v97zM285 754q35 0 62.5 -12t47 -32t30 -48t11.5 -59h-92q-4 59 -59 59t-59 -59h-92q1 31 11.5 59t30 48t47 32t62.5 12z" />
    <glyph glyph-name="uni0204" unicode="&#x204;" horiz-adv-x="623" 
d="M577 750v-143h-332v-154h299v-142h-299v-168h347v-143h-530v750h515zM319 801h-105l-71 147h127zM497 801h-107l-71 147h128z" />
    <glyph glyph-name="uni0205" unicode="&#x205;" horiz-adv-x="593" 
d="M559 219h-349v-11q0 -58 35.5 -77t103.5 -19q34 0 79.5 6t84.5 20v-118q-16 -8 -38.5 -13.5t-48 -9.5t-51.5 -6t-49 -2q-144 0 -216 60t-72 192v70q0 69 21 117.5t56.5 79.5t83 45t100.5 14q58 0 106 -13t82 -44.5t53 -83.5t19 -129v-78zM393 323v21q0 46 -21.5 72
t-69.5 26q-45 0 -68.5 -26t-23.5 -74v-19h183zM288 601h-105l-71 147h127zM466 601h-107l-71 147h128z" />
    <glyph glyph-name="uni0206" unicode="&#x206;" horiz-adv-x="623" 
d="M577 750v-143h-332v-154h299v-142h-299v-168h347v-143h-530v750h515zM336 954q35 0 62.5 -12t47 -32t30 -48t11.5 -59h-92q-4 59 -59 59t-59 -59h-92q1 31 11.5 59t30 48t47 32t62.5 12z" />
    <glyph glyph-name="uni0207" unicode="&#x207;" horiz-adv-x="593" 
d="M559 219h-349v-11q0 -58 35.5 -77t103.5 -19q34 0 79.5 6t84.5 20v-118q-16 -8 -38.5 -13.5t-48 -9.5t-51.5 -6t-49 -2q-144 0 -216 60t-72 192v70q0 69 21 117.5t56.5 79.5t83 45t100.5 14q58 0 106 -13t82 -44.5t53 -83.5t19 -129v-78zM393 323v21q0 46 -21.5 72
t-69.5 26q-45 0 -68.5 -26t-23.5 -74v-19h183zM296 754q35 0 62.5 -12t47 -32t30 -48t11.5 -59h-92q-4 59 -59 59t-59 -59h-92q1 31 11.5 59t30 48t47 32t62.5 12z" />
    <glyph glyph-name="uni0208" unicode="&#x208;" horiz-adv-x="307" 
d="M245 0h-183v750h183v-750zM124 801h-105l-71 147h127zM302 801h-107l-71 147h128z" />
    <glyph glyph-name="uni0209" unicode="&#x209;" horiz-adv-x="293" 
d="M235 0h-178v553h178v-553zM110 601h-105l-71 147h127zM288 601h-107l-71 147h128z" />
    <glyph glyph-name="uni020A" unicode="&#x20a;" horiz-adv-x="307" 
d="M245 0h-183v750h183v-750zM154 954q35 0 62.5 -12t47 -32t30 -48t11.5 -59h-92q-4 59 -59 59t-59 -59h-92q1 31 11.5 59t30 48t47 32t62.5 12z" />
    <glyph glyph-name="uni020B" unicode="&#x20b;" horiz-adv-x="293" 
d="M235 0h-178v553h178v-553zM147 754q35 0 62.5 -12t47 -32t30 -48t11.5 -59h-92q-4 59 -59 59t-59 -59h-92q1 31 11.5 59t30 48t47 32t62.5 12z" />
    <glyph glyph-name="uni020C" unicode="&#x20c;" horiz-adv-x="758" 
d="M720 311q0 -162 -90.5 -243t-250.5 -81q-79 0 -142 20t-107.5 60.5t-68 101.5t-23.5 142v128q0 81 24 141.5t68 101t107.5 61t141.5 20.5q79 0 142 -20.5t107.5 -61t68 -101t23.5 -141.5v-128zM534 423q0 97 -37 140t-118 43t-118.5 -43t-37.5 -140v-96q0 -97 37.5 -140
t118.5 -43t118 43t37 140v96zM333 801h-105l-71 147h127zM511 801h-107l-71 147h128z" />
    <glyph glyph-name="uni020D" unicode="&#x20d;" horiz-adv-x="616" 
d="M308 -13q-134 0 -202 62t-68 188v80q0 121 68 185.5t202 64.5t202 -64.5t68 -185.5v-80q0 -126 -68 -188t-202 -62zM308 432q-45 0 -68.5 -26.5t-23.5 -95.5v-66q0 -69 23.5 -95.5t68.5 -26.5t68.5 26.5t23.5 95.5v66q0 69 -23.5 95.5t-68.5 26.5zM279 601h-105l-71 147
h127zM457 601h-107l-71 147h128z" />
    <glyph glyph-name="uni020E" unicode="&#x20e;" horiz-adv-x="758" 
d="M720 311q0 -162 -90.5 -243t-250.5 -81q-79 0 -142 20t-107.5 60.5t-68 101.5t-23.5 142v128q0 81 24 141.5t68 101t107.5 61t141.5 20.5q79 0 142 -20.5t107.5 -61t68 -101t23.5 -141.5v-128zM534 423q0 97 -37 140t-118 43t-118.5 -43t-37.5 -140v-96q0 -97 37.5 -140
t118.5 -43t118 43t37 140v96zM379 954q35 0 62.5 -12t47 -32t30 -48t11.5 -59h-92q-4 59 -59 59t-59 -59h-92q1 31 11.5 59t30 48t47 32t62.5 12z" />
    <glyph glyph-name="uni020F" unicode="&#x20f;" horiz-adv-x="616" 
d="M308 -13q-134 0 -202 62t-68 188v80q0 121 68 185.5t202 64.5t202 -64.5t68 -185.5v-80q0 -126 -68 -188t-202 -62zM308 432q-45 0 -68.5 -26.5t-23.5 -95.5v-66q0 -69 23.5 -95.5t68.5 -26.5t68.5 26.5t23.5 95.5v66q0 69 -23.5 95.5t-68.5 26.5zM307 754q35 0 62.5 -12
t47 -32t30 -48t11.5 -59h-92q-4 59 -59 59t-59 -59h-92q1 31 11.5 59t30 48t47 32t62.5 12z" />
    <glyph glyph-name="uni0210" unicode="&#x210;" horiz-adv-x="699" 
d="M62 750h314q62 0 111 -8t83 -30t52 -60.5t18 -99.5v-75q0 -69 -25 -110.5t-76 -61.5l143 -305h-195l-124 281h-118v-281h-183v750zM245 621v-210h85q35 0 59 3.5t38.5 13t21 26.5t6.5 45v41q0 45 -26 63t-86 18h-98zM324 801h-105l-71 147h127zM502 801h-107l-71 147h128
z" />
    <glyph glyph-name="uni0211" unicode="&#x211;" horiz-adv-x="426" 
d="M408 399q-50 -1 -97 -13.5t-78 -35.5v-350h-177v553h130l13 -77q35 36 85.5 62t123.5 29v-168zM211 601h-105l-71 147h127zM389 601h-107l-71 147h128z" />
    <glyph glyph-name="uni0212" unicode="&#x212;" horiz-adv-x="699" 
d="M62 750h314q62 0 111 -8t83 -30t52 -60.5t18 -99.5v-75q0 -69 -25 -110.5t-76 -61.5l143 -305h-195l-124 281h-118v-281h-183v750zM245 621v-210h85q35 0 59 3.5t38.5 13t21 26.5t6.5 45v41q0 45 -26 63t-86 18h-98zM341 954q35 0 62.5 -12t47 -32t30 -48t11.5 -59h-92
q-4 59 -59 59t-59 -59h-92q1 31 11.5 59t30 48t47 32t62.5 12z" />
    <glyph glyph-name="uni0213" unicode="&#x213;" horiz-adv-x="426" 
d="M408 399q-50 -1 -97 -13.5t-78 -35.5v-350h-177v553h130l13 -77q35 36 85.5 62t123.5 29v-168zM213 754q35 0 62.5 -12t47 -32t30 -48t11.5 -59h-92q-4 59 -59 59t-59 -59h-92q1 31 11.5 59t30 48t47 32t62.5 12z" />
    <glyph glyph-name="uni0214" unicode="&#x214;" horiz-adv-x="756" 
d="M237 750v-423q0 -51 8 -84.5t25.5 -53.5t44.5 -28t65 -8q39 0 65.5 8t42.5 28t23 53.5t7 84.5v423h184v-473q0 -154 -82 -222t-240 -68q-164 0 -245 68t-81 222v473h183zM355 801h-105l-71 147h127zM533 801h-107l-71 147h128z" />
    <glyph glyph-name="uni0215" unicode="&#x215;" horiz-adv-x="612" 
d="M52 553h178v-357q0 -35 9 -52t40 -17q23 0 50 9t49 24v393h178v-553h-132l-13 47q-42 -32 -92.5 -45.5t-92.5 -13.5q-51 0 -84.5 13t-53.5 35.5t-28 54t-8 68.5v394zM281 601h-105l-71 147h127zM459 601h-107l-71 147h128z" />
    <glyph glyph-name="uni0216" unicode="&#x216;" horiz-adv-x="756" 
d="M237 750v-423q0 -51 8 -84.5t25.5 -53.5t44.5 -28t65 -8q39 0 65.5 8t42.5 28t23 53.5t7 84.5v423h184v-473q0 -154 -82 -222t-240 -68q-164 0 -245 68t-81 222v473h183zM377 954q35 0 62.5 -12t47 -32t30 -48t11.5 -59h-92q-4 59 -59 59t-59 -59h-92q1 31 11.5 59t30 48
t47 32t62.5 12z" />
    <glyph glyph-name="uni0217" unicode="&#x217;" horiz-adv-x="612" 
d="M52 553h178v-357q0 -35 9 -52t40 -17q23 0 50 9t49 24v393h178v-553h-132l-13 47q-42 -32 -92.5 -45.5t-92.5 -13.5q-51 0 -84.5 13t-53.5 35.5t-28 54t-8 68.5v394zM308 754q35 0 62.5 -12t47 -32t30 -48t11.5 -59h-92q-4 59 -59 59t-59 -59h-92q1 31 11.5 59t30 48
t47 32t62.5 12z" />
    <glyph glyph-name="uni0218" unicode="&#x218;" horiz-adv-x="618" 
d="M590 220q0 -54 -16 -96.5t-51 -72t-91 -45.5t-136 -16q-56 0 -125 8.5t-132 31.5v146q66 -22 125 -30.5t104 -8.5q71 0 104 16t33 58q0 17 -5 29.5t-18.5 22t-38 18.5t-63.5 19l-74 19q-77 19 -122.5 72t-45.5 146q0 55 16.5 97t51 70t88.5 42t130 14q31 0 63 -1.5
t61.5 -5t54.5 -8t43 -10.5v-137q-40 10 -90.5 15t-93.5 5q-42 0 -69 -4.5t-43 -13.5t-22.5 -22.5t-6.5 -32.5q0 -20 7.5 -32t22 -21t36 -15.5t50.5 -13.5l75 -19q46 -12 79.5 -29.5t55.5 -44t32.5 -63.5t10.5 -87zM259 -46h146l-67 -194h-121z" />
    <glyph glyph-name="uni0219" unicode="&#x219;" horiz-adv-x="500" 
d="M476 168q0 -38 -11.5 -70.5t-38.5 -56.5t-71 -37.5t-108 -13.5q-48 0 -107.5 8.5t-107.5 24.5v127q63 -20 115 -25.5t81 -5.5q54 0 72 9t18 33q0 11 -2.5 18t-10 12.5t-21.5 9.5t-37 10l-62 15q-44 11 -72.5 27t-46 37.5t-24.5 49t-7 61.5q0 85 54.5 125.5t175.5 40.5
q55 0 100.5 -7t70.5 -14v-122q-15 4 -35 8t-41.5 7t-42.5 4.5t-38 1.5q-27 0 -44.5 -2t-27.5 -7t-13.5 -12.5t-3.5 -17.5q0 -11 2.5 -17.5t11 -11t23 -9t38.5 -10.5l64 -17q45 -12 73.5 -26.5t45 -34.5t22.5 -47.5t6 -64.5zM200 -46h146l-67 -194h-121z" />
    <glyph glyph-name="uni021A" unicode="&#x21a;" horiz-adv-x="675" 
d="M22 594v156h631v-156h-224v-594h-183v594h-224zM268 -46h146l-67 -194h-121z" />
    <glyph glyph-name="uni021B" unicode="&#x21b;" horiz-adv-x="452" 
d="M427 429h-147v-240q0 -39 11 -53t45 -14q24 0 47.5 4t43.5 14v-117q-31 -17 -73 -25t-85 -8q-88 0 -127.5 37t-39.5 115v287h-87v124h87v115l178 34v-149h147v-124zM174 -46h146l-67 -194h-121z" />
    <glyph glyph-name="uni021C" unicode="&#x21c;" horiz-adv-x="565" 
d="M139 325v137l119 11q50 5 73 20t23 56q0 15 -3.5 28t-15.5 22t-35 14t-62 5q-20 0 -44.5 -1.5t-51 -5t-53.5 -9t-52 -13.5v142q19 7 44.5 12.5t54 9t56.5 5.5t51 2q151 0 222.5 -45.5t71.5 -144.5q0 -43 -18 -86t-62 -78q57 -23 80 -64.5t23 -89.5q0 -63 -27 -108
t-72 -75t-102.5 -48t-119.5 -28.5t-122.5 -14.5t-110.5 -7v146q85 6 153.5 14t116.5 22.5t74 38.5t26 62q0 37 -13.5 58.5t-42.5 32.5q-30 -6 -64 -9z" />
    <glyph glyph-name="uni021D" unicode="&#x21d;" horiz-adv-x="565" 
d="M139 132v126l121 11q50 5 78 23t28 66q0 17 -5 31.5t-19.5 24.5t-39.5 15.5t-64 5.5q-20 0 -44.5 -1.5t-51 -5t-53.5 -9t-52 -13.5v127q19 7 44.5 13t54 10t56.5 6t51 2q150 0 218 -47t68 -145q0 -43 -17 -86t-59 -77q29 -12 48.5 -28.5t31 -36.5t16.5 -43t5 -47
q0 -63 -28 -108t-74 -75t-104.5 -48t-119 -28.5t-119 -14.5t-103.5 -7v141q85 6 155.5 14t120.5 23t78 39.5t28 65.5q0 37 -9.5 61.5t-39.5 38.5q-18 -5 -38 -8t-43 -5z" />
    <glyph glyph-name="uni021E" unicode="&#x21e;" horiz-adv-x="743" 
d="M681 750v-750h-182v303h-255v-303h-182v750h182v-285h255v285h182zM200 960h111l60 -76l59 76h113l-111 -170h-121z" />
    <glyph glyph-name="uni021F" unicode="&#x21f;" horiz-adv-x="614" 
d="M562 0h-178v357q0 35 -9 51t-42 16q-23 0 -49.5 -8.5t-49.5 -22.5v-393h-178v744l178 30v-250q34 20 75.5 31.5t79.5 11.5q48 0 81 -13t53.5 -36t29.5 -54.5t9 -68.5v-395zM163 960h111l60 -76l59 76h113l-111 -170h-121z" />
    <glyph glyph-name="uni0220" unicode="&#x220;" horiz-adv-x="719" 
d="M659 -216h-187v733q0 45 -13 67t-54 22q-38 0 -80.5 -17t-79.5 -37v-552h-183v750h157l15 -59q54 38 115 57t114 19q49 0 86 -16t61.5 -45t36.5 -68.5t12 -85.5v-768z" />
    <glyph glyph-name="uni0221" unicode="&#x221;" horiz-adv-x="738" 
d="M359 -99q15 38 38 83t55 84q0 2 -0.5 3t-0.5 3q-18 -15 -41.5 -30t-52 -27t-60.5 -19.5t-66 -7.5q-97 0 -143 50t-46 132v172q0 60 17 102.5t47 69t70.5 39t87.5 12.5q42 0 74.5 -6.5t58.5 -18.5v202l178 30v-619q27 9 60 9t56 -9t38 -23.5t22 -33.5t7 -40
q0 -50 -33 -84.5t-103 -34.5q-34 0 -61.5 12t-48.5 29q-13 -22 -23 -43t-17 -36h-113zM397 406q-16 11 -39 17t-46 6q-43 0 -67.5 -20.5t-24.5 -78.5v-118q0 -39 13.5 -61.5t52.5 -22.5q27 0 56.5 8t54.5 27v243zM632 32q13 0 24 5.5t11 20.5q0 23 -34 23q-25 0 -51 -18
q12 -31 50 -31z" />
    <glyph glyph-name="uni0222" unicode="&#x222;" horiz-adv-x="649" 
d="M294 317l-19 -11q-20 -11 -33 -21t-21 -21t-11.5 -24t-3.5 -30q0 -41 28 -62.5t84 -21.5q55 0 84 22t29 63q0 37 -21 59.5t-77 36.5zM381 762q115 -10 166 -65t51 -141q0 -60 -26.5 -100t-86.5 -69q38 -13 63 -31.5t39.5 -41.5t20.5 -50t6 -57q0 -46 -16 -86t-50 -69.5
t-88.5 -46.5t-130.5 -17q-81 0 -137.5 15t-91 42.5t-50 65.5t-15.5 83q0 63 27.5 109t100.5 73q-60 23 -85 68.5t-25 108.5q0 96 59.5 148t159.5 61v-133q-24 -9 -33 -28.5t-9 -44.5q0 -39 19.5 -58t56.5 -29l46 -12l26 12q25 11 40 30.5t15 57.5q0 27 -9 48t-43 28v129z
" />
    <glyph glyph-name="uni0223" unicode="&#x223;" horiz-adv-x="605" 
d="M276 323l-17 -12q-35 -25 -51.5 -47.5t-16.5 -56.5q0 -42 25 -65t85 -23q54 0 80 24.5t26 66.5q0 38 -21.5 62t-73.5 40zM360 775q51 -5 87.5 -21.5t60.5 -43.5t35.5 -62.5t11.5 -77.5q0 -58 -25 -100.5t-85 -76.5q63 -29 94 -75t31 -107q0 -47 -15.5 -87.5t-48 -70.5
t-82 -47.5t-117.5 -17.5q-73 0 -124.5 15.5t-84.5 43t-48 66t-15 84.5q0 65 29 111.5t94 76.5q-57 29 -81.5 77t-24.5 104q0 48 14.5 84.5t41 63t62.5 41.5t79 20v-128q-42 -19 -42 -78q0 -44 22 -63.5t56 -28.5l43 -12l24 12q23 11 38.5 32.5t15.5 59.5q0 27 -8 48.5
t-38 33.5v124z" />
    <glyph glyph-name="uni0224" unicode="&#x224;" horiz-adv-x="655" 
d="M305 222q-8 -10 -14.5 -18t-14 -16.5t-17.5 -19t-23 -24.5h387v-145q0 -87 -48 -130t-150 -43q-35 0 -59.5 2.5t-52.5 8.5v125q18 -5 38 -6.5t32 -1.5q24 0 39 10t17 36h-409v137l309 392q19 23 34 41t32 37h-360v143h566v-136z" />
    <glyph glyph-name="uni0225" unicode="&#x225;" horiz-adv-x="521" 
d="M484 448l-187 -255q-14 -19 -29 -36t-32 -36h262v-126q0 -87 -43.5 -128t-136.5 -41q-32 0 -56 2.5t-52 8.5v117q18 -5 38 -6.5t38 -1.5q29 0 49 10t20 38v6h-329v105l187 253q13 17 28 37t32 37h-236v121h447v-105z" />
    <glyph glyph-name="uni0226" unicode="&#x226;" horiz-adv-x="748" 
d="M477 750l264 -750h-200l-52 162h-244l-52 -162h-186l257 750h213zM287 310h159l-48 162q-5 17 -9.5 31.5t-8 29.5t-7 31.5t-6.5 36.5q-3 -20 -6 -36t-7 -31t-8.5 -29.5t-9.5 -32.5zM315 938h118v-126h-118v126z" />
    <glyph glyph-name="uni0227" unicode="&#x227;" horiz-adv-x="568" 
d="M522 0h-132l-16 50q-30 -25 -81.5 -42.5t-106.5 -17.5q-77 0 -118.5 36t-41.5 120v38q0 47 17 78t50.5 49.5t82.5 26t113 7.5h62v30q0 21 -3.5 35t-13 22t-26 11t-42.5 3q-15 0 -36 -2t-45 -6.5t-49 -10.5t-47 -15v122q21 7 47 13t53 10.5t52.5 7t46.5 2.5
q67 0 112 -13.5t72 -39t38.5 -62.5t11.5 -85v-367zM351 240h-66q-38 0 -62.5 -13t-24.5 -54v-11q0 -28 11.5 -40t40.5 -12q23 0 52.5 8t48.5 25v97zM226 738h118v-126h-118v126z" />
    <glyph glyph-name="uni0228" unicode="&#x228;" horiz-adv-x="623" 
d="M336 -273q-20 0 -47 2t-49 6v84q15 -2 35 -3.5t45 -1.5q35 0 50.5 10.5t15.5 24.5v8q0 17 -15.5 26.5t-61.5 9.5h-26v107h-221v750h515v-143h-332v-154h299v-142h-299v-168h347v-143h-201v-47q33 -3 54.5 -11.5t34 -21.5t17.5 -30.5t5 -37.5v-8q0 -62 -43 -89.5
t-123 -27.5z" />
    <glyph glyph-name="uni0229" unicode="&#x229;" horiz-adv-x="593" 
d="M297 -273q-20 0 -47 2t-49 6v84q15 -2 35 -3.5t45 -1.5q35 0 50.5 10.5t15.5 24.5v8q0 17 -15.5 26.5t-61.5 9.5h-26v102q-104 15 -155 74.5t-51 171.5v70q0 69 21 117.5t56.5 79.5t83 45t100.5 14q58 0 106 -13t82 -44.5t53 -83.5t19 -129v-78h-349v-11q0 -58 35.5 -77
t103.5 -19q34 0 79.5 6t84.5 20v-118q-28 -14 -73 -21t-88 -9v-37q33 -3 54.5 -11.5t34 -21.5t17.5 -30.5t5 -37.5v-8q0 -62 -43 -89.5t-123 -27.5zM393 323v21q0 46 -21.5 72t-69.5 26q-45 0 -68.5 -26t-23.5 -74v-19h183z" />
    <glyph glyph-name="uni022A" unicode="&#x22a;" horiz-adv-x="758" 
d="M720 311q0 -162 -90.5 -243t-250.5 -81q-79 0 -142 20t-107.5 60.5t-68 101.5t-23.5 142v128q0 81 24 141.5t68 101t107.5 61t141.5 20.5q79 0 142 -20.5t107.5 -61t68 -101t23.5 -141.5v-128zM534 423q0 97 -37 140t-118 43t-118.5 -43t-37.5 -140v-96q0 -97 37.5 -140
t118.5 -43t118 43t37 140v96zM223 906h116v-126h-116v126zM419 906h116v-126h-116v126zM226 1050h306v-106h-306v106z" />
    <glyph glyph-name="uni022B" unicode="&#x22b;" horiz-adv-x="616" 
d="M308 -13q-134 0 -202 62t-68 188v80q0 121 68 185.5t202 64.5t202 -64.5t68 -185.5v-80q0 -126 -68 -188t-202 -62zM308 432q-45 0 -68.5 -26.5t-23.5 -95.5v-66q0 -69 23.5 -95.5t68.5 -26.5t68.5 26.5t23.5 95.5v66q0 69 -23.5 95.5t-68.5 26.5zM152 711h116v-126h-116
v126zM348 711h116v-126h-116v126zM155 847h306v-106h-306v106z" />
    <glyph glyph-name="uni022C" unicode="&#x22c;" horiz-adv-x="758" 
d="M720 311q0 -162 -90.5 -243t-250.5 -81q-79 0 -142 20t-107.5 60.5t-68 101.5t-23.5 142v128q0 81 24 141.5t68 101t107.5 61t141.5 20.5q79 0 142 -20.5t107.5 -61t68 -101t23.5 -141.5v-128zM534 423q0 97 -37 140t-118 43t-118.5 -43t-37.5 -140v-96q0 -97 37.5 -140
t118.5 -43t118 43t37 140v96zM443 779q-26 0 -42 7t-28 16t-21.5 16t-22.5 7q-16 0 -23.5 -13t-10.5 -33h-92q3 25 10.5 51.5t21 48.5t34.5 36t50 14q27 0 44.5 -7t30 -16t22 -16t21.5 -7q18 0 23.5 14t7.5 34h92q-2 -24 -8.5 -50.5t-19.5 -49t-34.5 -37.5t-54.5 -15z
M226 1057h306v-106h-306v106z" />
    <glyph glyph-name="uni022D" unicode="&#x22d;" horiz-adv-x="616" 
d="M308 -13q-134 0 -202 62t-68 188v80q0 121 68 185.5t202 64.5t202 -64.5t68 -185.5v-80q0 -126 -68 -188t-202 -62zM308 432q-45 0 -68.5 -26.5t-23.5 -95.5v-66q0 -69 23.5 -95.5t68.5 -26.5t68.5 26.5t23.5 95.5v66q0 69 -23.5 95.5t-68.5 26.5zM372 585q-26 0 -42 7
t-28 16t-21.5 16t-22.5 7q-16 0 -23.5 -13t-10.5 -33h-92q3 25 10.5 51.5t21 48.5t34.5 36t50 14q27 0 44.5 -7t30 -16t22 -16t21.5 -7q18 0 23.5 14t7.5 34h92q-2 -24 -8.5 -50.5t-19.5 -49t-34.5 -37.5t-54.5 -15zM155 867h306v-106h-306v106z" />
    <glyph glyph-name="uni022E" unicode="&#x22e;" horiz-adv-x="758" 
d="M720 311q0 -162 -90.5 -243t-250.5 -81q-79 0 -142 20t-107.5 60.5t-68 101.5t-23.5 142v128q0 81 24 141.5t68 101t107.5 61t141.5 20.5q79 0 142 -20.5t107.5 -61t68 -101t23.5 -141.5v-128zM534 423q0 97 -37 140t-118 43t-118.5 -43t-37.5 -140v-96q0 -97 37.5 -140
t118.5 -43t118 43t37 140v96zM320 938h118v-126h-118v126z" />
    <glyph glyph-name="uni022F" unicode="&#x22f;" horiz-adv-x="616" 
d="M308 -13q-134 0 -202 62t-68 188v80q0 121 68 185.5t202 64.5t202 -64.5t68 -185.5v-80q0 -126 -68 -188t-202 -62zM308 432q-45 0 -68.5 -26.5t-23.5 -95.5v-66q0 -69 23.5 -95.5t68.5 -26.5t68.5 26.5t23.5 95.5v66q0 69 -23.5 95.5t-68.5 26.5zM248 738h118v-126h-118
v126z" />
    <glyph glyph-name="uni0230" unicode="&#x230;" horiz-adv-x="758" 
d="M720 311q0 -162 -90.5 -243t-250.5 -81q-79 0 -142 20t-107.5 60.5t-68 101.5t-23.5 142v128q0 81 24 141.5t68 101t107.5 61t141.5 20.5q79 0 142 -20.5t107.5 -61t68 -101t23.5 -141.5v-128zM534 423q0 97 -37 140t-118 43t-118.5 -43t-37.5 -140v-96q0 -97 37.5 -140
t118.5 -43t118 43t37 140v96zM320 916h118v-126h-118v126zM226 1050h306v-106h-306v106z" />
    <glyph glyph-name="uni0231" unicode="&#x231;" horiz-adv-x="616" 
d="M308 -13q-134 0 -202 62t-68 188v80q0 121 68 185.5t202 64.5t202 -64.5t68 -185.5v-80q0 -126 -68 -188t-202 -62zM308 432q-45 0 -68.5 -26.5t-23.5 -95.5v-66q0 -69 23.5 -95.5t68.5 -26.5t68.5 26.5t23.5 95.5v66q0 69 -23.5 95.5t-68.5 26.5zM249 717h118v-126h-118
v126zM155 847h306v-106h-306v106z" />
    <glyph glyph-name="uni0232" unicode="&#x232;" horiz-adv-x="702" 
d="M443 295v-295h-183v293l-249 457h195l92 -188q16 -33 29.5 -64.5t29.5 -75.5q14 44 26.5 75.5t28.5 64.5l91 188h185zM198 935h306v-106h-306v106z" />
    <glyph glyph-name="uni0233" unicode="&#x233;" horiz-adv-x="602" 
d="M596 553l-273 -766h-187l75 214l-205 552h182l92 -291q8 -26 15 -53t14 -68q9 42 15 68.5t14 51.5l85 292h173zM148 735h306v-106h-306v106z" />
    <glyph glyph-name="uni0234" unicode="&#x234;" horiz-adv-x="398" 
d="M56 744l178 30v-543q7 0 13.5 0.5t14.5 0.5q44 0 74 -11t48 -29t25.5 -40t7.5 -44q0 -25 -8.5 -47t-26.5 -38.5t-47 -26t-70 -9.5q-51 0 -94 15t-72 52q-18 -29 -26 -54h-113q14 39 37.5 81.5t61.5 77.5q-3 25 -3 56v529zM286 80q13 0 25 6.5t12 26.5q0 13 -12 21.5
t-43 8.5q-8 0 -16 -0.5t-16 -1.5q4 -30 15 -45.5t35 -15.5z" />
    <glyph glyph-name="uni0235" unicode="&#x235;" horiz-adv-x="715" 
d="M384 357q0 35 -9.5 51t-41.5 16q-23 0 -50.5 -8t-49.5 -24v-392h-177v553h132l12 -47q42 30 92 45.5t92 15.5q51 0 85 -13t54.5 -36t29.5 -54.5t9 -68.5v-170h8q44 0 74 -10t48 -26.5t25.5 -37.5t7.5 -43q0 -25 -8.5 -47t-26.5 -38.5t-47 -26t-70 -9.5q-48 0 -88 16.5
t-66 56.5q-11 -15 -17 -30.5t-11 -29.5h-113q14 42 39.5 86t68.5 79q-2 10 -2 21v23v148zM602 80q12 0 20.5 6.5t8.5 23.5q0 14 -12 21.5t-43 7.5h-14q3 -35 13 -47t27 -12z" />
    <glyph glyph-name="uni0236" unicode="&#x236;" horiz-adv-x="460" 
d="M110 429h-87v124h87v115l178 34v-149h147v-124h-147v-204q42 -1 71 -11t46 -26.5t24.5 -37t7.5 -42.5q0 -25 -8.5 -47t-26.5 -38.5t-47 -26t-70 -9.5q-49 0 -87.5 17t-61.5 62q-12 -17 -20 -34t-13 -32h-113q16 45 44 92.5t76 82.5v254zM318 80q25 0 25 26q0 14 -12 23.5
t-43 9.5q1 -35 7 -47t23 -12z" />
    <glyph glyph-name="uni0237" unicode="&#x237;" horiz-adv-x="317" 
d="M256 553v-585q0 -59 -12.5 -96t-37 -58t-60.5 -29t-82 -8q-42 0 -76.5 4t-64.5 11v138q25 -5 46.5 -6.5t40.5 -1.5t32 2.5t21 10.5t11.5 22.5t3.5 39.5v556h178z" />
    <glyph glyph-name="uni0238" unicode="&#x238;" horiz-adv-x="972" 
d="M734 567q49 0 86 -14t61.5 -39t36.5 -58t12 -72v-172q0 -115 -56.5 -168.5t-168.5 -53.5q-48 0 -90 14t-73 37l-10 -41h-98l-14 49q-71 -59 -189 -59q-97 0 -143 50t-46 132v172q0 60 17 102.5t47 69t70.5 39t87.5 12.5q42 0 74.5 -6.5t58.5 -18.5v202l178 30v-252
q32 21 73 33t86 12zM397 406q-16 11 -39 17t-46 6q-43 0 -67.5 -20.5t-24.5 -78.5v-118q0 -39 13.5 -61.5t52.5 -22.5q27 0 56.5 8t54.5 27v243zM575 159q16 -12 43 -21t56 -9q42 0 60 22.5t18 77.5v116q0 45 -17.5 64.5t-55.5 19.5q-26 0 -55 -10t-49 -26v-234z" />
    <glyph glyph-name="uni0239" unicode="&#x239;" horiz-adv-x="972" 
d="M736 567q87 0 140.5 -46.5t53.5 -136.5v-172q0 -115 -57 -168.5t-174 -53.5q-23 0 -57 4t-67 15v-225h-178v242q-29 -18 -67 -27t-82 -9q-56 0 -95 13.5t-64 38.5t-36 59t-11 75v168q0 60 16.5 102.5t46.5 69t70.5 39t88.5 12.5q38 0 80 -9t82 -36l12 31h91l17 -43
q51 31 97 44t93 13zM575 137q26 -7 46 -9t42 -2q45 0 67 22t22 74v121q0 45 -16.5 65.5t-56.5 20.5q-26 0 -52.5 -9t-51.5 -25v-258zM397 402q-17 14 -40 21t-46 7q-43 0 -67 -20.5t-24 -78.5v-119q0 -44 17 -64t59 -20q59 0 101 21v253z" />
    <glyph glyph-name="uni023A" unicode="&#x23a;" horiz-adv-x="745" 
d="M216 -43l98 205h-69l-52 -162h-186l257 750h213l50 -143l89 185h90l-141 -293l176 -499h-200l-52 162h-85l-98 -205h-90zM287 310h98l37 78l-24 84q-5 17 -9.5 31.5t-8 29.5t-7 31.5t-6.5 36.5q-3 -20 -6 -36t-7 -31t-8.5 -29.5t-9.5 -32.5z" />
    <glyph glyph-name="uni023B" unicode="&#x23b;" horiz-adv-x="645" 
d="M596 587q-38 7 -86 12l-208 -433q39 -19 113 -19q42 0 92.5 4.5t99.5 18.5v-150q-22 -9 -49.5 -15t-56 -9t-56.5 -4.5t-52 -1.5q-100 0 -166 19l-25 -52h-90l41 86q-54 36 -78.5 101.5t-24.5 166.5v118q0 94 21.5 157.5t64.5 102t107 55t149 16.5q26 0 51.5 -1.5
t50.5 -3.5l18 37h90l-25 -52q5 -1 9.5 -2t9.5 -3v-148zM235 316q0 -50 10 -83l177 371h-6q-55 0 -90 -10.5t-55.5 -31t-28 -51t-7.5 -70.5v-125z" />
    <glyph glyph-name="uni023C" unicode="&#x23c;" horiz-adv-x="516" 
d="M505 420q-17 5 -40.5 9.5t-51.5 6.5l-142 -298q17 -10 40.5 -14t56.5 -4t70 5t77 19v-129q-17 -7 -40 -12t-47.5 -8.5t-47.5 -5t-41 -1.5q-79 0 -133 16l-22 -47h-90l39 82q-78 60 -78 198v72q0 69 18.5 118t54.5 80t88.5 45.5t121.5 14.5q11 0 23 -0.5t25 -1.5l23 49h90
l-29 -61q10 -2 18.5 -4.5t16.5 -5.5v-123zM230 240l93 195q-51 -8 -72 -37t-21 -87v-71z" />
    <glyph glyph-name="uni023D" unicode="&#x23d;" horiz-adv-x="583" 
d="M-35 458h97v292h183v-292h139v-111h-139v-191h326v-156h-509v347h-97v111z" />
    <glyph glyph-name="uni023E" unicode="&#x23e;" horiz-adv-x="671" 
d="M112 -43l132 275v362h-224v156h472l20 42h90l-20 -42h69v-156h-144l-80 -168v-426h-183v44l-42 -87h-90z" />
    <glyph glyph-name="uni023F" unicode="&#x23f;" horiz-adv-x="524" 
d="M484 168q0 -36 -10.5 -67.5t-35 -55t-64 -38t-97.5 -16.5q45 -33 92 -46.5t105 -12.5v-110q-31 0 -66.5 2t-72.5 11.5t-74.5 29t-71.5 54.5q-29 29 -52 47.5t-41 29.5t-32 17t-24 10v127q63 -20 115 -25.5t81 -5.5q54 0 72 9t18 33q0 11 -2.5 18t-10 12.5t-21.5 9.5
t-37 10l-62 15q-44 11 -72.5 27t-46 37.5t-24.5 49t-7 61.5q0 85 54.5 125.5t175.5 40.5q55 0 100.5 -7t70.5 -14v-122q-15 4 -35 8t-41.5 7t-42.5 4.5t-38 1.5q-27 0 -44.5 -2t-27.5 -7t-13.5 -12.5t-3.5 -17.5q0 -11 2.5 -17.5t11 -11t23 -9t38.5 -10.5l64 -17
q45 -12 73.5 -26.5t45 -34.5t22.5 -47.5t6 -64.5z" />
    <glyph glyph-name="uni0240" unicode="&#x240;" horiz-adv-x="513" 
d="M484 448l-191 -255q-24 -32 -50.5 -63t-68.5 -63q20 -8 34.5 -15t33.5 -20q29 -20 56.5 -35t56.5 -26t62 -16.5t73 -5.5v-125q-54 0 -94.5 5t-76 16.5t-69.5 30.5t-73 47q-36 26 -60.5 40t-41 21t-28 9.5t-21.5 6.5v105l191 253q13 17 28 37t32 37h-240v121h447v-105z
" />
    <glyph glyph-name="uni0241" unicode="&#x241;" horiz-adv-x="508" 
d="M149 0v206q0 34 4 61t15 50.5t29 45t47 45.5q23 19 37 35t21.5 32t10 33.5t2.5 39.5t-5 36.5t-18 23.5t-35.5 12.5t-56.5 3.5q-43 0 -88 -9.5t-84 -24.5v129q35 16 88 27t107 11q75 0 125 -14t80 -40t43 -63.5t13 -83.5q0 -45 -8 -76.5t-22.5 -55t-34.5 -42.5t-44 -40
q-26 -23 -41 -40.5t-22.5 -34.5t-9.5 -34.5t-2 -38.5v-194h-151z" />
    <glyph glyph-name="uni0242" unicode="&#x242;" horiz-adv-x="456" 
d="M144 0v99q0 27 2.5 48t9 38t17.5 32t27 29q22 19 36 33t22.5 27t12 28t3.5 37q0 35 -19 50.5t-68 15.5q-41 0 -80.5 -9.5t-78.5 -24.5v120q35 16 84 26.5t103 10.5q64 0 106 -13t66.5 -38t34.5 -60t10 -80q0 -33 -5.5 -57t-15.5 -42t-24 -32.5t-30 -29.5
q-20 -18 -33.5 -31t-21.5 -26t-11.5 -28.5t-3.5 -38.5v-84h-143z" />
    <glyph glyph-name="uni0243" unicode="&#x243;" horiz-adv-x="691" 
d="M-15 269h79v481h319q55 0 100 -6.5t77.5 -24.5t50.5 -49t18 -80v-58q0 -44 -20 -82t-75 -56q66 -13 93 -49t27 -87v-79q0 -54 -16.5 -88.5t-50.5 -55t-86 -28t-123 -7.5h-314v160h-79v109zM247 625v-179h106q20 0 36 3t27 11.5t17 24t6 41.5v31q0 41 -20.5 54.5
t-71.5 13.5h-100zM247 327v-58h102v-109h-102v-35h101q33 0 55.5 3.5t36 13t19 25.5t5.5 41v33q0 48 -23 67t-84 19h-110z" />
    <glyph glyph-name="uni0244" unicode="&#x244;" horiz-adv-x="756" 
d="M-15 470h69v280h183v-280h281v280h184v-280h71v-111h-71v-82q0 -154 -82 -222t-240 -68q-164 0 -245 68t-81 222v82h-69v111zM380 153q39 0 65.5 8t42.5 28t23 53.5t7 84.5v32h-281v-32q0 -51 8 -84.5t25.5 -53.5t44.5 -28t65 -8z" />
    <glyph glyph-name="uni0245" unicode="&#x245;" horiz-adv-x="738" 
d="M532 0l-132 429q-6 19 -10.5 37t-9 37t-8.5 40t-8 48q-4 -27 -8.5 -48.5t-9 -40.5t-9.5 -36.5t-11 -36.5l-135 -429h-185l253 750h213l260 -750h-200z" />
    <glyph glyph-name="uni0246" unicode="&#x246;" horiz-adv-x="623" 
d="M116 -43l20 43h-74v750h434l20 42h90l-29 -61v-124h-60l-74 -154h101v-142h-169l-80 -168h297v-143h-366l-20 -43h-90zM245 453h108l74 154h-182v-154zM245 226l40 85h-40v-85z" />
    <glyph glyph-name="uni0247" unicode="&#x247;" horiz-adv-x="593" 
d="M559 219h-236l-48 -100q28 -7 74 -7q34 0 79.5 6t84.5 20v-118q-16 -8 -38.5 -13.5t-48 -9.5t-51.5 -6t-49 -2q-58 0 -108 11l-20 -43h-76l31 64q-58 29 -86.5 82.5t-28.5 137.5v70q0 69 21 117.5t56.5 79.5t83 45t100.5 14q30 0 57 -3t52 -11l29 61h76l-44 -91
q43 -30 66.5 -84.5t23.5 -141.5v-78zM302 442q-45 0 -68.5 -26t-23.5 -74v-19h87l53 109q-19 10 -48 10zM210 208q0 -30 9 -48l28 59h-37v-11zM393 323v21q0 5 -0.5 9t-0.5 8l-19 -38h20z" />
    <glyph glyph-name="uni0248" unicode="&#x248;" horiz-adv-x="467" 
d="M58 458h149v292h183v-292h87v-111h-87v-137q0 -57 -10.5 -98.5t-36 -68.5t-69 -40t-108.5 -13q-13 0 -32.5 1.5t-40.5 4.5t-42 7.5t-37 10.5v153q38 -13 67.5 -17t55.5 -4q38 0 54 17t16 67v117h-149v111z" />
    <glyph glyph-name="uni0249" unicode="&#x249;" horiz-adv-x="381" 
d="M2 367h123v186h178v-186h88v-107h-88v-292q0 -59 -12.5 -96t-37 -58t-60.5 -29t-82 -8q-42 0 -76.5 4t-64.5 11v138q25 -5 46.5 -6.5t40.5 -1.5t32 2.5t21 10.5t11.5 22.5t3.5 39.5v263h-123v107zM303 625h-178v163h178v-163z" />
    <glyph glyph-name="uni024A" unicode="&#x24a;" horiz-adv-x="739" 
d="M493 31q-37 -22 -91 -33t-108 -11q-70 0 -118.5 17t-78.5 48t-43.5 73t-13.5 93v266q0 75 20.5 127.5t56.5 86t86.5 49t110.5 15.5q24 0 51 -2.5t55.5 -8.5t56 -17t52.5 -28l15 39h133v-745q0 -43 13.5 -58t48.5 -15q15 0 33 2.5t34 7.5v-146q-35 -8 -60.5 -11t-59.5 -3
q-105 0 -149 53t-44 161v40zM493 562q-35 20 -76 29t-78 9q-51 0 -83.5 -28t-32.5 -98v-217q0 -106 99 -106q63 0 104 11t67 25v375z" />
    <glyph glyph-name="uni024B" unicode="&#x24b;" horiz-adv-x="655" 
d="M397 26q-29 -18 -67 -27t-82 -9q-56 0 -95 13.5t-64 38.5t-36 59t-11 75v168q0 60 16.5 102.5t46.5 69t70.5 39t88.5 12.5q38 0 80 -9t82 -36l12 31h137v-591q0 -32 15.5 -44.5t41.5 -12.5q12 0 32 1.5t38 6.5v-125q-28 -6 -52.5 -8.5t-59.5 -2.5q-102 0 -147.5 43
t-45.5 130v76zM397 402q-17 14 -40 21t-46 7q-43 0 -67 -20.5t-24 -78.5v-119q0 -44 17 -64t59 -20q59 0 101 21v253z" />
    <glyph glyph-name="uni024C" unicode="&#x24c;" horiz-adv-x="710" 
d="M-15 405h88v345h314q62 0 111 -8t83 -30t52 -60.5t18 -99.5v-75q0 -69 -25 -110.5t-76 -61.5l143 -305h-195l-124 281h-118v-281h-183v290h-88v115zM256 621v-210h85q35 0 59 3.5t38.5 13t21 26.5t6.5 45v41q0 45 -26 63t-86 18h-98z" />
    <glyph glyph-name="uni024D" unicode="&#x24d;" horiz-adv-x="429" 
d="M-21 337h77v216h130l13 -77q35 36 85.5 62t123.5 29v-168q-50 -1 -97 -13.5t-78 -35.5v-13h79v-111h-79v-226h-177v226h-77v111z" />
    <glyph glyph-name="uni024E" unicode="&#x24e;" horiz-adv-x="692" 
d="M439 295v-295h-183v293l-142 260h-126v111h66l-47 86h195l42 -86h213l42 86h185l-47 -86h67v-111h-126zM353 422q13 41 25 70.5t26 60.5h-106q15 -30 27.5 -59.5t27.5 -71.5z" />
    <glyph glyph-name="uni024F" unicode="&#x24f;" horiz-adv-x="593" 
d="M591 553l-51 -143h63v-98h-98l-187 -525h-187l75 214l-116 311h-100v98h64l-53 143h182l45 -143h148l42 143h173zM275 262q8 -26 15 -53t14 -68q9 42 15 68.5t14 51.5l15 51h-89z" />
    <glyph glyph-name="gravecomb" unicode="&#x300;" 
d="M427 601h-154l-117 147h180z" />
    <glyph glyph-name="acutecomb" unicode="&#x301;" 
d="M264 748h180l-117 -147h-154z" />
    <glyph glyph-name="uni0302" unicode="&#x302;" 
d="M239 767h121l111 -170h-113l-59 76l-60 -76h-111z" />
    <glyph glyph-name="tildecomb" unicode="&#x303;" horiz-adv-x="597" 
d="M360 599q-26 0 -42 7t-28 16t-21.5 16t-22.5 7q-16 0 -23.5 -13t-10.5 -33h-92q3 25 10.5 51.5t21 48.5t34.5 36t50 14q27 0 44.5 -7t30 -16t22 -16t21.5 -7q18 0 23.5 14t7.5 34h92q-2 -24 -8.5 -50.5t-19.5 -49t-34.5 -37.5t-54.5 -15z" />
    <glyph glyph-name="uni0304" unicode="&#x304;" 
d="M147 735h306v-106h-306v106z" />
    <glyph glyph-name="uni0306" unicode="&#x306;" horiz-adv-x="610" 
d="M305 603q-35 0 -62.5 12t-47 32t-30 47.5t-11.5 59.5h93q4 -59 58 -59t58 59h93q-1 -32 -11.5 -59.5t-30 -47.5t-47 -32t-62.5 -12z" />
    <glyph glyph-name="uni0307" unicode="&#x307;" 
d="M241 738h118v-126h-118v126z" />
    <glyph glyph-name="uni0308" unicode="&#x308;" 
d="M144 738h116v-126h-116v126zM340 738h116v-126h-116v126z" />
    <glyph glyph-name="hookabovecomb" unicode="&#x309;" 
d="M249 594v18q0 12 1.5 21t7 16.5t14.5 15t24 16.5q11 7 18 11.5t7 13.5t-7 13t-30 4q-15 0 -37.5 -4t-40.5 -11v79q16 7 40.5 11.5t48.5 4.5q68 0 95.5 -21.5t27.5 -58.5q0 -33 -14 -47t-28 -23q-12 -8 -19 -13t-10.5 -9.5t-4 -9.5t-0.5 -12v-15h-93z" />
    <glyph glyph-name="uni030A" unicode="&#x30a;" 
d="M299 650q20 0 31.5 12t11.5 32t-11.5 31.5t-31.5 11.5q-19 0 -30.5 -11.5t-11.5 -31.5t11.5 -32t30.5 -12zM299 582q-25 0 -46 9t-36.5 24.5t-24.5 35.5t-9 43t9 43t24.5 35t36.5 24t46 9t46.5 -9t37 -24t24.5 -35t9 -43t-9 -43t-24.5 -35.5t-37 -24.5t-46.5 -9z" />
    <glyph glyph-name="uni030B" unicode="&#x30b;" 
d="M350 748h127l-71 -147h-105zM173 748h128l-71 -147h-107z" />
    <glyph glyph-name="uni030C" unicode="&#x30c;" 
d="M128 760h111l60 -76l59 76h113l-111 -170h-121z" />
    <glyph glyph-name="uni030F" unicode="&#x30f;" 
d="M299 601h-105l-71 147h127zM477 601h-107l-71 147h128z" />
    <glyph glyph-name="uni0310" unicode="&#x310;" 
d="M300 603q-38 0 -67.5 12t-50 32t-31.5 47.5t-12 59.5h92q4 -61 69 -61t69 61h92q-1 -32 -12 -59.5t-31.5 -47.5t-50 -32t-67.5 -12zM247 840h104v-111h-104v111z" />
    <glyph glyph-name="uni0311" unicode="&#x311;" 
d="M300 754q35 0 62.5 -12t47 -32t30 -48t11.5 -59h-92q-4 59 -59 59t-59 -59h-92q1 31 11.5 59t30 48t47 32t62.5 12z" />
    <glyph glyph-name="uni0316" unicode="&#x316;" 
d="M427 -213h-154l-117 147h180z" />
    <glyph glyph-name="uni0317" unicode="&#x317;" 
d="M264 -66h180l-117 -147h-154z" />
    <glyph glyph-name="dotbelowcomb" unicode="&#x323;" 
d="M241 -74h118v-126h-118v126z" />
    <glyph glyph-name="uni0324" unicode="&#x324;" 
d="M144 -74h116v-126h-116v126zM340 -74h116v-126h-116v126z" />
    <glyph glyph-name="uni0325" unicode="&#x325;" 
d="M299 -185q20 0 31.5 11.5t11.5 31.5t-11.5 32t-31.5 12q-19 0 -30.5 -12t-11.5 -32t11.5 -31.5t30.5 -11.5zM299 -254q-25 0 -46 9t-36.5 24.5t-24.5 35.5t-9 43t9 43t24.5 35t36.5 24t46 9t46.5 -9t37 -24t24.5 -35t9 -43t-9 -43t-24.5 -35.5t-37 -24.5t-46.5 -9z" />
    <glyph glyph-name="uni0326" unicode="&#x326;" 
d="M252 -46h146l-67 -194h-121z" />
    <glyph glyph-name="uni0327" unicode="&#x327;" 
d="M295 -273q-20 0 -47 2t-49 6v84q15 -2 35 -3.5t45 -1.5q35 0 50.5 10.5t15.5 24.5v8q0 17 -15.5 26.5t-61.5 9.5h-26v138h108v-78q33 -3 54.5 -11.5t34 -21.5t17.5 -30.5t5 -37.5v-8q0 -62 -43 -89.5t-123 -27.5z" />
    <glyph glyph-name="uni0328" unicode="&#x328;" 
d="M327 -232q-39 0 -67 8.5t-46 23.5t-26.5 34t-8.5 40v9q0 19 8.5 37.5t23 34t33.5 27t39 18.5h109q-19 -10 -35 -22.5t-28 -26t-18.5 -27t-6.5 -25.5v-7q0 -20 14.5 -26t34.5 -6q15 0 32.5 2t28.5 5v-88q-13 -4 -36 -7.5t-51 -3.5z" />
    <glyph glyph-name="uni032C" unicode="&#x32c;" 
d="M128 -59h111l60 -76l59 76h113l-111 -170h-121z" />
    <glyph glyph-name="uni032D" unicode="&#x32d;" 
d="M239 -59h121l111 -170h-113l-59 76l-60 -76h-111z" />
    <glyph glyph-name="uni032E" unicode="&#x32e;" 
d="M305 -214q-35 0 -62.5 12t-47 32t-30 47.5t-11.5 59.5h93q4 -59 58 -59t58 59h93q-1 -32 -11.5 -59.5t-30 -47.5t-47 -32t-62.5 -12z" />
    <glyph glyph-name="uni032F" unicode="&#x32f;" 
d="M305 -63q35 0 62.5 -12t47 -32t30 -48t11.5 -59h-93q-4 59 -58 59t-58 -59h-93q1 31 11.5 59t30 48t47 32t62.5 12z" />
    <glyph glyph-name="uni0330" unicode="&#x330;" 
d="M360 -217q-26 0 -42 7t-28 16t-21.5 16t-22.5 7q-16 0 -23.5 -13t-10.5 -33h-92q3 25 10.5 51.5t21 48.5t34.5 36t50 14q27 0 44.5 -7t30 -16t22 -16t21.5 -7q18 0 23.5 14t7.5 34h92q-2 -24 -8.5 -50.5t-19.5 -49t-34.5 -37.5t-54.5 -15z" />
    <glyph glyph-name="uni0331" unicode="&#x331;" 
d="M147 -83h306v-110h-306v110z" />
    <glyph glyph-name="uni0340" unicode="&#x340;" 
d="M427 601h-154l-117 147h180z" />
    <glyph glyph-name="uni0341" unicode="&#x341;" 
d="M264 748h180l-117 -147h-154z" />
    <glyph glyph-name="uni0342" unicode="&#x342;" 
d="M360 599q-26 0 -42 7t-28 16t-21.5 16t-22.5 7q-16 0 -23.5 -13t-10.5 -33h-92q3 25 10.5 51.5t21 48.5t34.5 36t50 14q27 0 44.5 -7t30 -16t22 -16t21.5 -7q18 0 23.5 14t7.5 34h92q-2 -24 -8.5 -50.5t-19.5 -49t-34.5 -37.5t-54.5 -15z" />
    <glyph glyph-name="uni0400" unicode="&#x400;" horiz-adv-x="623" 
d="M577 750v-143h-332v-154h299v-142h-299v-168h347v-143h-530v750h515zM434 801h-154l-117 147h180z" />
    <glyph glyph-name="uni0401" unicode="&#x401;" horiz-adv-x="623" 
d="M577 750v-143h-332v-154h299v-142h-299v-168h347v-143h-530v750h515zM179 938h116v-126h-116v126zM375 938h116v-126h-116v126z" />
    <glyph glyph-name="uni0402" unicode="&#x402;" horiz-adv-x="802" 
d="M572 247q0 35 -10.5 51t-42.5 16q-23 0 -51.5 -8t-50.5 -24v-282h-178v598h-217v152h621v-152h-226v-182q37 20 77.5 30.5t75.5 10.5q51 0 85.5 -13t55.5 -36t30 -54.5t9 -68.5v-322q0 -56 -10 -92t-31 -57t-54 -29t-79 -8q-35 0 -60 3t-52 11v136q20 -4 32 -5.5t26 -1.5
q15 0 25 3t15.5 11t7.5 22.5t2 37.5v253z" />
    <glyph glyph-name="uni0403" unicode="&#x403;" horiz-adv-x="594" 
d="M62 0v750h514v-158h-331v-592h-183zM332 948h180l-117 -147h-154z" />
    <glyph glyph-name="uni0404" unicode="&#x404;" horiz-adv-x="645" 
d="M519 294h-283q1 -38 10.5 -65.5t29.5 -45.5t54 -27t85 -9q42 0 92.5 4.5t99.5 18.5v-150q-22 -9 -49.5 -15t-56 -9t-56.5 -4.5t-52 -1.5q-92 0 -157 17t-106.5 55t-60.5 99t-19 150v121q0 94 21.5 157.5t64.5 102t107 55t149 16.5q57 0 113 -6.5t91 -18.5v-148
q-38 8 -85 12.5t-95 4.5q-54 0 -89 -10t-55 -30t-28 -49t-9 -68h284v-156z" />
    <glyph glyph-name="uni0405" unicode="&#x405;" horiz-adv-x="618" 
d="M590 220q0 -54 -16 -96.5t-51 -72t-91 -45.5t-136 -16q-56 0 -125 8.5t-132 31.5v146q66 -22 125 -30.5t104 -8.5q71 0 104 16t33 58q0 17 -5 29.5t-18.5 22t-38 18.5t-63.5 19l-74 19q-77 19 -122.5 72t-45.5 146q0 55 16.5 97t51 70t88.5 42t130 14q31 0 63 -1.5
t61.5 -5t54.5 -8t43 -10.5v-137q-40 10 -90.5 15t-93.5 5q-42 0 -69 -4.5t-43 -13.5t-22.5 -22.5t-6.5 -32.5q0 -20 7.5 -32t22 -21t36 -15.5t50.5 -13.5l75 -19q46 -12 79.5 -29.5t55.5 -44t32.5 -63.5t10.5 -87z" />
    <glyph glyph-name="uni0406" unicode="&#x406;" horiz-adv-x="307" 
d="M245 0h-183v750h183v-750z" />
    <glyph glyph-name="uni0407" unicode="&#x407;" horiz-adv-x="307" 
d="M245 0h-183v750h183v-750zM-3 938h116v-126h-116v126zM193 938h116v-126h-116v126z" />
    <glyph glyph-name="uni0408" unicode="&#x408;" horiz-adv-x="450" 
d="M390 750v-540q0 -57 -10.5 -98.5t-36 -68.5t-69 -40t-108.5 -13q-13 0 -32.5 1.5t-40.5 4.5t-42 7.5t-37 10.5v153q38 -13 67.5 -17t55.5 -4q38 0 54 17t16 67v520h183z" />
    <glyph glyph-name="uni0409" unicode="&#x409;" horiz-adv-x="1076" 
d="M504 600h-166v-248q0 -95 -14.5 -162t-49 -109t-90.5 -61.5t-140 -19.5h-22v161h15q33 0 56 8t38 28t22 53.5t7 84.5v415h522v-248h87q71 0 123.5 -9t86.5 -30.5t50.5 -58.5t16.5 -94v-112q0 -61 -18 -99.5t-52 -60.5t-83 -30t-110 -8h-279v600zM754 127q60 0 85 18.5
t25 63.5v76q0 28 -4 45.5t-15.5 27t-33 13t-56.5 3.5h-73v-247h72z" />
    <glyph glyph-name="uni040A" unicode="&#x40a;" horiz-adv-x="1061" 
d="M667 750v-278h87q71 0 123.5 -9t86.5 -30.5t50.5 -58.5t16.5 -94v-82q0 -61 -18 -99.5t-52 -60.5t-83 -30t-110 -8h-279v316h-249v-316h-178v750h178v-277h249v277h178zM739 127q60 0 85 18.5t25 63.5v46q0 28 -4 45.5t-15.5 27t-33 13t-56.5 3.5h-73v-217h72z" />
    <glyph glyph-name="uni040B" unicode="&#x40b;" horiz-adv-x="802" 
d="M750 0h-178v247q0 35 -10.5 51t-42.5 16q-23 0 -51.5 -8t-50.5 -24v-282h-178v598h-217v152h621v-152h-226v-182q37 20 77.5 30.5t75.5 10.5q51 0 85.5 -13t55.5 -36t30 -54.5t9 -68.5v-285z" />
    <glyph glyph-name="uni040C" unicode="&#x40c;" horiz-adv-x="742" 
d="M472 380l263 -380h-215l-198 308h-77v-308h-183v750h183v-299h74l174 299h213zM374 948h180l-117 -147h-154z" />
    <glyph glyph-name="uni040D" unicode="&#x40d;" horiz-adv-x="760" 
d="M62 750h168v-491q10 27 17.5 45.5t17.5 36.5l246 409h187v-750h-168v490q-9 -28 -20 -54.5t-28 -55.5l-232 -380h-188v750zM487 801h-154l-117 147h180z" />
    <glyph glyph-name="uni040E" unicode="&#x40e;" horiz-adv-x="619" 
d="M612 750l-268 -750h-195l66 189l-208 561h189l93 -288q8 -26 15 -53t14 -68q9 42 16 68.5t14 51.5l84 289h180zM317 801q-35 0 -62.5 12t-47 32t-30 47.5t-11.5 59.5h93q4 -59 58 -59t58 59h93q-1 -32 -11.5 -59.5t-30 -47.5t-47 -32t-62.5 -12z" />
    <glyph glyph-name="uni040F" unicode="&#x40f;" horiz-adv-x="738" 
d="M494 750h182v-750h-220v-154h-173v154h-221v750h182v-589h250v589z" />
    <glyph glyph-name="uni0410" unicode="&#x410;" horiz-adv-x="748" 
d="M477 750l264 -750h-200l-52 162h-244l-52 -162h-186l257 750h213zM287 310h159l-48 162q-5 17 -9.5 31.5t-8 29.5t-7 31.5t-6.5 36.5q-3 -20 -6 -36t-7 -31t-8.5 -29.5t-9.5 -32.5z" />
    <glyph glyph-name="uni0411" unicode="&#x411;" horiz-adv-x="690" 
d="M245 353v-228h101q33 0 55.5 3.5t36 13t19 25.5t5.5 41v62q0 25 -5.5 41t-19 25.5t-36 13t-55.5 3.5h-101zM375 478q71 0 123 -7.5t86 -28t50.5 -55t17.5 -88.5v-120q0 -54 -16.5 -88.5t-50.5 -55t-86 -28t-123 -7.5h-314v750h529v-130h-346v-142h130z" />
    <glyph glyph-name="uni0412" unicode="&#x412;" horiz-adv-x="690" 
d="M62 750h319q55 0 100 -6.5t77.5 -24.5t50.5 -49t18 -80v-58q0 -44 -20 -82t-75 -56q66 -13 93 -49t27 -87v-79q0 -54 -16.5 -88.5t-50.5 -55t-86 -28t-123 -7.5h-314v750zM245 327v-202h101q33 0 55.5 3.5t36 13t19 25.5t5.5 41v33q0 48 -23 67t-84 19h-110zM245 625
v-179h106q20 0 36 3t27 11.5t17 24t6 41.5v31q0 41 -20.5 54.5t-71.5 13.5h-100z" />
    <glyph glyph-name="uni0413" unicode="&#x413;" horiz-adv-x="594" 
d="M62 0v750h514v-158h-331v-592h-183z" />
    <glyph glyph-name="uni0414" unicode="&#x414;" horiz-adv-x="825" 
d="M627 0h-439v-154h-173v297h41q64 0 94.5 58t30.5 154v395h514v-607h105v-297h-173v154zM361 401q0 -53 -1.5 -92t-7.5 -69t-17.5 -53t-31.5 -44h212v464h-154v-206z" />
    <glyph glyph-name="uni0415" unicode="&#x415;" horiz-adv-x="623" 
d="M577 750v-143h-332v-154h299v-142h-299v-168h347v-143h-530v750h515z" />
    <glyph glyph-name="uni0416" unicode="&#x416;" horiz-adv-x="997" 
d="M412 750h173v-299h12l161 299h203l-231 -370l260 -380h-205l-185 308h-15v-308h-173v308h-15l-185 -308h-205l260 380l-231 370h203l161 -299h12v299z" />
    <glyph glyph-name="uni0417" unicode="&#x417;" 
d="M160 316v132h94q57 0 80.5 22.5t23.5 69.5q0 45 -25.5 64t-93.5 19q-46 0 -96.5 -10.5t-94.5 -25.5v138q18 7 44 13.5t55.5 12t61.5 9t63 3.5q139 0 200 -51t61 -150q0 -26 -5.5 -53.5t-20 -51.5t-38 -42.5t-59.5 -28.5q80 -16 111.5 -60.5t31.5 -113.5q0 -57 -16 -99
t-51 -70t-90.5 -42t-133.5 -14q-33 0 -67 3t-65 8.5t-57.5 12t-45.5 14.5v139q21 -8 48 -14.5t55.5 -11.5t58.5 -8t57 -3q76 0 104.5 22.5t28.5 72.5q0 55 -30.5 74.5t-90.5 19.5h-98z" />
    <glyph glyph-name="uni0418" unicode="&#x418;" horiz-adv-x="760" 
d="M62 750h168v-491q10 27 17.5 45.5t17.5 36.5l246 409h187v-750h-168v490q-9 -28 -20 -54.5t-28 -55.5l-232 -380h-188v750z" />
    <glyph glyph-name="uni0419" unicode="&#x419;" horiz-adv-x="760" 
d="M62 750h168v-491q10 27 17.5 45.5t17.5 36.5l246 409h187v-750h-168v490q-9 -28 -20 -54.5t-28 -55.5l-232 -380h-188v750zM379 803q-35 0 -62.5 12t-47 32t-30 47.5t-11.5 59.5h93q4 -59 58 -59t58 59h93q-1 -32 -11.5 -59.5t-30 -47.5t-47 -32t-62.5 -12z" />
    <glyph glyph-name="uni041A" unicode="&#x41a;" horiz-adv-x="742" 
d="M472 380l263 -380h-215l-198 308h-77v-308h-183v750h183v-299h74l174 299h213z" />
    <glyph glyph-name="uni041B" unicode="&#x41b;" horiz-adv-x="756" 
d="M512 598h-170v-246q0 -95 -15 -162t-50 -109t-92 -61.5t-141 -19.5h-22v161h15q33 0 56 8t38 28t22 53.5t7 84.5v415h534v-750h-182v598z" />
    <glyph glyph-name="uni041C" unicode="&#x41c;" horiz-adv-x="913" 
d="M851 0h-161v461q0 21 1 52.5t4 60.5q-3 -20 -7 -40.5t-8 -39t-7.5 -33t-5.5 -22.5l-118 -439h-183l-122 441q-3 10 -7 28t-8.5 39t-9 44t-8.5 43q4 -35 6.5 -69t2.5 -64v-462h-158v750h243l133 -488q5 -20 11 -46.5t10 -54.5q4 28 10 54t11 46l126 489h245v-750z" />
    <glyph glyph-name="uni041D" unicode="&#x41d;" horiz-adv-x="743" 
d="M681 750v-750h-182v303h-255v-303h-182v750h182v-285h255v285h182z" />
    <glyph glyph-name="uni041E" unicode="&#x41e;" horiz-adv-x="758" 
d="M720 311q0 -162 -90.5 -243t-250.5 -81q-79 0 -142 20t-107.5 60.5t-68 101.5t-23.5 142v128q0 81 24 141.5t68 101t107.5 61t141.5 20.5q79 0 142 -20.5t107.5 -61t68 -101t23.5 -141.5v-128zM534 423q0 97 -37 140t-118 43t-118.5 -43t-37.5 -140v-96q0 -97 37.5 -140
t118.5 -43t118 43t37 140v96z" />
    <glyph glyph-name="uni041F" unicode="&#x41f;" horiz-adv-x="738" 
d="M494 589h-250v-589h-182v750h614v-750h-182v589z" />
    <glyph glyph-name="uni0420" unicode="&#x420;" horiz-adv-x="663" 
d="M62 750h309q61 0 110.5 -8t84 -30t53 -60.5t18.5 -99.5v-86q0 -57 -17 -94t-51.5 -58.5t-87.5 -30.5t-124 -9h-112v-274h-183v750zM245 621v-217h81q35 0 59 3.5t38.5 13t21 27t6.5 45.5v46q0 45 -26.5 63.5t-86.5 18.5h-93z" />
    <glyph glyph-name="uni0421" unicode="&#x421;" horiz-adv-x="637" 
d="M596 587q-38 8 -85 12.5t-95 4.5q-55 0 -90 -10.5t-55.5 -31t-28 -51t-7.5 -70.5v-125q0 -44 7.5 -75.5t27.5 -52.5t55 -31t90 -10q42 0 92.5 4.5t99.5 18.5v-150q-22 -9 -49.5 -15t-56 -9t-56.5 -4.5t-52 -1.5q-92 0 -157 17t-106.5 55t-60.5 99t-19 150v118
q0 94 21.5 157.5t64.5 102t107 55t149 16.5q57 0 113 -6.5t91 -18.5v-148z" />
    <glyph glyph-name="uni0422" unicode="&#x422;" horiz-adv-x="675" 
d="M22 594v156h631v-156h-224v-594h-183v594h-224z" />
    <glyph glyph-name="uni0423" unicode="&#x423;" horiz-adv-x="619" 
d="M612 750l-268 -750h-195l66 189l-208 561h189l93 -288q8 -26 15 -53t14 -68q9 42 16 68.5t14 51.5l84 289h180z" />
    <glyph glyph-name="uni0424" unicode="&#x424;" horiz-adv-x="844" 
d="M222 370q0 -39 4 -66t16 -44t33 -25.5t56 -11.5v329q-32 -3 -52.5 -12.5t-33.5 -27.5t-18 -45t-5 -66v-31zM513 -12h-182v93q-72 3 -126.5 18.5t-91 48t-55 83t-18.5 123.5v73q0 72 18.5 122t55 82.5t91 49t126.5 19.5v73h182v-73q72 -3 126.5 -19.5t91 -49t55 -82.5
t18.5 -122v-73q0 -73 -18.5 -123.5t-55 -83t-91 -48t-126.5 -18.5v-93zM513 223q34 3 55.5 11.5t33.5 25.5t16 44t4 66v31q0 39 -5 66t-18 45t-34 27.5t-52 12.5v-329z" />
    <glyph glyph-name="uni0425" unicode="&#x425;" horiz-adv-x="739" 
d="M416 178q-17 29 -29 56t-23 62q-13 -39 -26 -65t-28 -53l-97 -178h-206l226 386l-208 364h214l88 -168q9 -16 14.5 -28t11 -24.5t11 -26.5t13.5 -35q8 20 14.5 34.5t13 27t13.5 24.5t15 29l84 167h203l-214 -365l226 -385h-216z" />
    <glyph glyph-name="uni0426" unicode="&#x426;" horiz-adv-x="806" 
d="M62 750h182v-601h250v601h182v-601h105v-303h-173v154h-546v750z" />
    <glyph glyph-name="uni0427" unicode="&#x427;" horiz-adv-x="738" 
d="M676 0h-183v312q-50 -29 -111.5 -47t-128.5 -18q-38 0 -73.5 9t-63 33t-44 64.5t-16.5 103.5v293h183v-269q0 -51 16.5 -69t58.5 -18q44 0 90.5 13t88.5 35v308h183v-750z" />
    <glyph glyph-name="uni0428" unicode="&#x428;" horiz-adv-x="929" 
d="M867 0h-805v750h179v-611h134v611h179v-611h134v611h179v-750z" />
    <glyph glyph-name="uni0429" unicode="&#x429;" horiz-adv-x="989" 
d="M859 147h105v-301h-173v154h-729v750h179v-603h130v603h179v-603h130v603h179v-603z" />
    <glyph glyph-name="uni042A" unicode="&#x42a;" horiz-adv-x="800" 
d="M22 750h373v-251h95q71 0 124 -9t87.5 -30.5t51.5 -58.5t17 -94v-109q0 -61 -18.5 -99.5t-53 -60.5t-84 -30t-110.5 -8h-292v599h-190v151zM471 129q60 0 86.5 18.5t26.5 63.5v69q0 28 -6.5 45.5t-21 27t-38.5 13t-59 3.5h-64v-240h76z" />
    <glyph glyph-name="uni042B" unicode="&#x42b;" horiz-adv-x="891" 
d="M62 750h183v-248h57q71 0 124 -9t87.5 -30.5t51.5 -58.5t17 -94v-112q0 -61 -18.5 -99.5t-53 -60.5t-84 -30t-110.5 -8h-254v750zM283 129q60 0 86.5 18.5t26.5 63.5v72q0 28 -4.5 45.5t-16.5 27t-34 13t-57 3.5h-39v-243h38zM647 750h182v-750h-182v750z" />
    <glyph glyph-name="uni042C" unicode="&#x42c;" horiz-adv-x="647" 
d="M62 750h183v-248h92q71 0 124 -9t87.5 -30.5t51.5 -58.5t17 -94v-112q0 -61 -18.5 -99.5t-53 -60.5t-84 -30t-110.5 -8h-289v750zM318 129q60 0 86.5 18.5t26.5 63.5v72q0 28 -4.5 45.5t-16.5 27t-34 13t-57 3.5h-74v-243h73z" />
    <glyph glyph-name="uni042D" unicode="&#x42d;" horiz-adv-x="645" 
d="M126 450h284q-1 39 -9 68t-28.5 49t-55 30t-88.5 10q-48 0 -95 -4.5t-85 -12.5v148q35 12 91 18.5t113 6.5q85 0 149 -16.5t107 -55t64.5 -102t21.5 -157.5v-121q0 -89 -19 -150t-60.5 -99t-106.5 -55t-157 -17q-24 0 -52 1.5t-56.5 4.5t-56 9t-49.5 15v150
q49 -14 99.5 -18.5t92.5 -4.5q51 0 85 9t54 27t29 45.5t11 65.5h-283v156z" />
    <glyph glyph-name="uni042E" unicode="&#x42e;" horiz-adv-x="987" 
d="M949 301q0 -162 -80.5 -238t-240.5 -76q-158 0 -239.5 75.5t-81.5 238.5v10h-63v-311h-182v750h182v-314h63v13q0 162 81.5 238t239.5 76q159 0 240 -76t81 -238v-148zM763 443q0 48 -9 79.5t-26 50t-42 26t-58 7.5t-58.5 -7.5t-42.5 -26t-26 -50t-9 -79.5v-136
q0 -48 9 -79.5t26 -50t42.5 -26t58.5 -7.5t58 7.5t42.5 26t26 50t8.5 79.5v136z" />
    <glyph glyph-name="uni042F" unicode="&#x42f;" horiz-adv-x="699" 
d="M637 0h-183v281h-118l-124 -281h-195l143 305q-51 20 -76 61.5t-25 110.5v75q0 61 18 99.5t52 60.5t83 30t111 8h314v-750zM356 621q-60 0 -86 -18t-26 -63v-41q0 -28 6.5 -45t21 -26.5t38.5 -13t59 -3.5h85v210h-98z" />
    <glyph glyph-name="uni0430" unicode="&#x430;" horiz-adv-x="570" 
d="M522 0h-132l-16 50q-30 -25 -81.5 -42.5t-106.5 -17.5q-77 0 -118.5 36t-41.5 120v38q0 47 17 78t50.5 49.5t82.5 26t113 7.5h62v30q0 21 -3.5 35t-13 22t-26 11t-42.5 3q-15 0 -36 -2t-45 -6.5t-49 -10.5t-47 -15v122q21 7 47 13t53 10.5t52.5 7t46.5 2.5
q67 0 112 -13.5t72 -39t38.5 -62.5t11.5 -85v-367zM351 240h-66q-38 0 -62.5 -13t-24.5 -54v-11q0 -28 11.5 -40t40.5 -12q23 0 52.5 8t48.5 25v97z" />
    <glyph glyph-name="uni0431" unicode="&#x431;" horiz-adv-x="676" 
d="M415 510q43 0 83.5 -12t72 -37t50 -63.5t18.5 -91.5v-87q0 -61 -21.5 -105t-59 -72t-88 -41.5t-108.5 -13.5q-89 0 -149 17t-96 53t-51.5 93t-15.5 137v142q0 79 16 134.5t49.5 94t85 62t122.5 38.5q64 14 132.5 17t130.5 3v-124q-52 3 -111.5 -2t-106.5 -17
q-30 -8 -53.5 -18t-40 -28t-26 -46t-12.5 -71q45 20 89.5 29t89.5 9zM358 124q45 0 74 21.5t29 73.5v53q0 62 -23.5 91t-79.5 29q-33 0 -62.5 -6.5t-60.5 -20.5v-73q0 -40 5.5 -71.5t19 -53t37.5 -32.5t61 -11z" />
    <glyph glyph-name="uni0432" unicode="&#x432;" horiz-adv-x="560" 
d="M56 553h293q39 0 69.5 -5t51.5 -18t32.5 -36t11.5 -59v-43q0 -32 -15 -60t-55 -41q48 -10 68 -38t20 -73v-48q0 -40 -15 -65.5t-43.5 -40.5t-69.5 -20.5t-93 -5.5h-255v553zM220 227v-110h95q34 0 43.5 11.5t9.5 37.5v18q0 23 -9.5 33t-43.5 10h-95zM220 435v-95h99
q21 0 28.5 10t7.5 24v26q0 20 -8 27.5t-28 7.5h-99z" />
    <glyph glyph-name="uni0433" unicode="&#x433;" horiz-adv-x="488" 
d="M56 553h414v-131h-237v-422h-177v553z" />
    <glyph glyph-name="uni0434" unicode="&#x434;" horiz-adv-x="692" 
d="M514 0h-341v-154h-163v281h28q22 0 41.5 7.5t33.5 26.5t22.5 50.5t8.5 79.5v262h444v-426h89v-281h-163v154zM304 317q0 -36 -2.5 -64.5t-10 -51t-21.5 -40.5t-38 -34h189v308h-117v-118z" />
    <glyph glyph-name="uni0435" unicode="&#x435;" horiz-adv-x="593" 
d="M559 219h-349v-11q0 -58 35.5 -77t103.5 -19q34 0 79.5 6t84.5 20v-118q-16 -8 -38.5 -13.5t-48 -9.5t-51.5 -6t-49 -2q-144 0 -216 60t-72 192v70q0 69 21 117.5t56.5 79.5t83 45t100.5 14q58 0 106 -13t82 -44.5t53 -83.5t19 -129v-78zM393 323v21q0 46 -21.5 72
t-69.5 26q-45 0 -68.5 -26t-23.5 -74v-19h183z" />
    <glyph glyph-name="uni0436" unicode="&#x436;" horiz-adv-x="827" 
d="M333 0v215h-20l-117 -215h-191l182 289l-172 264h176l123 -198h19v198h161v-198h19l123 198h176l-172 -264l182 -289h-191l-117 215h-20v-215h-161z" />
    <glyph glyph-name="uni0437" unicode="&#x437;" horiz-adv-x="499" 
d="M127 225v116h74q42 0 59 15t17 42q0 25 -19.5 35t-58.5 10q-45 0 -84.5 -7.5t-71.5 -18.5v122q27 11 75 19.5t103 8.5t97 -7t70.5 -24t43.5 -46t15 -73q0 -23 -5 -44t-18 -38.5t-35.5 -30t-56.5 -17.5q69 -8 100 -37.5t31 -91.5q0 -85 -64.5 -128t-196.5 -43
q-49 0 -97.5 8.5t-76.5 19.5v123q32 -12 77.5 -20t91.5 -8q51 0 73 15.5t22 44.5q0 33 -22 44t-66 11h-77z" />
    <glyph glyph-name="uni0438" unicode="&#x438;" horiz-adv-x="622" 
d="M56 553h155v-332q8 20 13 33.5t13 27.5l148 271h181v-553h-156v331q-7 -21 -15.5 -40t-20.5 -41l-137 -250h-181v553z" />
    <glyph glyph-name="uni0439" unicode="&#x439;" horiz-adv-x="622" 
d="M319 603q-35 0 -62.5 12t-47 32t-30 47.5t-11.5 59.5h93q4 -59 58 -59t58 59h93q-1 -32 -11.5 -59.5t-30 -47.5t-47 -32t-62.5 -12zM56 553h155v-332q8 20 13 33.5t13 27.5l148 271h181v-553h-156v331q-7 -21 -15.5 -40t-20.5 -41l-137 -250h-181v553z" />
    <glyph glyph-name="uni043A" unicode="&#x43a;" horiz-adv-x="580" 
d="M223 553v-193h31l123 193h191l-172 -259l182 -294h-206l-123 220h-26v-220h-167v553h167z" />
    <glyph glyph-name="uni043B" unicode="&#x43b;" horiz-adv-x="617" 
d="M387 430h-113v-180q0 -67 -11 -114.5t-37 -77.5t-68.5 -44t-105.5 -14h-48v124h19q42 0 59 19.5t17 69.5v340h462v-553h-174v430z" />
    <glyph glyph-name="uni043C" unicode="&#x43c;" horiz-adv-x="772" 
d="M716 0h-152v341q0 20 2 48.5t4 49.5q-2 -15 -5.5 -33t-7 -37t-6.5 -35.5t-6 -28.5l-68 -305h-188l-68 306q-5 22 -11 49.5t-12 70.5q2 -23 2.5 -44t0.5 -40v-342h-145v553h248l67 -327q6 -29 9.5 -55t6.5 -62q3 36 6.5 62t8.5 54l64 328h250v-553z" />
    <glyph glyph-name="uni043D" unicode="&#x43d;" horiz-adv-x="639" 
d="M404 216h-171v-216h-177v553h177v-199h171v199h179v-553h-179v216z" />
    <glyph glyph-name="uni043E" unicode="&#x43e;" horiz-adv-x="616" 
d="M308 -13q-134 0 -202 62t-68 188v80q0 121 68 185.5t202 64.5t202 -64.5t68 -185.5v-80q0 -126 -68 -188t-202 -62zM308 432q-45 0 -68.5 -26.5t-23.5 -95.5v-66q0 -69 23.5 -95.5t68.5 -26.5t68.5 26.5t23.5 95.5v66q0 69 -23.5 95.5t-68.5 26.5z" />
    <glyph glyph-name="uni043F" unicode="&#x43f;" horiz-adv-x="619" 
d="M384 429h-151v-429h-177v553h507v-553h-179v429z" />
    <glyph glyph-name="uni0440" unicode="&#x440;" horiz-adv-x="631" 
d="M395 567q87 0 140.5 -46.5t53.5 -136.5v-172q0 -115 -57 -168.5t-174 -53.5q-23 0 -57 4t-67 15v-225h-178v769h132l17 -43q51 31 97 44t93 13zM234 137q26 -7 46 -9t42 -2q45 0 67 22t22 74v121q0 45 -16.5 65.5t-56.5 20.5q-26 0 -52.5 -9t-51.5 -25v-258z" />
    <glyph glyph-name="uni0441" unicode="&#x441;" horiz-adv-x="531" 
d="M488 420q-24 7 -60.5 12.5t-78.5 5.5q-76 0 -106 -29.5t-30 -97.5v-67q0 -36 7 -60t23.5 -38t43 -20t64.5 -6q33 0 70 5t77 19v-129q-17 -7 -40 -12t-47.5 -8.5t-47.5 -5t-41 -1.5q-143 0 -213.5 58.5t-70.5 190.5v72q0 69 18.5 118t54.5 80t88.5 45.5t121.5 14.5
q21 0 44 -1.5t45.5 -4.5t42.5 -7.5t35 -10.5v-123z" />
    <glyph glyph-name="uni0442" unicode="&#x442;" horiz-adv-x="510" 
d="M18 553h474v-124h-149v-429h-179v429h-146v124z" />
    <glyph glyph-name="uni0443" unicode="&#x443;" horiz-adv-x="620" 
d="M605 553l-273 -766h-187l75 214l-205 552h182l93 -289q8 -26 15 -53t14 -68q9 42 16 68.5t14 51.5l84 290h172z" />
    <glyph glyph-name="uni0444" unicode="&#x444;" horiz-adv-x="782" 
d="M303 -13q-69 6 -119.5 25t-82.5 53t-47.5 84.5t-15.5 118.5v18q0 68 15.5 118.5t47.5 84.5t82.5 53t119.5 25v183h176v-183q69 -6 119.5 -25t82.5 -53t47.5 -84.5t15.5 -118.5v-18q0 -68 -15.5 -118.5t-47.5 -84.5t-82.5 -53t-119.5 -25v-200h-176v200zM479 119
q45 4 68 36t23 98v48q0 66 -22.5 98t-68.5 36v-316zM303 435q-46 -4 -68.5 -36t-22.5 -98v-48q0 -66 23 -98t68 -36v316z" />
    <glyph glyph-name="uni0445" unicode="&#x445;" horiz-adv-x="604" 
d="M204 553l49 -83q12 -21 25.5 -45t25.5 -54q11 27 22.5 51.5t23.5 45.5l48 85h178l-167 -261l180 -292h-188l-47 81q-16 26 -30 53t-25 54q-8 -27 -23 -53.5t-31 -52.5l-49 -82h-181l178 272l-176 281h187z" />
    <glyph glyph-name="uni0446" unicode="&#x446;" horiz-adv-x="670" 
d="M566 553v-424h89v-283h-163v154h-436v553h177v-424h154v424h179z" />
    <glyph glyph-name="uni0447" unicode="&#x447;" horiz-adv-x="602" 
d="M40 553h178v-169q0 -35 9 -51t42 -16q23 0 49.5 8.5t49.5 22.5v205h178v-553h-178v217q-34 -20 -75.5 -31.5t-79.5 -11.5q-48 0 -81 13t-53.5 36t-29.5 54.5t-9 68.5v207z" />
    <glyph glyph-name="uni0448" unicode="&#x448;" horiz-adv-x="877" 
d="M56 553h167v-426h132v426h167v-426h132v426h167v-553h-765v553z" />
    <glyph glyph-name="uni0449" unicode="&#x449;" horiz-adv-x="917" 
d="M56 553h167v-424h128v424h167v-424h128v424h167v-424h89v-283h-163v154h-683v553z" />
    <glyph glyph-name="uni044A" unicode="&#x44a;" horiz-adv-x="612" 
d="M4 553h310v-179h76q45 0 81 -6.5t61 -22t38.5 -42.5t13.5 -69v-85q0 -45 -13.5 -74t-38.5 -45.5t-61 -23t-81 -6.5h-242v434h-144v119zM374 115q29 0 40.5 11t11.5 32v53q0 29 -11 38.5t-40 9.5h-61v-144h60z" />
    <glyph glyph-name="uni044B" unicode="&#x44b;" horiz-adv-x="731" 
d="M467 146q0 -45 -13.5 -73.5t-38.5 -44.5t-61 -22t-81 -6h-217v553h166v-178h51q45 0 81 -6.5t61 -23t38.5 -44t13.5 -69.5v-86zM257 115q29 0 40.5 11t11.5 32v54q0 29 -11 38.5t-40 9.5h-36v-145h35zM675 0h-166v553h166v-553z" />
    <glyph glyph-name="uni044C" unicode="&#x44c;" horiz-adv-x="520" 
d="M492 149q0 -45 -13.5 -74t-38.5 -45.5t-61 -23t-81 -6.5h-242v553h166v-179h76q45 0 81 -6.5t61 -22t38.5 -42.5t13.5 -69v-85zM282 115q29 0 40.5 11t11.5 32v53q0 29 -11 38.5t-40 9.5h-61v-144h60z" />
    <glyph glyph-name="uni044D" unicode="&#x44d;" horiz-adv-x="531" 
d="M87 338h233q-5 54 -37.5 77t-100.5 23q-42 0 -78.5 -5.5t-60.5 -12.5v123q15 6 35 10.5t42.5 7.5t45.5 4.5t44 1.5q69 0 121.5 -14.5t88.5 -45.5t54.5 -80t18.5 -118v-72q0 -132 -70.5 -190.5t-213.5 -58.5q-18 0 -41 1.5t-47.5 5t-47.5 8.5t-40 12v129q40 -14 77 -19
t70 -5q68 0 101 20t38 74h-232v124z" />
    <glyph glyph-name="uni044E" unicode="&#x44e;" horiz-adv-x="830" 
d="M532 -13q-120 0 -186.5 56t-73.5 170h-49v-213h-167v553h167v-216h49q6 112 72.5 171t187.5 59q126 0 193 -64.5t67 -185.5v-80q0 -126 -67 -188t-193 -62zM532 432q-45 0 -68.5 -26.5t-23.5 -95.5v-66q0 -35 7.5 -58t20 -37.5t29 -20.5t35.5 -6t35.5 6t29 20.5t20 37.5
t7.5 58v66q0 69 -23.5 95.5t-68.5 26.5z" />
    <glyph glyph-name="uni044F" unicode="&#x44f;" horiz-adv-x="585" 
d="M43 407q0 45 13.5 73.5t38.5 44.5t61 22t81 6h292v-553h-166v206h-89l-91 -206h-168l105 223q-38 14 -57.5 44.5t-19.5 81.5v58zM263 438q-29 0 -40.5 -11t-11.5 -32v-23q0 -29 11 -40t40 -11h101v117h-100z" />
    <glyph glyph-name="uni0450" unicode="&#x450;" horiz-adv-x="593" 
d="M559 219h-349v-11q0 -58 35.5 -77t103.5 -19q34 0 79.5 6t84.5 20v-118q-16 -8 -38.5 -13.5t-48 -9.5t-51.5 -6t-49 -2q-144 0 -216 60t-72 192v70q0 69 21 117.5t56.5 79.5t83 45t100.5 14q58 0 106 -13t82 -44.5t53 -83.5t19 -129v-78zM393 323v21q0 46 -21.5 72
t-69.5 26q-45 0 -68.5 -26t-23.5 -74v-19h183zM398 601h-154l-117 147h180z" />
    <glyph glyph-name="uni0451" unicode="&#x451;" horiz-adv-x="579" 
d="M559 219h-349v-11q0 -58 35.5 -77t103.5 -19q34 0 79.5 6t84.5 20v-118q-16 -8 -38.5 -13.5t-48 -9.5t-51.5 -6t-49 -2q-144 0 -216 60t-72 192v70q0 69 21 117.5t56.5 79.5t83 45t100.5 14q58 0 106 -13t82 -44.5t53 -83.5t19 -129v-78zM393 323v21q0 46 -21.5 72
t-69.5 26q-45 0 -68.5 -26t-23.5 -74v-19h183zM145 738h116v-126h-116v126zM341 738h116v-126h-116v126z" />
    <glyph glyph-name="uni0452" unicode="&#x452;" horiz-adv-x="660" 
d="M275 774v-140h147v-122h-147v-122q37 20 77.5 30.5t75.5 10.5q51 0 85.5 -13t55.5 -36t30 -54.5t9 -68.5v-296q0 -56 -10 -92t-31 -57t-54 -29t-79 -8q-35 0 -60 3t-52 11v136q20 -4 32 -5.5t26 -1.5q15 0 25 3t15.5 11t7.5 22.5t2 37.5v229q0 35 -10.5 51t-42.5 16
q-23 0 -51.5 -8t-50.5 -24v-258h-178v512h-87v122h87v110z" />
    <glyph glyph-name="uni0453" unicode="&#x453;" horiz-adv-x="488" 
d="M56 553h414v-131h-237v-422h-177v553zM250 748h180l-117 -147h-154z" />
    <glyph glyph-name="uni0454" unicode="&#x454;" horiz-adv-x="531" 
d="M444 214h-232q5 -54 38 -74t101 -20q33 0 70 5t77 19v-129q-17 -7 -40 -12t-47.5 -8.5t-47.5 -5t-41 -1.5q-143 0 -213.5 58.5t-70.5 190.5v72q0 69 18.5 118t54.5 80t88.5 45.5t121.5 14.5q21 0 44 -1.5t45.5 -4.5t42.5 -7.5t35 -10.5v-123q-24 7 -60.5 12.5t-78.5 5.5
q-68 0 -100.5 -23t-37.5 -77h233v-124z" />
    </font>
</defs>
</svg>
