<?xml version="1.0" standalone="no"?>
<!DOCTYPE svg PUBLIC "-//W3C//DTD SVG 1.1//EN" "http://www.w3.org/Graphics/SVG/1.1/DTD/svg11.dtd" >
<svg xmlns="http://www.w3.org/2000/svg" xmlns:xlink="http://www.w3.org/1999/xlink" version="1.1">
<metadata>
Created by FontForge 20170731 at Thu Jul 27 12:32:40 2017
 By Aleksey,,,
Copyright c 2017 Hankook Tire Co.,Ltd. all rights reserved. Font designed by Sandoll Communications Inc.
</metadata>
<defs>
<font id="HankookTTFRegular" horiz-adv-x="599" >
  <font-face 
    font-family="Hankook TTF Regular"
    font-weight="400"
    font-stretch="normal"
    units-per-em="1000"
    panose-1="2 11 6 0 0 1 1 1 1 1"
    ascent="800"
    descent="-200"
    x-height="548"
    cap-height="750"
    bbox="-109 -284 1541 1146"
    underline-thickness="50"
    underline-position="-150"
    unicode-range="U+000D-206F"
  />
<missing-glyph horiz-adv-x="280" 
 />
    <glyph glyph-name=".notdef" horiz-adv-x="280" 
 />
    <glyph glyph-name=".null" horiz-adv-x="0" 
 />
    <glyph glyph-name="nonmarkingreturn" unicode="&#xd;" horiz-adv-x="280" 
 />
    <glyph glyph-name="NULL" horiz-adv-x="0" 
 />
    <glyph glyph-name="NULL" horiz-adv-x="0" 
 />
    <glyph glyph-name="space" unicode=" " horiz-adv-x="270" 
 />
    <glyph glyph-name="exclam" unicode="!" horiz-adv-x="277" 
d="M168 201h-59l-13 549h85zM88 101h101v-101h-101v101z" />
    <glyph glyph-name="quotedbl" unicode="&#x22;" horiz-adv-x="390" 
d="M144 503h-64l-10 247h84zM310 503h-64l-10 247h84z" />
    <glyph glyph-name="numbersign" unicode="#" horiz-adv-x="711" 
d="M82 549h157l43 201h61l-43 -201h178l43 201h61l-43 -201h146v-63h-159l-43 -204h146v-63h-160l-46 -219h-61l46 219h-178l-46 -219h-61l46 219h-143v63h157l43 204h-144v63zM244 282h178l43 204h-178z" />
    <glyph glyph-name="dollar" unicode="$" horiz-adv-x="645" 
d="M519 654q-39 11 -81 15t-81 5v-270l22 -5q59 -16 96 -32t57.5 -36.5t28 -48t7.5 -66.5q0 -42 -11.5 -77t-36.5 -61t-65 -42t-98 -20v-87h-58v85q-23 0 -53 2.5t-60.5 7.5t-60.5 12t-53 17v65q69 -24 124 -32t103 -9v274l-50 13q-43 11 -75.5 25.5t-54 36t-32.5 51
t-11 71.5q0 96 58 139.5t165 47.5v75h58v-75q47 -2 89 -7.5t73 -15.5v-58zM146 548q0 -28 7 -47t22 -33t39 -23.5t59 -18.5l26 -7v253q-40 -2 -69 -9.5t-47.5 -22t-27.5 -37t-9 -55.5zM498 211q0 29 -6 48t-22 32.5t-43 23.5t-70 21v-257q72 7 106.5 38t34.5 94z" />
    <glyph glyph-name="percent" unicode="%" horiz-adv-x="847" 
d="M632 736h75l-489 -736h-75zM379 514q0 -72 -44 -110.5t-119 -38.5q-76 0 -119 38.5t-43 110.5v72q0 72 43.5 111.5t118.5 39.5t119 -39.5t44 -111.5v-72zM314 580q0 97 -97 97q-98 0 -98 -97v-60q0 -95 98 -95q97 0 97 95v60zM793 137q0 -72 -44 -110.5t-119 -38.5
q-76 0 -119 38.5t-43 110.5v72q0 72 43.5 111.5t118.5 39.5t119 -39.5t44 -111.5v-72zM728 203q0 97 -97 97q-98 0 -98 -97v-60q0 -95 98 -95q97 0 97 95v60z" />
    <glyph glyph-name="ampersand" unicode="&#x26;" horiz-adv-x="698" 
d="M161 543q0 -54 32 -87.5t98 -33.5h369v-65h-87v-330q-48 -20 -108.5 -28.5t-130.5 -8.5q-134 0 -198 58t-64 161q0 63 28 109t87 68q-29 12 -49 29.5t-32 38.5t-17.5 44.5t-5.5 46.5q0 201 244 201q58 0 105 -7t80 -18v-63q-44 11 -83.5 15.5t-84.5 4.5q-53 0 -88 -7.5
t-56 -24t-30 -42t-9 -61.5zM289 357q-62 0 -100.5 -36.5t-38.5 -111.5q0 -80 46 -115.5t151 -35.5q95 0 152 19v280h-210z" />
    <glyph glyph-name="quotesingle" unicode="'" horiz-adv-x="224" 
d="M144 503h-64l-10 247h84z" />
    <glyph glyph-name="parenleft" unicode="(" horiz-adv-x="328" 
d="M75 402q0 57 10 117.5t30 117.5t48.5 107.5t66.5 86.5h76q-44 -44 -73.5 -96.5t-47.5 -108.5t-26 -112.5t-8 -107.5v-138q0 -51 8 -109t26 -115t47.5 -111t73.5 -97h-76q-38 36 -66.5 87.5t-48.5 110t-30 120t-10 119.5v129z" />
    <glyph glyph-name="parenright" unicode=")" horiz-adv-x="328" 
d="M253 273q0 -58 -10 -119.5t-30 -120t-49 -110t-66 -87.5h-76q43 43 73 97t48 111t26 115t8 109v138q0 51 -8 107.5t-26 112.5t-48 108.5t-73 96.5h76q37 -36 66 -86.5t49 -107.5t30 -117.5t10 -117.5v-129z" />
    <glyph glyph-name="asterisk" unicode="*" horiz-adv-x="465" 
d="M76 423l-31 58l144 70l-144 69l31 58l129 -84l-6 155h67l-7 -155l130 84l31 -58l-144 -69l144 -70l-31 -58l-130 84l7 -154h-67l7 154z" />
    <glyph glyph-name="plus" unicode="+" horiz-adv-x="600" 
d="M337 598v-214h209v-70h-209v-228h-74v228h-209v70h209v214h74z" />
    <glyph glyph-name="comma" unicode="," horiz-adv-x="270" 
d="M88 101h97l-61 -238h-72z" />
    <glyph glyph-name="hyphen" unicode="-" horiz-adv-x="310" 
d="M34 327h242v-73h-242v73z" />
    <glyph glyph-name="period" unicode="." horiz-adv-x="263" 
d="M81 101h101v-101h-101v101z" />
    <glyph glyph-name="slash" unicode="/" horiz-adv-x="500" 
d="M399 831h76l-374 -995h-76z" />
    <glyph glyph-name="zero" unicode="0" horiz-adv-x="630" 
d="M582 315q0 -162 -65 -243.5t-203 -81.5q-136 0 -200.5 82.5t-64.5 242.5v116q0 160 64.5 242t200.5 82q138 0 203 -81.5t65 -242.5v-116zM505 430q0 71 -11.5 119.5t-35.5 78.5t-60 43.5t-84 13.5q-47 0 -82 -13.5t-58.5 -43.5t-35.5 -79t-12 -119v-114q0 -71 12 -120
t35.5 -79.5t58.5 -44t82 -13.5q48 0 84 13.5t60 43.5t35.5 79t11.5 121v114z" />
    <glyph glyph-name="one" unicode="1" horiz-adv-x="630" 
d="M130 67h186v586l-191 -101v76l213 117h55v-678h171v-67h-434v67z" />
    <glyph glyph-name="two" unicode="2" horiz-adv-x="630" 
d="M80 69l271 275q36 37 61.5 64t41 50t22.5 44.5t7 48.5v13q0 28 -8.5 50t-29.5 37.5t-55 24t-85 8.5q-54 0 -107.5 -12.5t-95.5 -30.5v71q18 8 42.5 16t51.5 14t55.5 9.5t54.5 3.5q67 0 115.5 -14t79.5 -38.5t45.5 -59t14.5 -75.5v-19q0 -37 -11.5 -67.5t-33 -60
t-52 -60.5t-67.5 -68l-222 -224h413v-69h-508v69z" />
    <glyph glyph-name="three" unicode="3" horiz-adv-x="630" 
d="M212 416h101q153 0 153 133q0 33 -8 58.5t-27 42.5t-51 25.5t-81 8.5q-51 0 -102.5 -10.5t-95.5 -26.5v70q37 14 90.5 26t110.5 12q68 0 114.5 -13.5t74.5 -39.5t40 -64t12 -87q0 -26 -5.5 -51.5t-19.5 -48t-38.5 -40.5t-61.5 -28q77 -14 112 -57t35 -118
q0 -107 -61.5 -162.5t-200.5 -55.5q-66 0 -126 11.5t-97 25.5v72q21 -8 48 -15t56 -12t58 -8t56 -3q53 0 89 9.5t58 28.5t31.5 46.5t9.5 62.5q0 42 -12.5 69.5t-35 43t-55 21.5t-72.5 6h-99v68z" />
    <glyph glyph-name="four" unicode="4" horiz-adv-x="630" 
d="M48 238l352 507h97v-507h115v-66h-115v-172h-76v172h-373v66zM421 659l-293 -421h293v421z" />
    <glyph glyph-name="five" unicode="5" horiz-adv-x="630" 
d="M129 745h405v-70h-332l-7 -238q32 5 60 8.5t65 3.5q70 0 118.5 -14.5t78.5 -40t43.5 -61t13.5 -78.5v-54q0 -96 -69 -153.5t-198 -57.5q-72 0 -130 11.5t-95 26.5v70q44 -16 99.5 -27t121.5 -11q100 0 147 39.5t47 105.5v39q0 35 -10.5 61t-33.5 43t-61 25.5t-92 8.5
q-41 0 -92 -6.5t-92 -15.5z" />
    <glyph glyph-name="six" unicode="6" horiz-adv-x="630" 
d="M52 432q0 94 24 156t65 99t97 52.5t119 15.5q57 0 98.5 -8.5t75.5 -20.5v-69q-42 15 -86.5 21.5t-84.5 6.5q-50 0 -92.5 -11t-73 -40.5t-48 -79.5t-17.5 -128v-33q36 29 91 51t123 22q53 0 97.5 -12.5t76.5 -38t50 -63.5t18 -90v-44q0 -47 -15 -88t-47 -72.5t-82.5 -49.5
t-120.5 -18q-72 0 -122.5 22t-83 64t-47.5 102.5t-15 138.5v115zM331 396q-51 0 -105.5 -19.5t-96.5 -54.5q0 -72 13 -122t37.5 -81t60 -45t80.5 -14q52 0 87.5 12t58 34t32.5 51.5t10 64.5v37q0 75 -47.5 106t-129.5 31z" />
    <glyph glyph-name="seven" unicode="7" horiz-adv-x="630" 
d="M253 0h-84l336 674h-438v71h520v-61z" />
    <glyph glyph-name="eight" unicode="8" horiz-adv-x="630" 
d="M55 196q0 63 37.5 107t122.5 70q-143 43 -143 180q0 97 63 149.5t186 52.5q126 0 188 -52t62 -152q0 -66 -38 -106.5t-102 -66.5q89 -27 124 -72t35 -105q0 -46 -15 -85t-46.5 -67t-81.5 -43.5t-119 -15.5q-75 0 -127 15.5t-84.5 42.5t-47 65t-14.5 83zM299 347l-30 -10
q-66 -23 -100 -54.5t-34 -91.5q0 -69 52 -101t136 -32q88 0 137 33.5t49 102.5q0 25 -7.5 47t-26 40t-50.5 32.5t-81 24.5zM151 553q0 -58 32 -89.5t99 -45.5l67 -14l47 21q23 11 41 22t30.5 25t19 33t6.5 46q0 70 -41 103t-131 33q-88 0 -129 -34t-41 -100z" />
    <glyph glyph-name="nine" unicode="9" horiz-adv-x="630" 
d="M578 313q0 -94 -24 -156t-65 -99t-97 -52.5t-119 -15.5q-57 0 -98.5 8.5t-75.5 20.5v69q42 -15 86.5 -21.5t84.5 -6.5q50 0 92.5 11t73 40.5t48 79.5t17.5 128v32q-36 -29 -91.5 -50.5t-122.5 -21.5q-53 0 -97.5 12.5t-76.5 38t-50 63.5t-18 90v44q0 46 15 87.5t47 73
t82 49.5t121 18q72 0 122.5 -22t83 -64t47.5 -102.5t15 -138.5v-115zM299 349q51 0 105 19.5t97 54.5q0 72 -13 122t-37.5 81t-60 45t-80.5 14q-52 0 -87.5 -12t-58 -34t-32.5 -51.5t-10 -64.5v-37q0 -75 47.5 -106t129.5 -31z" />
    <glyph glyph-name="colon" unicode=":" horiz-adv-x="263" 
d="M81 479h101v-101h-101v101zM81 101h101v-101h-101v101z" />
    <glyph glyph-name="semicolon" unicode=";" horiz-adv-x="263" 
d="M85 101h97l-61 -238h-72zM82 479h101v-101h-101v101z" />
    <glyph glyph-name="less" unicode="&#x3c;" horiz-adv-x="633" 
d="M176 363l381 -189v-77l-471 240v59l471 240v-76l-381 -191v-6z" />
    <glyph glyph-name="equal" unicode="=" horiz-adv-x="620" 
d="M64 501h492v-71h-492v71zM64 270h492v-72h-492v72z" />
    <glyph glyph-name="greater" unicode="&#x3e;" horiz-adv-x="633" 
d="M457 369l-381 191v76l471 -240v-59l-471 -240v77l381 189v6z" />
    <glyph glyph-name="question" unicode="?" horiz-adv-x="509" 
d="M190 255q0 31 5 53t18.5 40.5t36 37t57.5 41.5q22 15 38 28.5t26.5 29t15.5 34t5 44.5q0 30 -6.5 53.5t-24 39.5t-49 24t-80.5 8q-50 0 -97 -11.5t-89 -28.5v68q35 16 84 28.5t106 12.5q65 0 109 -13t71 -38t39 -61t12 -82q0 -42 -10 -71t-25.5 -50.5t-36 -37
t-41.5 -30.5q-29 -20 -46 -33.5t-27 -26.5t-13 -27t-3 -34v-57h-75v59zM178 101h101v-101h-101v101z" />
    <glyph glyph-name="at" unicode="@" horiz-adv-x="1052" 
d="M868 -133q-66 -21 -146 -32.5t-169 -11.5q-230 0 -351.5 97.5t-121.5 290.5v136q0 95 31.5 168t89.5 122.5t138 74.5t178 25q223 0 339 -98t116 -288v-74q0 -42 -8.5 -83.5t-29.5 -74.5t-56.5 -53.5t-88.5 -20.5q-39 0 -70.5 16.5t-47.5 51.5q-26 -24 -73.5 -46
t-110.5 -22q-87 0 -127 45t-40 125v112q0 53 13 89t35.5 58.5t53.5 32t67 9.5q51 0 94 -13.5t69 -31.5v27l69 17v-325q0 -41 16 -61t52 -20q25 0 46 8t37 27t25 51t9 81v78q0 165 -98 243t-291 78q-78 0 -145.5 -19.5t-118 -59t-79 -100t-28.5 -141.5v-138
q0 -84 27.5 -146.5t79.5 -103t127 -60.5t170 -20q45 0 85 2t78.5 7t76.5 13t78 21v-63zM652 406q-11 7 -26 15.5t-34 15.5t-41.5 12t-47.5 5q-60 0 -85 -31.5t-25 -106.5v-83q0 -64 21 -95t75 -31q47 0 88 15t75 43v241z" />
    <glyph glyph-name="A" unicode="A" horiz-adv-x="669" 
d="M663 0h-85l-84 221h-327l-81 -221h-80l283 750h76zM469 290l-97 259q-12 32 -22 58t-22 63q-10 -33 -20.5 -64t-21.5 -62l-94 -254h277z" />
    <glyph glyph-name="B" unicode="B" horiz-adv-x="646" 
d="M80 750h242q55 0 100 -6.5t77 -24.5t49 -51t17 -85v-46q0 -24 -5 -46.5t-17.5 -41.5t-34.5 -33.5t-56 -22.5q74 -10 107 -48t33 -93v-74q0 -54 -15 -88.5t-47 -54.5t-82.5 -27.5t-121.5 -7.5h-246v750zM158 358v-291h170q54 0 90 5t57.5 18.5t30.5 37t9 60.5v55
q0 29 -8 50.5t-28 36t-54 21.5t-85 7h-182zM158 683v-262h177q34 0 62 5t48 17t31.5 33.5t11.5 54.5v51q0 31 -8 50.5t-27.5 30.5t-51.5 15.5t-81 4.5h-162z" />
    <glyph glyph-name="C" unicode="C" horiz-adv-x="618" 
d="M559 669q-34 11 -84.5 16.5t-101.5 5.5q-69 0 -115 -15.5t-74.5 -46.5t-40.5 -78t-12 -110v-140q0 -61 11 -106t39 -75t74.5 -45t118.5 -15q45 0 95.5 5.5t100.5 21.5v-66q-40 -17 -96 -24t-105 -7q-90 0 -150.5 19t-97 58.5t-52 99.5t-15.5 143v123q0 92 21 154.5
t61.5 101t99 55t133.5 16.5q54 0 104 -5.5t86 -19.5v-66z" />
    <glyph glyph-name="D" unicode="D" horiz-adv-x="703" 
d="M80 0v750h247q86 0 147 -15.5t100 -53t57 -99.5t18 -155v-117q0 -86 -14 -145t-50 -96t-97.5 -53t-155.5 -16h-252zM158 680v-610h169q78 0 126 14.5t74 44t35 73t9 101.5v138q0 62 -11 107t-38 74.5t-73.5 43.5t-116.5 14h-174z" />
    <glyph glyph-name="E" unicode="E" 
d="M543 750v-70h-385v-256h352v-69h-352v-285h399v-70h-477v750h463z" />
    <glyph glyph-name="F" unicode="F" horiz-adv-x="571" 
d="M533 750v-70h-375v-278h344v-70h-344v-332h-78v750h453z" />
    <glyph glyph-name="G" unicode="G" horiz-adv-x="684" 
d="M566 669q-41 11 -83.5 16.5t-99.5 5.5q-78 0 -127 -19.5t-76 -53.5t-37 -79t-10 -97v-130q0 -60 10.5 -107t39.5 -79t79.5 -49t130.5 -17q39 0 76 3.5t73 11.5v261h-168v66h245v-377q-24 -9 -53.5 -16t-60.5 -11t-61 -6t-57 -2q-93 0 -156.5 20t-103 60t-56.5 100
t-17 140v120q0 173 79.5 251.5t246.5 78.5q57 0 102.5 -5.5t83.5 -19.5v-66z" />
    <glyph glyph-name="H" unicode="H" horiz-adv-x="716" 
d="M636 0h-78v357h-400v-357h-78v750h78v-323h400v323h78v-750z" />
    <glyph glyph-name="I" unicode="I" horiz-adv-x="238" 
d="M158 0h-78v750h78v-750z" />
    <glyph glyph-name="J" unicode="J" horiz-adv-x="388" 
d="M314 750v-571q0 -48 -8.5 -83.5t-29.5 -59t-56 -35t-88 -11.5q-14 0 -30.5 1t-33 3.5t-31 5t-24.5 5.5v73q29 -8 58.5 -11t57.5 -3q62 0 84.5 29t22.5 94v563h78z" />
    <glyph glyph-name="K" unicode="K" horiz-adv-x="647" 
d="M336 379l296 -379h-96l-266 344h-112v-344h-78v750h78v-337h117l238 337h90z" />
    <glyph glyph-name="L" unicode="L" horiz-adv-x="571" 
d="M158 750v-678h385v-72h-463v750h78z" />
    <glyph glyph-name="M" unicode="M" horiz-adv-x="851" 
d="M771 0h-75v500q0 36 1 81t4 85q-14 -49 -25 -89.5t-24 -76.5l-180 -500h-84l-188 501l-12 34t-12 35t-12.5 39.5t-13.5 47.5q2 -24 3 -43.5t2 -37.5t1 -36.5v-40.5v-499h-76v750h98l198 -527q15 -39 28 -77.5t26 -83.5q12 45 23.5 83t25.5 78l187 527h105v-750z" />
    <glyph glyph-name="N" unicode="N" horiz-adv-x="718" 
d="M638 0h-86l-327 516q-20 31 -36 62t-33 68v-646h-76v750h86l328 -516q12 -19 21 -34.5t17 -30.5t15 -30t15 -33v644h76v-750z" />
    <glyph glyph-name="O" unicode="O" horiz-adv-x="740" 
d="M688 321q0 -163 -82 -248t-236 -85t-236 85t-82 248v108q0 162 82 247.5t236 85.5t236 -85.5t82 -247.5v-108zM609 422q0 139 -62.5 204t-176.5 65t-176.5 -65t-62.5 -204v-94q0 -140 62.5 -204.5t176.5 -64.5t176.5 64.5t62.5 204.5v94z" />
    <glyph glyph-name="P" unicode="P" horiz-adv-x="633" 
d="M80 750h271q55 0 101 -7t78 -28t50 -60.5t18 -103.5v-51q0 -60 -16 -98t-49 -59.5t-83 -29.5t-117 -8h-175v-305h-78v750zM158 681v-308h170q54 0 91 5t59.5 18.5t32.5 37t10 61.5v67q0 34 -9 57t-29 37t-51.5 19.5t-76.5 5.5h-197z" />
    <glyph glyph-name="Q" unicode="Q" horiz-adv-x="740" 
d="M688 320q0 -95 -28.5 -163t-82.5 -110l107 -150h-86l-83 115q-64 -25 -145 -25q-154 0 -236 85t-82 248v110q0 162 82 247.5t236 85.5t236 -85.5t82 -247.5v-110zM450 225l82 -116q77 66 77 218v96q0 139 -62.5 204t-176.5 65t-176.5 -65t-62.5 -204v-96
q0 -140 62.5 -204.5t176.5 -64.5q59 0 101 16l-107 151h86z" />
    <glyph glyph-name="R" unicode="R" horiz-adv-x="655" 
d="M80 750h273q55 0 100.5 -7t77.5 -28t49.5 -59.5t17.5 -102.5v-45q0 -44 -8.5 -75.5t-26 -53.5t-44 -35t-62.5 -20l171 -324h-83l-164 315h-223v-315h-78v750zM158 681v-299h170q54 0 91 5t59.5 18.5t32.5 37t10 60.5v58q0 34 -9 57.5t-28.5 37t-51.5 19.5t-77 6h-197z
" />
    <glyph glyph-name="S" unicode="S" horiz-adv-x="592" 
d="M550 207q0 -46 -11.5 -85.5t-41 -69t-79.5 -46t-127 -16.5q-57 0 -118 9t-121 32v73q77 -28 134.5 -36.5t103.5 -8.5q98 0 140 34.5t42 106.5q0 30 -6 50.5t-21 35.5t-41.5 26t-68.5 22l-108 28q-90 23 -130.5 68t-40.5 129q0 103 59 152t188 49q57 0 108 -7t88 -20v-64
q-43 12 -86 17.5t-91 5.5q-52 0 -88.5 -6.5t-59 -22t-32.5 -41t-10 -63.5q0 -28 6 -48t20 -35t37 -25.5t56 -19.5l106 -28q60 -16 97.5 -33.5t59 -40.5t29 -52.5t7.5 -69.5z" />
    <glyph glyph-name="T" unicode="T" horiz-adv-x="607" 
d="M18 750h571v-71h-247v-679h-78v679h-246v71z" />
    <glyph glyph-name="U" unicode="U" horiz-adv-x="725" 
d="M150 750v-468q0 -61 12.5 -103.5t38 -69t65.5 -38.5t95 -12q57 0 97.5 12t66.5 38.5t38 69t12 103.5v468h78v-473q0 -149 -70 -219.5t-222 -70.5q-151 0 -220 70.5t-69 219.5v473h78z" />
    <glyph glyph-name="V" unicode="V" horiz-adv-x="665" 
d="M90 750l190 -506q14 -39 27.5 -74.5t27.5 -82.5q14 47 26 82.5t27 74.5l190 506h81l-286 -750h-76l-291 750h84z" />
    <glyph glyph-name="W" unicode="W" horiz-adv-x="943" 
d="M514 464q-11 39 -22 85.5t-20 100.5q-11 -55 -22 -101t-22 -85l-127 -464h-83l-208 750h83l129 -493q9 -35 19 -76.5t19 -92.5q11 49 21 91.5t20 77.5l133 493h74l138 -493q9 -32 18.5 -73t17.5 -92q9 45 19 87.5t20 77.5l133 493h79l-215 -750h-75z" />
    <glyph glyph-name="X" unicode="X" horiz-adv-x="652" 
d="M399 219q-18 29 -35.5 57t-38.5 68q-23 -41 -40 -70t-34 -55l-134 -219h-89l247 385l-237 365h92l122 -200q16 -26 33 -55.5t41 -71.5q24 38 40.5 65.5t36.5 60.5l123 201h87l-236 -365l247 -385h-92z" />
    <glyph glyph-name="Y" unicode="Y" horiz-adv-x="592" 
d="M339 313v-313h-77v311l-256 439h85l142 -253q18 -32 35.5 -64t32.5 -66q16 35 32.5 67t33.5 63l136 253h83z" />
    <glyph glyph-name="Z" unicode="Z" horiz-adv-x="608" 
d="M183 158q-15 -21 -31.5 -43.5t-36.5 -48.5h460v-66h-549v59l380 533q16 22 33.5 45.5t34.5 46.5h-433v66h522v-59z" />
    <glyph glyph-name="bracketleft" unicode="[" horiz-adv-x="386" 
d="M94 831h270v-65h-194v-865h194v-65h-270v995z" />
    <glyph glyph-name="backslash" unicode="\" horiz-adv-x="500" 
d="M475 -164h-76l-374 995h76z" />
    <glyph glyph-name="bracketright" unicode="]" horiz-adv-x="386" 
d="M292 -164h-270v65h194v865h-194v65h270v-995z" />
    <glyph glyph-name="asciicircum" unicode="^" horiz-adv-x="553" 
d="M255 747h44l188 -302h-79l-129 210h-5l-129 -210h-79z" />
    <glyph glyph-name="underscore" unicode="_" horiz-adv-x="435" 
d="M0 -35h435v-63h-435v63z" />
    <glyph glyph-name="grave" unicode="`" 
d="M384 613h-81l-133 132h101z" />
    <glyph glyph-name="a" unicode="a" horiz-adv-x="535" 
d="M402 0l-6 56q-16 -10 -38.5 -21.5t-49 -21.5t-56 -16.5t-59.5 -6.5q-78 0 -115.5 38t-37.5 122v17q0 89 58 124.5t182 35.5h112v40q0 31 -4 55.5t-17 41.5t-38.5 26t-67.5 9q-37 0 -80 -8t-83 -23v63q44 16 87 23.5t85 7.5q64 0 102 -16t58 -43.5t25.5 -63.5t5.5 -76
v-363h-63zM392 269h-111q-48 0 -80 -5.5t-51 -18t-27 -34t-8 -53.5v-8q0 -54 20.5 -76t65.5 -22q22 0 48 4.5t51.5 13t49.5 19t42 22.5v158z" />
    <glyph glyph-name="b" unicode="b" horiz-adv-x="602" 
d="M358 562q50 0 85.5 -15t58.5 -41t33.5 -61.5t10.5 -75.5v-154q0 -63 -16 -106t-44.5 -69.5t-68 -38.5t-85.5 -12q-58 0 -104 18.5t-81 41.5l-6 -49h-63v750l74 24v-276q16 9 38 20.5t49 21t57 16t62 6.5zM152 113q24 -18 49 -29t48 -17.5t42.5 -8.5t33.5 -2
q76 0 111 39.5t35 128.5v122q0 82 -32 115t-97 33q-51 0 -101.5 -19.5t-88.5 -42.5v-319z" />
    <glyph glyph-name="c" unicode="c" horiz-adv-x="489" 
d="M439 481q-35 11 -69.5 14t-69.5 3q-50 0 -83.5 -13t-53.5 -36.5t-29 -56t-9 -72.5v-86q0 -41 8 -74.5t28 -57t54 -36.5t87 -13q32 0 70 5t77 19v-62q-34 -15 -76 -20t-78 -5q-123 0 -184 56.5t-61 188.5v75q0 69 17.5 117t49.5 78t77 43.5t100 13.5q38 0 75 -4.5
t70 -16.5v-60z" />
    <glyph glyph-name="d" unicode="d" horiz-adv-x="602" 
d="M244 -10q-95 0 -141.5 48.5t-46.5 133.5v170q0 60 17 102t46.5 68t70 38t87.5 12q54 0 98.5 -12t73.5 -27v227l75 24v-774h-65l-6 54q-34 -24 -89 -44t-120 -20zM449 457q-28 14 -70 26t-96 12q-32 0 -59.5 -7t-48 -25t-32.5 -48.5t-12 -77.5v-145q0 -75 31.5 -105
t94.5 -30q50 0 101 16t91 43v341z" />
    <glyph glyph-name="e" unicode="e" horiz-adv-x="553" 
d="M123 255v-24q0 -51 10 -85t33.5 -54.5t62.5 -29.5t97 -9q14 0 32.5 2t37 5t35.5 7.5t29 9.5v-61q-35 -14 -77 -20t-77 -6q-68 0 -116.5 15.5t-79.5 46.5t-45.5 78.5t-14.5 110.5v60q0 69 17.5 118.5t48.5 81t73.5 46.5t91.5 15q53 0 95 -13t71.5 -44t45 -83t15.5 -129
v-38h-385zM436 318q0 42 -7.5 76t-25.5 57.5t-47.5 36t-73.5 12.5q-80 0 -119.5 -48.5t-39.5 -133.5v-5h313v5z" />
    <glyph glyph-name="f" unicode="f" horiz-adv-x="368" 
d="M344 548v-64h-153v-484h-75v484h-96v64h96v98q0 69 37.5 98.5t100.5 29.5q30 0 57 -4t42 -9v-57q-17 3 -35.5 5t-37.5 2q-24 0 -40.5 -3t-27.5 -12t-16 -25.5t-5 -42.5v-80h153z" />
    <glyph glyph-name="g" unicode="g" horiz-adv-x="602" 
d="M246 -3q-96 0 -143 49t-47 133v163q0 60 17 102t46.5 68t70 38t87.5 12q57 0 102 -15.5t74 -37.5l6 41h65v-585q0 -44 -12 -79t-39 -59t-70.5 -37t-106.5 -13q-44 0 -78 5t-60 13v66q38 -11 70 -14t62 -3q42 0 72.5 5.5t49.5 20t28 38.5t9 61v76q-35 -18 -87 -33
t-116 -15zM449 445q-32 22 -73 36t-93 14q-32 0 -59.5 -7t-48 -25t-32.5 -48.5t-12 -77.5v-138q0 -75 32 -105t95 -30q25 0 51 3t51.5 9t48 15t40.5 20v334z" />
    <glyph glyph-name="h" unicode="h" horiz-adv-x="589" 
d="M440 0v381q0 60 -21 86.5t-77 26.5q-45 0 -93.5 -16.5t-95.5 -45.5v-432h-75v750l75 24v-277q20 12 44 23.5t49.5 21t52 15t52.5 5.5q86 0 125 -41t39 -119v-402h-75z" />
    <glyph glyph-name="i" unicode="i" horiz-adv-x="235" 
d="M80 0v548h75v-548h-75zM157 669h-79v82h79v-82z" />
    <glyph glyph-name="j" unicode="j" horiz-adv-x="254" 
d="M176 -81q0 -68 -27.5 -104t-100.5 -36q-20 0 -47 2.5t-47 8.5v62q19 -3 39 -5.5t44 -2.5q38 0 51 17t13 59v628h75v-629zM178 669h-79v82h79v-82z" />
    <glyph glyph-name="k" unicode="k" horiz-adv-x="526" 
d="M153 334h85l181 214h86l-214 -248l220 -300h-89l-192 269h-77v-269h-75v750l75 24v-440z" />
    <glyph glyph-name="l" unicode="l" horiz-adv-x="231" 
d="M78 750l75 24v-774h-75v750z" />
    <glyph glyph-name="m" unicode="m" horiz-adv-x="888" 
d="M409 0v386q0 52 -18 80t-68 28q-33 0 -79.5 -13.5t-91.5 -46.5v-434h-74v548h65l8 -51q40 29 88 47t95 18q97 0 132 -74q53 38 103.5 56t95.5 18q70 0 109.5 -39.5t39.5 -120.5v-402h-74v386q0 52 -18 80t-68 28q-32 0 -78.5 -13.5t-92.5 -46.5v-434h-74z" />
    <glyph glyph-name="n" unicode="n" horiz-adv-x="589" 
d="M440 0v381q0 60 -21.5 86.5t-76.5 26.5q-44 0 -93.5 -16t-95.5 -47v-431h-75v548h66l8 -52q40 26 93.5 46t104.5 20q89 0 127 -42.5t38 -119.5v-400h-75z" />
    <glyph glyph-name="o" unicode="o" horiz-adv-x="583" 
d="M533 242q0 -121 -62 -186.5t-180 -65.5q-117 0 -179 65.5t-62 186.5v68q0 121 62 186.5t179 65.5q118 0 180 -65.5t62 -186.5v-68zM458 311q0 96 -43 142t-124 46q-80 0 -123 -46t-43 -142v-70q0 -94 42.5 -141t123.5 -47q82 0 124.5 47t42.5 141v70z" />
    <glyph glyph-name="p" unicode="p" horiz-adv-x="602" 
d="M358 562q50 0 85.5 -15t58.5 -41t33.5 -61t10.5 -75v-155q0 -63 -18.5 -106t-51 -69.5t-77 -38t-97.5 -11.5q-18 0 -38.5 2t-40.5 5t-38.5 8t-32.5 11v-232h-74v764h65l9 -50q16 9 38.5 20.5t48.5 21t56 16t63 6.5zM152 79q30 -11 69 -17t72 -6q92 0 135 37.5t43 131.5
v122q0 82 -32 114.5t-98 32.5q-24 0 -49.5 -5.5t-50.5 -14t-47.5 -19.5t-41.5 -23v-353z" />
    <glyph glyph-name="q" unicode="q" horiz-adv-x="602" 
d="M246 -10q-96 0 -143 49t-47 133v170q0 60 17 102t46.5 68t70 38t87.5 12q57 0 102 -16.5t74 -38.5l6 41h65v-764h-75v254q-35 -18 -87 -33t-116 -15zM449 443q-32 22 -73 37t-93 15q-32 0 -59.5 -7t-48 -25t-32.5 -48.5t-12 -77.5v-145q0 -75 32 -105t95 -30q25 0 51 3
t51.5 9t48 15t40.5 20v339z" />
    <glyph glyph-name="r" unicode="r" horiz-adv-x="364" 
d="M350 487q-54 -5 -106 -25.5t-91 -59.5v-402h-75v548h66l8 -76q13 13 32.5 28t44.5 28t55.5 22.5t65.5 11.5v-75z" />
    <glyph glyph-name="s" unicode="s" horiz-adv-x="467" 
d="M431 151q0 -35 -9.5 -64.5t-32 -51t-60.5 -33.5t-95 -12q-42 0 -94 7.5t-94 24.5v66q54 -20 99.5 -27t84.5 -7q37 0 62 6.5t39.5 18.5t20.5 29t6 38t-2.5 35t-13 25t-33 20t-61.5 19l-46 12q-45 12 -74.5 25t-47 30.5t-24.5 41t-7 55.5q0 77 48 115t148 38q43 0 82.5 -5
t67.5 -15v-61q-32 9 -67 14t-73 5q-76 0 -105 -20.5t-29 -65.5q0 -20 3.5 -34t15 -25t32 -19.5t54.5 -16.5l46 -11q49 -12 80.5 -25.5t48.5 -32t23.5 -42.5t6.5 -57z" />
    <glyph glyph-name="t" unicode="t" horiz-adv-x="386" 
d="M194 484v-337q0 -27 3.5 -44t11.5 -27.5t22 -14.5t34 -4t43.5 4.5t41.5 14.5v-64q-10 -6 -23.5 -10t-27.5 -6.5t-28 -4t-24 -1.5q-67 0 -97.5 34.5t-30.5 100.5v359h-99v64h99v124l75 24v-148h155v-64h-155z" />
    <glyph glyph-name="u" unicode="u" horiz-adv-x="586" 
d="M149 548v-382q0 -54 20.5 -81t74.5 -27q43 0 93.5 17t95.5 47v426h75v-548h-66l-8 56q-41 -26 -94.5 -46t-104.5 -20q-87 0 -124 40t-37 118v400h75z" />
    <glyph glyph-name="v" unicode="v" horiz-adv-x="515" 
d="M216 0l-202 548h80l123 -351q11 -31 21.5 -66t21.5 -73q11 38 21.5 74t20.5 65l122 351h77l-201 -548h-84z" />
    <glyph glyph-name="w" unicode="w" horiz-adv-x="800" 
d="M101 548l110 -345q8 -27 15.5 -51.5t16.5 -59.5h1q8 36 13 60t13 51l100 345h68l104 -345q8 -26 14.5 -52t13.5 -59h1q8 33 15 59t15 52l103 345h72l-171 -548h-72l-104 345q-5 16 -8.5 29t-6 26t-5 27t-4.5 31h-1q-5 -34 -10 -57.5t-14 -55.5l-102 -345h-71l-183 548h77
z" />
    <glyph glyph-name="x" unicode="x" horiz-adv-x="538" 
d="M274 322q18 31 35.5 59.5t35.5 56.5l71 110h88l-186 -269l196 -279h-86l-84 123q-23 34 -40 59.5t-32 48.5h-1q-17 -27 -35.5 -53.5t-37.5 -53.5l-86 -124h-88l201 279l-191 269h87l75 -110l77 -116h1z" />
    <glyph glyph-name="y" unicode="y" horiz-adv-x="533" 
d="M225 -213h-75l82 213l-218 548h81l131 -345q13 -33 23 -64t22 -74q13 45 23.5 77.5t21.5 63.5l128 342h75z" />
    <glyph glyph-name="z" unicode="z" horiz-adv-x="488" 
d="M190 151q-32 -44 -70 -89h339v-62h-425v55l264 353q16 21 31 40t30 37h-314v63h400v-56z" />
    <glyph glyph-name="braceleft" unicode="{" horiz-adv-x="436" 
d="M40 382q59 1 86 22t27 67v206q0 154 162 154h101v-65h-92q-45 0 -70.5 -18.5t-25.5 -72.5v-197q0 -19 -3 -39.5t-12.5 -38.5t-26.5 -32.5t-45 -20.5q27 -6 44 -20t26.5 -32t13 -38.5t3.5 -40.5v-231q0 -27 7 -43.5t19.5 -25.5t30 -12t39.5 -3h92v-65h-101
q-82 0 -122 34.5t-40 112.5v240q0 46 -27 67.5t-86 22.5v69z" />
    <glyph glyph-name="bar" unicode="|" horiz-adv-x="286" 
d="M180 -164h-74v995h74v-995z" />
    <glyph glyph-name="braceright" unicode="}" horiz-adv-x="436" 
d="M396 313q-59 -1 -86 -22.5t-27 -67.5v-240q0 -78 -40 -112.5t-122 -34.5h-101v65h92q22 0 39.5 3t30 12t19.5 25.5t7 43.5v231q0 20 3.5 40.5t13 38.5t26.5 32t44 20q-28 6 -45 20.5t-26.5 32.5t-12.5 38.5t-3 39.5v197q0 54 -25.5 72.5t-70.5 18.5h-92v65h101
q162 0 162 -154v-206q0 -46 27 -67t86 -22v-69z" />
    <glyph glyph-name="asciitilde" unicode="~" horiz-adv-x="597" 
d="M394 262q-37 0 -60.5 14t-43 31.5t-38 31.5t-45.5 14q-23 0 -37 -9.5t-22 -23.5t-12 -30.5t-6 -30.5h-74q4 33 14 62t27.5 51t43.5 35t63 13q36 0 60.5 -14t44 -31t38.5 -31t45 -14q20 0 33.5 8t22 20.5t13.5 29.5t7 35h73q-4 -31 -13 -60t-26 -51.5t-43.5 -36
t-64.5 -13.5z" />
    <glyph glyph-name="uni00A0" unicode="&#xa0;" horiz-adv-x="0" 
 />
    <glyph glyph-name="exclamdown" unicode="&#xa1;" horiz-adv-x="277" 
d="M109 384h59l13 -549h-85zM189 484h-101v101h101v-101z" />
    <glyph glyph-name="cent" unicode="&#xa2;" horiz-adv-x="521" 
d="M349 665q35 -2 67 -7t55 -14v-60q-21 7 -52.5 11.5t-69.5 6.5v-444q30 1 65 7t67 18v-62q-28 -13 -63.5 -19t-68.5 -8v-94h-59v94q-111 7 -170.5 65t-59.5 183v70q0 65 16.5 111.5t47 76.5t73 46t93.5 19v85h59v-85zM134 340q0 -83 35 -128t121 -53v442
q-84 -8 -120 -54.5t-36 -125.5v-81z" />
    <glyph glyph-name="sterling" unicode="&#xa3;" horiz-adv-x="578" 
d="M490 676q-24 8 -51 12t-62 4q-77 0 -118 -45t-41 -146v-96h235v-62h-235v-122q0 -24 -3 -44t-9.5 -37.5t-18 -34t-28.5 -33.5h387v-72h-489v58q28 21 44.5 43.5t25.5 48.5t11.5 57t2.5 69v67h-81v62h81v93q0 61 12.5 110.5t40.5 83.5t72.5 52.5t109.5 18.5q27 0 56.5 -4
t57.5 -12v-71z" />
    <glyph glyph-name="currency" unicode="&#xa4;" horiz-adv-x="726" 
d="M536 513q23 -29 36.5 -66.5t13.5 -81.5q0 -45 -13.5 -82.5t-36.5 -66.5l100 -100l-43 -43l-102 102q-56 -37 -128 -37q-74 0 -128 37l-102 -102l-43 43l101 101q-23 29 -36 66.5t-13 81.5t12.5 81t35.5 66l-100 101l43 43l102 -103q27 18 59 28t69 10q72 0 128 -37
l102 102l43 -43zM363 198q36 0 65.5 12.5t51 34.5t33 53t11.5 67q0 37 -12 67.5t-33 52.5t-50.5 34t-65.5 12q-35 0 -64.5 -12t-50.5 -34t-32.5 -52.5t-11.5 -67.5q0 -36 11.5 -67t32.5 -53t50.5 -34.5t64.5 -12.5z" />
    <glyph glyph-name="yen" unicode="&#xa5;" horiz-adv-x="597" 
d="M54 256h210v51l-10 34h-200v65h163l-202 344h86l146 -262q15 -27 27 -53.5t29 -57.5q12 31 25 58t28 54l141 261h84l-196 -344h156v-65h-191l-9 -33v-52h200v-65h-200v-191h-77v191h-210v65z" />
    <glyph glyph-name="brokenbar" unicode="&#xa6;" horiz-adv-x="292" 
d="M183 216v-380h-74v380h74zM109 451v380h74v-380h-74z" />
    <glyph glyph-name="section" unicode="&#xa7;" horiz-adv-x="576" 
d="M69 306q0 51 25.5 91.5t86.5 62.5q-35 23 -48 52.5t-13 71.5q0 77 49 116t146 39q43 0 81.5 -5.5t66.5 -15.5v-61q-32 9 -68 14t-71 5q-74 0 -102.5 -22t-28.5 -66q0 -20 4 -35.5t15 -27.5t31 -21.5t53 -18.5l46 -12q49 -13 81 -28t50.5 -34.5t25.5 -45t7 -58.5
q0 -51 -26 -92t-87 -63q35 -23 48.5 -52.5t13.5 -70.5q0 -76 -49 -115t-146 -39q-43 0 -81.5 5.5t-66.5 15.5v61q32 -9 68 -14t71 -5q74 0 102.5 21.5t28.5 65.5q0 20 -4 35.5t-15 27.5t-31 21.5t-53 18.5l-46 12q-49 13 -81 28t-50.5 34.5t-25.5 45t-7 58.5zM260 426
q-35 -6 -57.5 -18t-35.5 -27t-18.5 -33.5t-5.5 -37.5q0 -20 3 -35.5t14.5 -28t34.5 -23.5t63 -21l56 -15q34 6 57 17.5t36.5 27t19 33.5t5.5 38t-3 35.5t-14.5 28t-34.5 23t-63 21.5z" />
    <glyph glyph-name="dieresis" unicode="&#xa8;" horiz-adv-x="600" 
d="M170 713h82v-91h-82v91zM347 713h82v-91h-82v91z" />
    <glyph glyph-name="copyright" unicode="&#xa9;" horiz-adv-x="828" 
d="M419 11q69 0 127 24t100 67.5t65.5 102.5t23.5 130t-23.5 130.5t-65.5 102t-100 66.5t-127 24q-68 0 -125.5 -24t-99.5 -66.5t-65.5 -102t-23.5 -130.5t23.5 -130t65.5 -102.5t99.5 -67.5t125.5 -24zM419 -33q-81 0 -148 29t-115 79t-75 117t-27 143t27 143t75 116.5
t115 78.5t148 29q82 0 149.5 -29t116 -78.5t75 -116.5t26.5 -143t-27 -143t-75.5 -117t-116 -79t-148.5 -29zM552 471q-18 7 -44 11.5t-59 4.5q-66 0 -94 -31t-28 -93v-59q0 -66 26 -94.5t97 -28.5q25 0 53 4t57 15v-58q-26 -12 -57 -16t-57 -4q-94 0 -140 42.5t-46 141.5
v51q0 102 49.5 145t135.5 43q31 0 59 -4.5t48 -12.5v-57z" />
    <glyph glyph-name="ordfeminine" unicode="&#xaa;" horiz-adv-x="485" 
d="M350 289l-6 48q-12 -9 -30 -19t-39.5 -18.5t-46.5 -14t-52 -5.5q-67 0 -101 33t-34 103v18q0 42 15 68.5t42.5 42t66 21.5t85.5 6h91v34q0 27 -4 47t-15 33t-31.5 19t-53.5 6q-30 0 -66.5 -6.5t-71.5 -19.5v63q37 14 74.5 20t73.5 6q54 0 86.5 -13.5t50 -36t23.5 -53.5
t6 -65v-317h-63zM341 514h-90q-71 0 -103.5 -16.5t-32.5 -67.5v-13q0 -43 19 -59t55 -16q18 0 38.5 4t41 10.5t39 15.5t33.5 19v123z" />
    <glyph glyph-name="guillemotleft" unicode="&#xab;" horiz-adv-x="593" 
d="M61 250v50l181 199h84l-191 -220v-5l191 -226h-84zM283 250v50l176 199h83l-185 -220v-5l185 -226h-83z" />
    <glyph glyph-name="logicalnot" unicode="&#xac;" horiz-adv-x="602" 
d="M59 384h466v-266h-61v211h-405v55z" />
    <glyph glyph-name="uni00AD" unicode="&#xad;" horiz-adv-x="833" 
 />
    <glyph glyph-name="registered" unicode="&#xae;" horiz-adv-x="630" 
d="M314 220q47 0 86 16.5t67.5 46t44.5 69.5t16 88t-16 88t-44.5 69.5t-68 45.5t-85.5 16t-85 -16t-67 -45.5t-44 -69.5t-16 -88t16 -88t44 -69.5t67 -46t85 -16.5zM314 181q-57 0 -104 20t-81 55.5t-53 82.5t-19 101t19 101t53 82.5t81 55.5t104 20q58 0 105.5 -20
t81.5 -55.5t53 -82.5t19 -101t-19 -101t-53 -82.5t-82 -55.5t-105 -20zM218 584h107q44 0 72.5 -16t28.5 -60v-17q0 -32 -13.5 -52t-37.5 -27l63 -112h-60l-54 106h-53v-106h-53v284zM271 541v-92h35q38 0 51.5 8t13.5 33v15q0 20 -12.5 28t-43.5 8h-44z" />
    <glyph glyph-name="macron" unicode="&#xaf;" horiz-adv-x="600" 
d="M156 715h288v-60h-288v60z" />
    <glyph glyph-name="degree" unicode="&#xb0;" horiz-adv-x="413" 
d="M206 482q42 0 67.5 25t25.5 69q0 43 -25.5 68.5t-67.5 25.5q-41 0 -67 -25.5t-26 -68.5q0 -44 26 -69t67 -25zM206 428q-33 0 -61 12t-48 32t-31.5 47t-11.5 57t11.5 57t31.5 47t48 31.5t61 11.5t61 -11.5t48 -31.5t31.5 -47t11.5 -57t-11.5 -57t-31.5 -47t-48 -32
t-61 -12z" />
    <glyph glyph-name="plusminus" unicode="&#xb1;" 
d="M337 598v-199h208v-71h-208v-194h-75v194h-209v71h209v199h75zM53 91h492v-70h-492v70z" />
    <glyph glyph-name="twosuperior" unicode="&#xb2;" horiz-adv-x="398" 
d="M35 345l193 188q18 18 28.5 31t16 24.5t7 23t1.5 26.5v11q0 30 -20 47t-80 17q-35 0 -69.5 -8t-61.5 -19v62q25 10 61.5 18t70.5 8q170 0 170 -120v-13q0 -18 -2 -34.5t-10.5 -34.5t-25.5 -39.5t-46 -49.5l-142 -135h243v-59h-334v56z" />
    <glyph glyph-name="threesuperior" unicode="&#xb3;" horiz-adv-x="407" 
d="M129 563h64q49 0 70 17.5t21 59.5q0 39 -23.5 56.5t-74.5 17.5q-33 0 -66.5 -7t-62.5 -17v59q24 10 60 17.5t71 7.5q92 0 129 -34.5t37 -97.5q0 -16 -3.5 -32.5t-12.5 -31t-25 -26.5t-40 -18q51 -10 73 -39t22 -74q0 -72 -41.5 -106.5t-138.5 -34.5q-43 0 -82 7.5
t-63 16.5v61q28 -11 66.5 -18t74.5 -7q63 0 88 19.5t25 64.5q0 25 -7 41t-20.5 24.5t-33 11.5t-44.5 3h-63v59z" />
    <glyph glyph-name="acute" unicode="&#xb4;" horiz-adv-x="600" 
d="M308 740h98l-111 -134h-78z" />
    <glyph glyph-name="mu" unicode="&#xb5;" horiz-adv-x="585" 
d="M71 549h76v-380q0 -54 31.5 -84t84.5 -30q49 0 90.5 18.5t78.5 45.5v430h75v-549h-66q-2 14 -4 27.5t-4 27.5q-14 -10 -32 -21.5t-40 -21t-48 -16t-55 -6.5q-17 0 -34.5 4t-32.5 11t-26.5 17.5t-17.5 23.5v-262h-76v765z" />
    <glyph glyph-name="paragraph" unicode="&#xb6;" horiz-adv-x="569" 
d="M484 750v-872h-69v807h-83v-807h-69v463q-103 2 -159 49t-56 133v41q0 88 57.5 137t162.5 49h216z" />
    <glyph glyph-name="periodcentered" unicode="&#xb7;" horiz-adv-x="263" 
d="M81 392h101v-101h-101v101z" />
    <glyph glyph-name="cedilla" unicode="&#xb8;" horiz-adv-x="600" 
d="M298 -263q-40 0 -81 7v56q15 -2 33.5 -3.5t37.5 -1.5q27 0 43.5 4t25 11t11.5 15.5t3 17.5v8q0 11 -3.5 20t-14 15t-29.5 9t-49 3h-16v128h68v-83q69 -5 94.5 -27.5t25.5 -64.5v-7q0 -31 -11.5 -51.5t-32 -33t-47.5 -17.5t-58 -5z" />
    <glyph glyph-name="onesuperior" unicode="&#xb9;" horiz-adv-x="364" 
d="M44 346h120v339l-124 -56v64l139 72h57v-419h106v-57h-298v57z" />
    <glyph glyph-name="ordmasculine" unicode="&#xba;" horiz-adv-x="490" 
d="M455 497q0 -105 -55.5 -161t-155.5 -56q-98 0 -153.5 56t-55.5 161v60q0 105 55.5 161t153.5 56q100 0 155.5 -56t55.5 -161v-60zM381 558q0 80 -36.5 116.5t-100.5 36.5q-63 0 -99 -36.5t-36 -116.5v-62q0 -79 36 -116t99 -37q66 0 101.5 37t35.5 116v62z" />
    <glyph glyph-name="guillemotright" unicode="&#xbb;" horiz-adv-x="593" 
d="M351 48h-84l191 226v5l-191 220h84l181 -199v-50zM134 48h-83l185 226v5l-185 220h83l176 -199v-50z" />
    <glyph glyph-name="onequarter" unicode="&#xbc;" horiz-adv-x="973" 
d="M533 21v58l239 320h80v-319h68v-59h-68v-98h-69v98h-250zM783 80v238l-179 -238h179zM756 773h77l-558 -853h-77zM62 332h120v339l-124 -56v64l139 72h57v-419h106v-57h-298v57z" />
    <glyph glyph-name="onehalf" unicode="&#xbd;" horiz-adv-x="999" 
d="M756 773h77l-558 -853h-77zM62 332h120v339l-124 -56v64l139 72h57v-419h106v-57h-298v57zM625 -21l193 188q18 18 28.5 31t16 24.5t7 23t1.5 26.5v11q0 30 -20 47t-80 17q-35 0 -69.5 -8t-61.5 -19v62q25 10 61.5 18t70.5 8q170 0 170 -120v-13q0 -18 -2 -34.5
t-10.5 -34.5t-25.5 -39.5t-46 -49.5l-142 -135h243v-59h-334v56z" />
    <glyph glyph-name="threequarters" unicode="&#xbe;" horiz-adv-x="973" 
d="M765 773h77l-559 -853h-77zM136 547h64q49 0 70 17.5t21 59.5q0 39 -23.5 56.5t-74.5 17.5q-33 0 -66.5 -7t-62.5 -17v59q24 10 60 17.5t71 7.5q92 0 129 -34.5t37 -97.5q0 -16 -3.5 -32.5t-12.5 -31t-25 -26.5t-40 -18q51 -10 73 -39t22 -74q0 -72 -41.5 -106.5
t-138.5 -34.5q-43 0 -82 7.5t-63 16.5v61q28 -11 66.5 -18t74.5 -7q63 0 88 19.5t25 64.5q0 25 -7 41t-20.5 24.5t-33 11.5t-44.5 3h-63v59zM533 21v58l239 320h80v-319h68v-59h-68v-98h-69v98h-250zM783 80v238l-179 -238h179z" />
    <glyph glyph-name="questiondown" unicode="&#xbf;" horiz-adv-x="509" 
d="M323 330q0 -31 -5 -53t-18.5 -40.5t-36 -37t-57.5 -41.5q-22 -15 -38 -28.5t-26.5 -29t-15.5 -34.5t-5 -44q0 -30 6.5 -53.5t24 -39.5t48.5 -24t81 -8t97 11.5t89 28.5v-68q-35 -16 -84 -28.5t-106 -12.5q-65 0 -109 13t-71 38t-39 61t-12 82q0 42 10 71t25.5 50.5t36 37
t41.5 30.5q28 20 45.5 33.5t27.5 26.5t13 27t3 34v57h75v-59zM335 484h-101v101h101v-101z" />
    <glyph glyph-name="Agrave" unicode="&#xc0;" horiz-adv-x="669" 
d="M663 0h-85l-84 221h-327l-81 -221h-80l283 750h76zM469 290l-97 259q-12 32 -22 58t-22 63q-10 -33 -20.5 -64t-21.5 -62l-94 -254h277zM366 806h-77l-108 134h97z" />
    <glyph glyph-name="Aacute" unicode="&#xc1;" horiz-adv-x="669" 
d="M663 0h-85l-84 221h-327l-81 -221h-80l283 750h76zM469 290l-97 259q-12 32 -22 58t-22 63q-10 -33 -20.5 -64t-21.5 -62l-94 -254h277zM380 940h97l-111 -134h-77z" />
    <glyph glyph-name="Acircumflex" unicode="&#xc2;" horiz-adv-x="669" 
d="M663 0h-85l-84 221h-327l-81 -221h-80l283 750h76zM469 290l-97 259q-12 32 -22 58t-22 63q-10 -33 -20.5 -64t-21.5 -62l-94 -254h277zM295 954h69l100 -148h-64l-71 95l-72 -95h-62z" />
    <glyph glyph-name="Atilde" unicode="&#xc3;" horiz-adv-x="669" 
d="M663 0h-85l-84 221h-327l-81 -221h-80l283 750h76zM469 290l-97 259q-12 32 -22 58t-22 63q-10 -33 -20.5 -64t-21.5 -62l-94 -254h277zM392 813q-24 0 -40.5 10t-29 22.5t-24.5 22.5t-27 10q-17 0 -28.5 -17t-13.5 -47h-58q2 24 8.5 46t18 39.5t28.5 27.5t41 10t41 -10
t30 -22.5t24.5 -22.5t26.5 -10q22 0 30.5 17t10.5 48h58q-2 -22 -6.5 -44t-15.5 -40t-29 -29t-45 -11z" />
    <glyph glyph-name="Adieresis" unicode="&#xc4;" horiz-adv-x="669" 
d="M663 0h-85l-84 221h-327l-81 -221h-80l283 750h76zM469 290l-97 259q-12 32 -22 58t-22 63q-10 -33 -20.5 -64t-21.5 -62l-94 -254h277zM201 912h81v-89h-81v89zM377 912h81v-89h-81v89z" />
    <glyph glyph-name="Aring" unicode="&#xc5;" horiz-adv-x="669" 
d="M663 0h-85l-84 221h-327l-81 -221h-80l283 750h76zM469 290l-97 259q-12 32 -22 58t-22 63q-10 -33 -20.5 -64t-21.5 -62l-94 -254h277zM329 839q24 0 39 14.5t15 40.5q0 24 -15 39.5t-39 15.5t-39 -15.5t-15 -39.5q0 -26 15 -40.5t39 -14.5zM329 795q-22 0 -41 8
t-32.5 21.5t-21 31.5t-7.5 38q0 41 28.5 70t73.5 29q22 0 41 -8t33 -21.5t21.5 -31.5t7.5 -38t-7.5 -38t-21.5 -31.5t-33 -21.5t-41 -8z" />
    <glyph glyph-name="AE" unicode="&#xc6;" horiz-adv-x="1031" 
d="M975 750v-70h-385v-256h352v-69h-352v-285h399v-70h-477v221h-273l-145 -221h-88l482 750h487zM285 292h227v366q-9 -17 -18.5 -33t-21.5 -35z" />
    <glyph glyph-name="Ccedilla" unicode="&#xc7;" horiz-adv-x="618" 
d="M329 -263q-40 0 -81 7v56q15 -2 33.5 -3.5t37.5 -1.5q27 0 43.5 4t25 11t11.5 15.5t3 17.5v8q0 11 -3.5 20t-14 15t-29.5 9t-49 3h-16v96q-67 8 -112 31t-72.5 62t-39.5 94.5t-12 128.5v123q0 92 21 154.5t61.5 101t99 55t133.5 16.5q54 0 104 -5.5t86 -19.5v-66
q-34 11 -84.5 16.5t-101.5 5.5q-69 0 -115 -15.5t-74.5 -46.5t-40.5 -78t-12 -110v-140q0 -61 11 -106t39 -75t74.5 -45t118.5 -15q45 0 95.5 5.5t100.5 21.5v-66q-40 -17 -96 -24t-105 -7h-11v-47q69 -5 94.5 -27.5t25.5 -64.5v-7q0 -31 -11.5 -51.5t-32 -33t-47.5 -17.5
t-58 -5z" />
    <glyph glyph-name="Egrave" unicode="&#xc8;" 
d="M543 750v-70h-385v-256h352v-69h-352v-285h399v-70h-477v750h463zM381 806h-77l-108 134h97z" />
    <glyph glyph-name="Eacute" unicode="&#xc9;" 
d="M543 750v-70h-385v-256h352v-69h-352v-285h399v-70h-477v750h463zM352 940h97l-111 -134h-77z" />
    <glyph glyph-name="Ecircumflex" unicode="&#xca;" 
d="M543 750v-70h-385v-256h352v-69h-352v-285h399v-70h-477v750h463zM283 954h69l100 -148h-64l-71 95l-72 -95h-62z" />
    <glyph glyph-name="Edieresis" unicode="&#xcb;" 
d="M543 750v-70h-385v-256h352v-69h-352v-285h399v-70h-477v750h463zM191 912h81v-89h-81v89zM367 912h81v-89h-81v89z" />
    <glyph glyph-name="Igrave" unicode="&#xcc;" horiz-adv-x="238" 
d="M158 0h-78v750h78v-750zM157 806h-77l-108 134h97z" />
    <glyph glyph-name="Iacute" unicode="&#xcd;" horiz-adv-x="238" 
d="M158 0h-78v750h78v-750zM170 940h97l-111 -134h-77z" />
    <glyph glyph-name="Icircumflex" unicode="&#xce;" horiz-adv-x="238" 
d="M158 0h-78v750h78v-750zM85 954h69l100 -148h-64l-71 95l-72 -95h-62z" />
    <glyph glyph-name="Idieresis" unicode="&#xcf;" horiz-adv-x="238" 
d="M158 0h-78v750h78v-750zM-9 912h81v-89h-81v89zM167 912h81v-89h-81v89z" />
    <glyph glyph-name="Eth" unicode="&#xd0;" horiz-adv-x="713" 
d="M6 420h84v330h247q86 0 147 -15.5t100 -53t57 -99.5t18 -155v-117q0 -86 -14 -145t-50 -96t-97.5 -53t-155.5 -16h-252v350h-84v70zM168 680v-260h231v-70h-231v-280h169q78 0 126 14.5t74 44t35 73t9 101.5v138q0 62 -11 107t-38 74.5t-73.5 43.5t-116.5 14h-174z" />
    <glyph glyph-name="Ntilde" unicode="&#xd1;" horiz-adv-x="718" 
d="M638 0h-86l-327 516q-20 31 -36 62t-33 68v-646h-76v750h86l328 -516q12 -19 21 -34.5t17 -30.5t15 -30t15 -33v644h76v-750zM421 813q-24 0 -40.5 10t-29 22.5t-24.5 22.5t-27 10q-17 0 -28.5 -17t-13.5 -47h-58q2 24 8.5 46t18 39.5t28.5 27.5t41 10t41 -10t30 -22.5
t24.5 -22.5t26.5 -10q22 0 30.5 17t10.5 48h58q-2 -22 -6.5 -44t-15.5 -40t-29 -29t-45 -11z" />
    <glyph glyph-name="Ograve" unicode="&#xd2;" horiz-adv-x="740" 
d="M688 321q0 -163 -82 -248t-236 -85t-236 85t-82 248v108q0 162 82 247.5t236 85.5t236 -85.5t82 -247.5v-108zM609 422q0 139 -62.5 204t-176.5 65t-176.5 -65t-62.5 -204v-94q0 -140 62.5 -204.5t176.5 -64.5t176.5 64.5t62.5 204.5v94zM419 806h-77l-108 134h97z" />
    <glyph glyph-name="Oacute" unicode="&#xd3;" horiz-adv-x="740" 
d="M688 321q0 -163 -82 -248t-236 -85t-236 85t-82 248v108q0 162 82 247.5t236 85.5t236 -85.5t82 -247.5v-108zM609 422q0 139 -62.5 204t-176.5 65t-176.5 -65t-62.5 -204v-94q0 -140 62.5 -204.5t176.5 -64.5t176.5 64.5t62.5 204.5v94zM413 940h97l-111 -134h-77z" />
    <glyph glyph-name="Ocircumflex" unicode="&#xd4;" horiz-adv-x="740" 
d="M688 321q0 -163 -82 -248t-236 -85t-236 85t-82 248v108q0 162 82 247.5t236 85.5t236 -85.5t82 -247.5v-108zM609 422q0 139 -62.5 204t-176.5 65t-176.5 -65t-62.5 -204v-94q0 -140 62.5 -204.5t176.5 -64.5t176.5 64.5t62.5 204.5v94zM335 954h69l100 -148h-64l-71 95
l-72 -95h-62z" />
    <glyph glyph-name="Otilde" unicode="&#xd5;" horiz-adv-x="740" 
d="M688 321q0 -163 -82 -248t-236 -85t-236 85t-82 248v108q0 162 82 247.5t236 85.5t236 -85.5t82 -247.5v-108zM609 422q0 139 -62.5 204t-176.5 65t-176.5 -65t-62.5 -204v-94q0 -140 62.5 -204.5t176.5 -64.5t176.5 64.5t62.5 204.5v94zM432 813q-24 0 -40.5 10
t-29 22.5t-24.5 22.5t-27 10q-17 0 -28.5 -17t-13.5 -47h-58q2 24 8.5 46t18 39.5t28.5 27.5t41 10t41 -10t30 -22.5t24.5 -22.5t26.5 -10q22 0 30.5 17t10.5 48h58q-2 -22 -6.5 -44t-15.5 -40t-29 -29t-45 -11z" />
    <glyph glyph-name="Odieresis" unicode="&#xd6;" horiz-adv-x="740" 
d="M688 321q0 -163 -82 -248t-236 -85t-236 85t-82 248v108q0 162 82 247.5t236 85.5t236 -85.5t82 -247.5v-108zM609 422q0 139 -62.5 204t-176.5 65t-176.5 -65t-62.5 -204v-94q0 -140 62.5 -204.5t176.5 -64.5t176.5 64.5t62.5 204.5v94zM241 912h81v-89h-81v89zM417 912
h81v-89h-81v89z" />
    <glyph glyph-name="multiply" unicode="&#xd7;" horiz-adv-x="567" 
d="M503 519l-171 -173l171 -172l-49 -50l-171 173l-170 -173l-49 50l170 172l-170 173l49 50l170 -173l171 173z" />
    <glyph glyph-name="Oslash" unicode="&#xd8;" horiz-adv-x="740" 
d="M688 320q0 -163 -82 -248t-236 -85q-117 0 -194 50l-55 -80h-74l82 120q-77 85 -77 243v110q0 162 82 247.5t236 85.5q59 0 107.5 -13t86.5 -38l55 80h74l-83 -121q78 -86 78 -241v-110zM131 327q0 -116 45 -182l345 504q-58 43 -151 43q-114 0 -176.5 -65t-62.5 -204
v-96zM609 423q0 113 -45 181l-345 -504q29 -22 67 -32t84 -10q114 0 176.5 64.5t62.5 204.5v96z" />
    <glyph glyph-name="Ugrave" unicode="&#xd9;" horiz-adv-x="725" 
d="M150 750v-468q0 -61 12.5 -103.5t38 -69t65.5 -38.5t95 -12q57 0 97.5 12t66.5 38.5t38 69t12 103.5v468h78v-473q0 -149 -70 -219.5t-222 -70.5q-151 0 -220 70.5t-69 219.5v473h78zM428 806h-77l-108 134h97z" />
    <glyph glyph-name="Uacute" unicode="&#xda;" horiz-adv-x="725" 
d="M150 750v-468q0 -61 12.5 -103.5t38 -69t65.5 -38.5t95 -12q57 0 97.5 12t66.5 38.5t38 69t12 103.5v468h78v-473q0 -149 -70 -219.5t-222 -70.5q-151 0 -220 70.5t-69 219.5v473h78zM407 940h97l-111 -134h-77z" />
    <glyph glyph-name="Ucircumflex" unicode="&#xdb;" horiz-adv-x="725" 
d="M150 750v-468q0 -61 12.5 -103.5t38 -69t65.5 -38.5t95 -12q57 0 97.5 12t66.5 38.5t38 69t12 103.5v468h78v-473q0 -149 -70 -219.5t-222 -70.5q-151 0 -220 70.5t-69 219.5v473h78zM328 954h69l100 -148h-64l-71 95l-72 -95h-62z" />
    <glyph glyph-name="Udieresis" unicode="&#xdc;" horiz-adv-x="725" 
d="M150 750v-468q0 -61 12.5 -103.5t38 -69t65.5 -38.5t95 -12q57 0 97.5 12t66.5 38.5t38 69t12 103.5v468h78v-473q0 -149 -70 -219.5t-222 -70.5q-151 0 -220 70.5t-69 219.5v473h78zM234 912h81v-89h-81v89zM410 912h81v-89h-81v89z" />
    <glyph glyph-name="Yacute" unicode="&#xdd;" horiz-adv-x="592" 
d="M339 313v-313h-77v311l-256 439h85l142 -253q18 -32 35.5 -64t32.5 -66q16 35 32.5 67t33.5 63l136 253h83zM344 940h97l-111 -134h-77z" />
    <glyph glyph-name="Thorn" unicode="&#xde;" horiz-adv-x="633" 
d="M80 750h78v-149h193q55 0 101 -7t78 -28t50 -60.5t18 -103.5v-51q0 -60 -16 -98t-49 -59.5t-83 -29.5t-117 -8h-175v-156h-78v750zM158 532v-308h170q54 0 91 5t59.5 18.5t32.5 37t10 61.5v67q0 34 -9 57t-29 37t-51.5 19.5t-76.5 5.5h-197z" />
    <glyph glyph-name="germandbls" unicode="&#xdf;" horiz-adv-x="574" 
d="M234 65h83q38 0 64 10t42 29t23 44.5t7 57.5v26q0 28 -6.5 52.5t-23 43.5t-46 30t-75.5 11h-45v64h35q63 0 93.5 35t30.5 101v30q0 22 -6 42.5t-20.5 35.5t-38.5 24t-61 9q-26 0 -49 -6t-40.5 -19.5t-28 -36t-10.5 -56.5v-592h-75v597q0 37 11.5 69t36.5 56t63.5 38
t91.5 14q54 0 92.5 -14t62.5 -37.5t35.5 -54.5t11.5 -66v-28q0 -22 -4.5 -47t-15.5 -48.5t-30 -42.5t-49 -29q37 -7 63 -23t42.5 -38t24 -49.5t7.5 -57.5v-42q0 -40 -11 -76t-35.5 -63t-64.5 -42.5t-98 -15.5h-87v65z" />
    <glyph glyph-name="agrave" unicode="&#xe0;" horiz-adv-x="535" 
d="M402 0l-6 56q-16 -10 -38.5 -21.5t-49 -21.5t-56 -16.5t-59.5 -6.5q-78 0 -115.5 38t-37.5 122v17q0 89 58 124.5t182 35.5h112v40q0 31 -4 55.5t-17 41.5t-38.5 26t-67.5 9q-37 0 -80 -8t-83 -23v63q44 16 87 23.5t85 7.5q64 0 102 -16t58 -43.5t25.5 -63.5t5.5 -76
v-363h-63zM392 269h-111q-48 0 -80 -5.5t-51 -18t-27 -34t-8 -53.5v-8q0 -54 20.5 -76t65.5 -22q22 0 48 4.5t51.5 13t49.5 19t42 22.5v158zM338 606h-77l-108 134h97z" />
    <glyph glyph-name="aacute" unicode="&#xe1;" horiz-adv-x="535" 
d="M402 0l-6 56q-16 -10 -38.5 -21.5t-49 -21.5t-56 -16.5t-59.5 -6.5q-78 0 -115.5 38t-37.5 122v17q0 89 58 124.5t182 35.5h112v40q0 31 -4 55.5t-17 41.5t-38.5 26t-67.5 9q-37 0 -80 -8t-83 -23v63q44 16 87 23.5t85 7.5q64 0 102 -16t58 -43.5t25.5 -63.5t5.5 -76
v-363h-63zM392 269h-111q-48 0 -80 -5.5t-51 -18t-27 -34t-8 -53.5v-8q0 -54 20.5 -76t65.5 -22q22 0 48 4.5t51.5 13t49.5 19t42 22.5v158zM315 740h97l-111 -134h-77z" />
    <glyph glyph-name="acircumflex" unicode="&#xe2;" horiz-adv-x="535" 
d="M402 0l-6 56q-16 -10 -38.5 -21.5t-49 -21.5t-56 -16.5t-59.5 -6.5q-78 0 -115.5 38t-37.5 122v17q0 89 58 124.5t182 35.5h112v40q0 31 -4 55.5t-17 41.5t-38.5 26t-67.5 9q-37 0 -80 -8t-83 -23v63q44 16 87 23.5t85 7.5q64 0 102 -16t58 -43.5t25.5 -63.5t5.5 -76
v-363h-63zM392 269h-111q-48 0 -80 -5.5t-51 -18t-27 -34t-8 -53.5v-8q0 -54 20.5 -76t65.5 -22q22 0 48 4.5t51.5 13t49.5 19t42 22.5v158zM236 754h69l100 -148h-64l-71 95l-72 -95h-62z" />
    <glyph glyph-name="atilde" unicode="&#xe3;" horiz-adv-x="535" 
d="M402 0l-6 56q-16 -10 -38.5 -21.5t-49 -21.5t-56 -16.5t-59.5 -6.5q-78 0 -115.5 38t-37.5 122v17q0 89 58 124.5t182 35.5h112v40q0 31 -4 55.5t-17 41.5t-38.5 26t-67.5 9q-37 0 -80 -8t-83 -23v63q44 16 87 23.5t85 7.5q64 0 102 -16t58 -43.5t25.5 -63.5t5.5 -76
v-363h-63zM392 269h-111q-48 0 -80 -5.5t-51 -18t-27 -34t-8 -53.5v-8q0 -54 20.5 -76t65.5 -22q22 0 48 4.5t51.5 13t49.5 19t42 22.5v158zM330 613q-24 0 -40.5 10t-29 22.5t-24.5 22.5t-27 10q-17 0 -28.5 -17t-13.5 -47h-58q2 24 8.5 46t18 39.5t28.5 27.5t41 10t41 -10
t30 -22.5t24.5 -22.5t26.5 -10q22 0 30.5 17t10.5 48h58q-2 -22 -6.5 -44t-15.5 -40t-29 -29t-45 -11z" />
    <glyph glyph-name="adieresis" unicode="&#xe4;" horiz-adv-x="535" 
d="M402 0l-6 56q-16 -10 -38.5 -21.5t-49 -21.5t-56 -16.5t-59.5 -6.5q-78 0 -115.5 38t-37.5 122v17q0 89 58 124.5t182 35.5h112v40q0 31 -4 55.5t-17 41.5t-38.5 26t-67.5 9q-37 0 -80 -8t-83 -23v63q44 16 87 23.5t85 7.5q64 0 102 -16t58 -43.5t25.5 -63.5t5.5 -76
v-363h-63zM392 269h-111q-48 0 -80 -5.5t-51 -18t-27 -34t-8 -53.5v-8q0 -54 20.5 -76t65.5 -22q22 0 48 4.5t51.5 13t49.5 19t42 22.5v158zM141 712h81v-89h-81v89zM317 712h81v-89h-81v89z" />
    <glyph glyph-name="aring" unicode="&#xe5;" horiz-adv-x="535" 
d="M402 0l-6 56q-16 -10 -38.5 -21.5t-49 -21.5t-56 -16.5t-59.5 -6.5q-78 0 -115.5 38t-37.5 122v17q0 89 58 124.5t182 35.5h112v40q0 31 -4 55.5t-17 41.5t-38.5 26t-67.5 9q-37 0 -80 -8t-83 -23v63q44 16 87 23.5t85 7.5q64 0 102 -16t58 -43.5t25.5 -63.5t5.5 -76
v-363h-63zM392 269h-111q-48 0 -80 -5.5t-51 -18t-27 -34t-8 -53.5v-8q0 -54 20.5 -76t65.5 -22q22 0 48 4.5t51.5 13t49.5 19t42 22.5v158zM267 639q24 0 39 14.5t15 40.5q0 24 -15 39.5t-39 15.5t-39 -15.5t-15 -39.5q0 -26 15 -40.5t39 -14.5zM267 595q-22 0 -41 8
t-32.5 21.5t-21 31.5t-7.5 38q0 41 28.5 70t73.5 29q22 0 41 -8t33 -21.5t21.5 -31.5t7.5 -38t-7.5 -38t-21.5 -31.5t-33 -21.5t-41 -8z" />
    <glyph glyph-name="ae" unicode="&#xe6;" horiz-adv-x="888" 
d="M461 263v-42q1 -48 11.5 -80t33.5 -51.5t61.5 -28t94.5 -8.5q14 0 32 2t36 5t34.5 7.5t28.5 9.5v-61q-35 -14 -75.5 -20t-75.5 -6q-78 0 -130 19.5t-82 61.5q-45 -35 -105.5 -58t-131.5 -23q-78 0 -115.5 38t-37.5 122v17q0 86 58 120t182 34h108v46q0 31 -3.5 55.5
t-16 41.5t-37 26t-66.5 9q-37 0 -80 -8t-83 -23v63q44 16 87 23.5t85 7.5q74 0 112 -22t55 -56q27 38 76.5 58t101.5 20q53 0 95 -14.5t71.5 -45.5t45 -81t15.5 -120v-38h-385zM388 263h-107q-48 0 -80 -4.5t-51 -16.5t-27 -32.5t-8 -51.5v-8q0 -54 20.5 -76t65.5 -22
q60 0 105 17.5t82 41.5v152zM774 326q0 39 -7.5 71t-25.5 55t-47.5 35.5t-73.5 12.5q-79 0 -119 -46.5t-40 -127.5v-5h313v5z" />
    <glyph glyph-name="ccedilla" unicode="&#xe7;" horiz-adv-x="489" 
d="M260 -263q-40 0 -81 7v56q15 -2 33.5 -3.5t37.5 -1.5q27 0 43.5 4t25 11t11.5 15.5t3 17.5v8q0 11 -3.5 20t-14 15t-29.5 9t-49 3h-16v98q-87 14 -130 71t-43 168v75q0 69 17.5 117t49.5 78t77 43.5t100 13.5q38 0 75 -4.5t70 -16.5v-60q-35 11 -69.5 14t-69.5 3
q-50 0 -83.5 -13t-53.5 -36.5t-29 -56t-9 -72.5v-86q0 -41 8 -74.5t28 -57t54 -36.5t87 -13q32 0 70 5t77 19v-62q-34 -15 -76 -20t-78 -5h-4v-47q69 -5 94.5 -27.5t25.5 -64.5v-7q0 -31 -11.5 -51.5t-32 -33t-47.5 -17.5t-58 -5z" />
    <glyph glyph-name="egrave" unicode="&#xe8;" horiz-adv-x="553" 
d="M123 255v-24q0 -51 10 -85t33.5 -54.5t62.5 -29.5t97 -9q14 0 32.5 2t37 5t35.5 7.5t29 9.5v-61q-35 -14 -77 -20t-77 -6q-68 0 -116.5 15.5t-79.5 46.5t-45.5 78.5t-14.5 110.5v60q0 69 17.5 118.5t48.5 81t73.5 46.5t91.5 15q53 0 95 -13t71.5 -44t45 -83t15.5 -129
v-38h-385zM436 318q0 42 -7.5 76t-25.5 57.5t-47.5 36t-73.5 12.5q-80 0 -119.5 -48.5t-39.5 -133.5v-5h313v5zM344 606h-77l-108 134h97z" />
    <glyph glyph-name="eacute" unicode="&#xe9;" horiz-adv-x="553" 
d="M123 255v-24q0 -51 10 -85t33.5 -54.5t62.5 -29.5t97 -9q14 0 32.5 2t37 5t35.5 7.5t29 9.5v-61q-35 -14 -77 -20t-77 -6q-68 0 -116.5 15.5t-79.5 46.5t-45.5 78.5t-14.5 110.5v60q0 69 17.5 118.5t48.5 81t73.5 46.5t91.5 15q53 0 95 -13t71.5 -44t45 -83t15.5 -129
v-38h-385zM436 318q0 42 -7.5 76t-25.5 57.5t-47.5 36t-73.5 12.5q-80 0 -119.5 -48.5t-39.5 -133.5v-5h313v5zM333 740h97l-111 -134h-77z" />
    <glyph glyph-name="ecircumflex" unicode="&#xea;" horiz-adv-x="553" 
d="M123 255v-24q0 -51 10 -85t33.5 -54.5t62.5 -29.5t97 -9q14 0 32.5 2t37 5t35.5 7.5t29 9.5v-61q-35 -14 -77 -20t-77 -6q-68 0 -116.5 15.5t-79.5 46.5t-45.5 78.5t-14.5 110.5v60q0 69 17.5 118.5t48.5 81t73.5 46.5t91.5 15q53 0 95 -13t71.5 -44t45 -83t15.5 -129
v-38h-385zM436 318q0 42 -7.5 76t-25.5 57.5t-47.5 36t-73.5 12.5q-80 0 -119.5 -48.5t-39.5 -133.5v-5h313v5zM242 754h69l100 -148h-64l-71 95l-72 -95h-62z" />
    <glyph glyph-name="edieresis" unicode="&#xeb;" horiz-adv-x="553" 
d="M123 255v-24q0 -51 10 -85t33.5 -54.5t62.5 -29.5t97 -9q14 0 32.5 2t37 5t35.5 7.5t29 9.5v-61q-35 -14 -77 -20t-77 -6q-68 0 -116.5 15.5t-79.5 46.5t-45.5 78.5t-14.5 110.5v60q0 69 17.5 118.5t48.5 81t73.5 46.5t91.5 15q53 0 95 -13t71.5 -44t45 -83t15.5 -129
v-38h-385zM436 318q0 42 -7.5 76t-25.5 57.5t-47.5 36t-73.5 12.5q-80 0 -119.5 -48.5t-39.5 -133.5v-5h313v5zM151 712h81v-89h-81v89zM327 712h81v-89h-81v89z" />
    <glyph glyph-name="igrave" unicode="&#xec;" horiz-adv-x="232" 
d="M79 0v548h75v-548h-75zM154 606h-77l-108 134h97z" />
    <glyph glyph-name="iacute" unicode="&#xed;" horiz-adv-x="232" 
d="M79 0v548h75v-548h-75zM170 740h97l-111 -134h-77z" />
    <glyph glyph-name="icircumflex" unicode="&#xee;" horiz-adv-x="232" 
d="M79 0v548h75v-548h-75zM82 754h69l100 -148h-64l-71 95l-72 -95h-62z" />
    <glyph glyph-name="idieresis" unicode="&#xef;" horiz-adv-x="232" 
d="M79 0v548h75v-548h-75zM-12 712h81v-89h-81v89zM164 712h81v-89h-81v89z" />
    <glyph glyph-name="eth" unicode="&#xf0;" horiz-adv-x="583" 
d="M133 623l105 44q-20 12 -41.5 23.5t-46.5 23.5l30 60q38 -17 71.5 -35.5t63.5 -38.5l107 45l20 -48l-79 -33q84 -70 127 -164t43 -224v-34q0 -121 -62 -186.5t-180 -65.5q-117 0 -179 65.5t-62 186.5v45q0 121 61 186.5t170 65.5q48 0 78.5 -12.5t53.5 -30.5
q-24 43 -53 75.5t-69 61.5l-138 -58zM458 288q0 96 -43 142t-124 46q-80 0 -123 -46t-43 -142v-47q0 -94 42.5 -141t123.5 -47q82 0 124.5 47t42.5 141v47z" />
    <glyph glyph-name="ntilde" unicode="&#xf1;" horiz-adv-x="589" 
d="M440 0v381q0 60 -21.5 86.5t-76.5 26.5q-44 0 -93.5 -16t-95.5 -47v-431h-75v548h66l8 -52q40 26 93.5 46t104.5 20q89 0 127 -42.5t38 -119.5v-400h-75zM356 613q-24 0 -40.5 10t-29 22.5t-24.5 22.5t-27 10q-17 0 -28.5 -17t-13.5 -47h-58q2 24 8.5 46t18 39.5
t28.5 27.5t41 10t41 -10t30 -22.5t24.5 -22.5t26.5 -10q22 0 30.5 17t10.5 48h58q-2 -22 -6.5 -44t-15.5 -40t-29 -29t-45 -11z" />
    <glyph glyph-name="ograve" unicode="&#xf2;" horiz-adv-x="583" 
d="M533 242q0 -121 -62 -186.5t-180 -65.5q-117 0 -179 65.5t-62 186.5v68q0 121 62 186.5t179 65.5q118 0 180 -65.5t62 -186.5v-68zM458 311q0 96 -43 142t-124 46q-80 0 -123 -46t-43 -142v-70q0 -94 42.5 -141t123.5 -47q82 0 124.5 47t42.5 141v70zM336 606h-77
l-108 134h97z" />
    <glyph glyph-name="oacute" unicode="&#xf3;" horiz-adv-x="583" 
d="M533 242q0 -121 -62 -186.5t-180 -65.5q-117 0 -179 65.5t-62 186.5v68q0 121 62 186.5t179 65.5q118 0 180 -65.5t62 -186.5v-68zM458 311q0 96 -43 142t-124 46q-80 0 -123 -46t-43 -142v-70q0 -94 42.5 -141t123.5 -47q82 0 124.5 47t42.5 141v70zM337 740h97
l-111 -134h-77z" />
    <glyph glyph-name="ocircumflex" unicode="&#xf4;" horiz-adv-x="583" 
d="M533 242q0 -121 -62 -186.5t-180 -65.5q-117 0 -179 65.5t-62 186.5v68q0 121 62 186.5t179 65.5q118 0 180 -65.5t62 -186.5v-68zM458 311q0 96 -43 142t-124 46q-80 0 -123 -46t-43 -142v-70q0 -94 42.5 -141t123.5 -47q82 0 124.5 47t42.5 141v70zM257 754h69
l100 -148h-64l-71 95l-72 -95h-62z" />
    <glyph glyph-name="otilde" unicode="&#xf5;" horiz-adv-x="583" 
d="M533 242q0 -121 -62 -186.5t-180 -65.5q-117 0 -179 65.5t-62 186.5v68q0 121 62 186.5t179 65.5q118 0 180 -65.5t62 -186.5v-68zM458 311q0 96 -43 142t-124 46q-80 0 -123 -46t-43 -142v-70q0 -94 42.5 -141t123.5 -47q82 0 124.5 47t42.5 141v70zM354 613
q-24 0 -40.5 10t-29 22.5t-24.5 22.5t-27 10q-17 0 -28.5 -17t-13.5 -47h-58q2 24 8.5 46t18 39.5t28.5 27.5t41 10t41 -10t30 -22.5t24.5 -22.5t26.5 -10q22 0 30.5 17t10.5 48h58q-2 -22 -6.5 -44t-15.5 -40t-29 -29t-45 -11z" />
    <glyph glyph-name="odieresis" unicode="&#xf6;" horiz-adv-x="583" 
d="M533 242q0 -121 -62 -186.5t-180 -65.5q-117 0 -179 65.5t-62 186.5v68q0 121 62 186.5t179 65.5q118 0 180 -65.5t62 -186.5v-68zM458 311q0 96 -43 142t-124 46q-80 0 -123 -46t-43 -142v-70q0 -94 42.5 -141t123.5 -47q82 0 124.5 47t42.5 141v70zM163 712h81v-89h-81
v89zM339 712h81v-89h-81v89z" />
    <glyph glyph-name="divide" unicode="&#xf7;" horiz-adv-x="601" 
d="M55 384h492l-1 -70h-492zM251 592h101v-101h-101v101zM251 206h101v-101h-101v101z" />
    <glyph glyph-name="oslash" unicode="&#xf8;" horiz-adv-x="589" 
d="M536 242q0 -121 -62 -186.5t-180 -65.5q-78 0 -132 30l-42 -63h-70l65 98q-62 65 -62 187v68q0 121 62 186.5t179 65.5q82 0 138 -33l37 55h70l-62 -92q59 -65 59 -182v-68zM128 241q0 -77 29 -123l237 354q-39 27 -100 27q-80 0 -123 -46t-43 -142v-70zM461 311
q0 73 -26 117l-236 -352q40 -23 95 -23q82 0 124.5 47t42.5 141v70z" />
    <glyph glyph-name="ugrave" unicode="&#xf9;" horiz-adv-x="586" 
d="M149 548v-382q0 -54 20.5 -81t74.5 -27q43 0 93.5 17t95.5 47v426h75v-548h-66l-8 56q-41 -26 -94.5 -46t-104.5 -20q-87 0 -124 40t-37 118v400h75zM353 606h-77l-108 134h97z" />
    <glyph glyph-name="uacute" unicode="&#xfa;" horiz-adv-x="586" 
d="M149 548v-382q0 -54 20.5 -81t74.5 -27q43 0 93.5 17t95.5 47v426h75v-548h-66l-8 56q-41 -26 -94.5 -46t-104.5 -20q-87 0 -124 40t-37 118v400h75zM347 740h97l-111 -134h-77z" />
    <glyph glyph-name="ucircumflex" unicode="&#xfb;" horiz-adv-x="586" 
d="M149 548v-382q0 -54 20.5 -81t74.5 -27q43 0 93.5 17t95.5 47v426h75v-548h-66l-8 56q-41 -26 -94.5 -46t-104.5 -20q-87 0 -124 40t-37 118v400h75zM259 754h69l100 -148h-64l-71 95l-72 -95h-62z" />
    <glyph glyph-name="udieresis" unicode="&#xfc;" horiz-adv-x="586" 
d="M149 548v-382q0 -54 20.5 -81t74.5 -27q43 0 93.5 17t95.5 47v426h75v-548h-66l-8 56q-41 -26 -94.5 -46t-104.5 -20q-87 0 -124 40t-37 118v400h75zM170 712h81v-89h-81v89zM346 712h81v-89h-81v89z" />
    <glyph glyph-name="yacute" unicode="&#xfd;" horiz-adv-x="533" 
d="M225 -213h-75l82 213l-218 548h81l131 -345q13 -33 23 -64t22 -74q13 45 23.5 77.5t21.5 63.5l128 342h75zM317 740h97l-111 -134h-77z" />
    <glyph glyph-name="thorn" unicode="&#xfe;" 
d="M152 79q30 -11 69 -17t72 -6q91 0 134.5 37.5t43.5 130.5v122q0 82 -32 115t-97 33q-51 0 -101.5 -19.5t-88.5 -42.5v-353zM78 750l74 24v-276q16 9 38 20.5t49 21t57 16t62 6.5q50 0 85.5 -15t58.5 -41t33.5 -61.5t10.5 -75.5v-154q0 -63 -18.5 -106t-51 -69.5t-77 -38
t-97.5 -11.5q-18 0 -38.5 2t-40.5 5t-38.5 8t-32.5 11v-232h-74v966z" />
    <glyph glyph-name="ydieresis" unicode="&#xff;" horiz-adv-x="533" 
d="M225 -213h-75l82 213l-218 548h81l131 -345q13 -33 23 -64t22 -74q13 45 23.5 77.5t21.5 63.5l128 342h75zM143 712h81v-89h-81v89zM319 712h81v-89h-81v89z" />
    <glyph glyph-name="Amacron" unicode="&#x100;" horiz-adv-x="669" 
d="M663 0h-85l-84 221h-327l-81 -221h-80l283 750h76zM469 290l-97 259q-12 32 -22 58t-22 63q-10 -33 -20.5 -64t-21.5 -62l-94 -254h277zM201 915h267v-60h-267v60z" />
    <glyph glyph-name="amacron" unicode="&#x101;" horiz-adv-x="535" 
d="M402 0l-6 56q-16 -10 -38.5 -21.5t-49 -21.5t-56 -16.5t-59.5 -6.5q-78 0 -115.5 38t-37.5 122v17q0 89 58 124.5t182 35.5h112v40q0 31 -4 55.5t-17 41.5t-38.5 26t-67.5 9q-37 0 -80 -8t-83 -23v63q44 16 87 23.5t85 7.5q64 0 102 -16t58 -43.5t25.5 -63.5t5.5 -76
v-363h-63zM392 269h-111q-48 0 -80 -5.5t-51 -18t-27 -34t-8 -53.5v-8q0 -54 20.5 -76t65.5 -22q22 0 48 4.5t51.5 13t49.5 19t42 22.5v158zM134 715h267v-60h-267v60z" />
    <glyph glyph-name="Abreve" unicode="&#x102;" horiz-adv-x="669" 
d="M663 0h-85l-84 221h-327l-81 -221h-80l283 750h76zM469 290l-97 259q-12 32 -22 58t-22 63q-10 -33 -20.5 -64t-21.5 -62l-94 -254h277zM330 806q-31 0 -55 10.5t-41.5 29.5t-27 44t-11.5 54h57q4 -37 22 -59.5t56 -22.5t57 22.5t22 59.5h56q-1 -29 -10.5 -54t-27 -44
t-42 -29.5t-55.5 -10.5z" />
    <glyph glyph-name="abreve" unicode="&#x103;" horiz-adv-x="535" 
d="M402 0l-6 56q-16 -10 -38.5 -21.5t-49 -21.5t-56 -16.5t-59.5 -6.5q-78 0 -115.5 38t-37.5 122v17q0 89 58 124.5t182 35.5h112v40q0 31 -4 55.5t-17 41.5t-38.5 26t-67.5 9q-37 0 -80 -8t-83 -23v63q44 16 87 23.5t85 7.5q64 0 102 -16t58 -43.5t25.5 -63.5t5.5 -76
v-363h-63zM392 269h-111q-48 0 -80 -5.5t-51 -18t-27 -34t-8 -53.5v-8q0 -54 20.5 -76t65.5 -22q22 0 48 4.5t51.5 13t49.5 19t42 22.5v158zM268 606q-31 0 -55 10.5t-41.5 29.5t-27 44t-11.5 54h57q4 -37 22 -59.5t56 -22.5t57 22.5t22 59.5h56q-1 -29 -10.5 -54t-27 -44
t-42 -29.5t-55.5 -10.5z" />
    <glyph glyph-name="Aogonek" unicode="&#x104;" horiz-adv-x="669" 
d="M616 -223q-63 0 -97 27t-34 69v9q0 18 8.5 36t22.5 33t30.5 26.5t33.5 18.5l-86 225h-327l-81 -221h-80l283 750h76l298 -750q-20 -10 -38 -22.5t-31.5 -26.5t-21.5 -29t-8 -30v-8q0 -23 16 -34.5t55 -11.5q15 0 33 2t29 5v-57q-13 -4 -33 -7.5t-48 -3.5zM469 290
l-97 259q-12 32 -22 58t-22 63q-10 -33 -20.5 -64t-21.5 -62l-94 -254h277z" />
    <glyph glyph-name="aogonek" unicode="&#x105;" horiz-adv-x="535" 
d="M465 0q-20 -10 -38 -22.5t-31.5 -26.5t-21.5 -29t-8 -30v-8q0 -23 16 -34.5t55 -11.5q15 0 33 2t29 5v-57q-13 -4 -33 -7.5t-48 -3.5q-63 0 -97 27t-34 69v9q0 19 10 38.5t26.5 36t36.5 28.5t41 18l-5 53q-16 -10 -38.5 -21.5t-49 -21.5t-56 -16.5t-59.5 -6.5
q-78 0 -115.5 38t-37.5 122v17q0 89 58 124.5t182 35.5h112v40q0 31 -4 55.5t-17 41.5t-38.5 26t-67.5 9q-37 0 -80 -8t-83 -23v63q44 16 87 23.5t85 7.5q64 0 102 -16t58 -43.5t25.5 -63.5t5.5 -76v-363zM392 269h-111q-48 0 -80 -5.5t-51 -18t-27 -34t-8 -53.5v-8
q0 -54 20.5 -76t65.5 -22q22 0 48 4.5t51.5 13t49.5 19t42 22.5v158z" />
    <glyph glyph-name="Cacute" unicode="&#x106;" horiz-adv-x="618" 
d="M559 669q-34 11 -84.5 16.5t-101.5 5.5q-69 0 -115 -15.5t-74.5 -46.5t-40.5 -78t-12 -110v-140q0 -61 11 -106t39 -75t74.5 -45t118.5 -15q45 0 95.5 5.5t100.5 21.5v-66q-40 -17 -96 -24t-105 -7q-90 0 -150.5 19t-97 58.5t-52 99.5t-15.5 143v123q0 92 21 154.5
t61.5 101t99 55t133.5 16.5q54 0 104 -5.5t86 -19.5v-66zM389 940h97l-111 -134h-77z" />
    <glyph glyph-name="cacute" unicode="&#x107;" horiz-adv-x="489" 
d="M437 481q-35 11 -69.5 14t-69.5 3q-50 0 -83.5 -13t-53.5 -36.5t-29 -56t-9 -72.5v-86q0 -41 8 -74.5t28 -57t54 -36.5t87 -13q32 0 70 5t77 19v-62q-34 -15 -76 -20t-78 -5q-123 0 -184 56.5t-61 188.5v75q0 69 17.5 117t49.5 78t77 43.5t100 13.5q38 0 75 -4.5
t70 -16.5v-60zM314 740h97l-111 -134h-77z" />
    <glyph glyph-name="Ccircumflex" unicode="&#x108;" horiz-adv-x="618" 
d="M559 669q-34 11 -84.5 16.5t-101.5 5.5q-69 0 -115 -15.5t-74.5 -46.5t-40.5 -78t-12 -110v-140q0 -61 11 -106t39 -75t74.5 -45t118.5 -15q45 0 95.5 5.5t100.5 21.5v-66q-40 -17 -96 -24t-105 -7q-90 0 -150.5 19t-97 58.5t-52 99.5t-15.5 143v123q0 92 21 154.5
t61.5 101t99 55t133.5 16.5q54 0 104 -5.5t86 -19.5v-66zM314 954h69l100 -148h-64l-71 95l-72 -95h-62z" />
    <glyph glyph-name="ccircumflex" unicode="&#x109;" horiz-adv-x="489" 
d="M437 481q-35 11 -69.5 14t-69.5 3q-50 0 -83.5 -13t-53.5 -36.5t-29 -56t-9 -72.5v-86q0 -41 8 -74.5t28 -57t54 -36.5t87 -13q32 0 70 5t77 19v-62q-34 -15 -76 -20t-78 -5q-123 0 -184 56.5t-61 188.5v75q0 69 17.5 117t49.5 78t77 43.5t100 13.5q38 0 75 -4.5
t70 -16.5v-60zM245 754h69l100 -148h-64l-71 95l-72 -95h-62z" />
    <glyph glyph-name="Cdotaccent" unicode="&#x10a;" horiz-adv-x="618" 
d="M559 669q-34 11 -84.5 16.5t-101.5 5.5q-69 0 -115 -15.5t-74.5 -46.5t-40.5 -78t-12 -110v-140q0 -61 11 -106t39 -75t74.5 -45t118.5 -15q45 0 95.5 5.5t100.5 21.5v-66q-40 -17 -96 -24t-105 -7q-90 0 -150.5 19t-97 58.5t-52 99.5t-15.5 143v123q0 92 21 154.5
t61.5 101t99 55t133.5 16.5q54 0 104 -5.5t86 -19.5v-66zM308 913h81v-89h-81v89z" />
    <glyph glyph-name="cdotaccent" unicode="&#x10b;" horiz-adv-x="489" 
d="M437 481q-35 11 -69.5 14t-69.5 3q-50 0 -83.5 -13t-53.5 -36.5t-29 -56t-9 -72.5v-86q0 -41 8 -74.5t28 -57t54 -36.5t87 -13q32 0 70 5t77 19v-62q-34 -15 -76 -20t-78 -5q-123 0 -184 56.5t-61 188.5v75q0 69 17.5 117t49.5 78t77 43.5t100 13.5q38 0 75 -4.5
t70 -16.5v-60zM243 713h81v-89h-81v89z" />
    <glyph glyph-name="Ccaron" unicode="&#x10c;" horiz-adv-x="618" 
d="M559 669q-34 11 -84.5 16.5t-101.5 5.5q-69 0 -115 -15.5t-74.5 -46.5t-40.5 -78t-12 -110v-140q0 -61 11 -106t39 -75t74.5 -45t118.5 -15q45 0 95.5 5.5t100.5 21.5v-66q-40 -17 -96 -24t-105 -7q-90 0 -150.5 19t-97 58.5t-52 99.5t-15.5 143v123q0 92 21 154.5
t61.5 101t99 55t133.5 16.5q54 0 104 -5.5t86 -19.5v-66zM215 944h64l71 -95l71 95h63l-100 -148h-69z" />
    <glyph glyph-name="ccaron" unicode="&#x10d;" horiz-adv-x="489" 
d="M437 481q-35 11 -69.5 14t-69.5 3q-50 0 -83.5 -13t-53.5 -36.5t-29 -56t-9 -72.5v-86q0 -41 8 -74.5t28 -57t54 -36.5t87 -13q32 0 70 5t77 19v-62q-34 -15 -76 -20t-78 -5q-123 0 -184 56.5t-61 188.5v75q0 69 17.5 117t49.5 78t77 43.5t100 13.5q38 0 75 -4.5
t70 -16.5v-60zM145 744h64l71 -95l71 95h63l-100 -148h-69z" />
    <glyph glyph-name="Dcaron" unicode="&#x10e;" horiz-adv-x="703" 
d="M80 0v750h247q86 0 147 -15.5t100 -53t57 -99.5t18 -155v-117q0 -86 -14 -145t-50 -96t-97.5 -53t-155.5 -16h-252zM158 680v-610h169q78 0 126 14.5t74 44t35 73t9 101.5v138q0 62 -11 107t-38 74.5t-73.5 43.5t-116.5 14h-174zM227 944h64l71 -95l71 95h63l-100 -148
h-69z" />
    <glyph glyph-name="dcaron" unicode="&#x10f;" horiz-adv-x="602" 
d="M677 761l-27 -167h-54l11 167h70zM244 -10q-95 0 -141.5 48.5t-46.5 133.5v170q0 60 17 102t46.5 68t70 38t87.5 12q54 0 98.5 -12t73.5 -27v227l75 24v-774h-65l-6 54q-34 -24 -89 -44t-120 -20zM449 457q-28 14 -70 26t-96 12q-32 0 -59.5 -7t-48 -25t-32.5 -48.5
t-12 -77.5v-145q0 -75 31.5 -105t94.5 -30q50 0 101 16t91 43v341z" />
    <glyph glyph-name="Dcroat" unicode="&#x110;" horiz-adv-x="703" 
d="M6 420h74v330h247q86 0 147 -15.5t100 -53t57 -99.5t18 -155v-117q0 -86 -14 -145t-50 -96t-97.5 -53t-155.5 -16h-252v350h-74v70zM158 680v-260h241v-70h-241v-280h169q78 0 126 14.5t74 44t35 73t9 101.5v138q0 62 -11 107t-38 74.5t-73.5 43.5t-116.5 14h-174z" />
    <glyph glyph-name="dcroat" unicode="&#x111;" 
d="M277 674h169v76l75 24v-100h71v-56h-71v-618h-65l-6 54q-34 -24 -89 -44t-120 -20q-95 0 -141.5 48.5t-46.5 133.5v147q0 60 17 102t46.5 68t70 38t87.5 12q54 0 98.5 -12t73.5 -27v118h-169v56zM446 434q-28 14 -70 26t-96 12q-32 0 -59.5 -7t-48 -25t-32.5 -48.5
t-12 -77.5v-122q0 -75 31.5 -105t94.5 -30q50 0 101 16t91 43v318z" />
    <glyph glyph-name="Emacron" unicode="&#x112;" 
d="M543 750v-70h-385v-256h352v-69h-352v-285h399v-70h-477v750h463zM188 915h267v-60h-267v60z" />
    <glyph glyph-name="emacron" unicode="&#x113;" horiz-adv-x="553" 
d="M123 255v-24q0 -51 10 -85t33.5 -54.5t62.5 -29.5t97 -9q14 0 32.5 2t37 5t35.5 7.5t29 9.5v-61q-35 -14 -77 -20t-77 -6q-68 0 -116.5 15.5t-79.5 46.5t-45.5 78.5t-14.5 110.5v60q0 69 17.5 118.5t48.5 81t73.5 46.5t91.5 15q53 0 95 -13t71.5 -44t45 -83t15.5 -129
v-38h-385zM436 318q0 42 -7.5 76t-25.5 57.5t-47.5 36t-73.5 12.5q-80 0 -119.5 -48.5t-39.5 -133.5v-5h313v5zM142 715h267v-60h-267v60z" />
    <glyph glyph-name="Ebreve" unicode="&#x114;" 
d="M543 750v-70h-385v-256h352v-69h-352v-285h399v-70h-477v750h463zM327 806q-31 0 -55 10.5t-41.5 29.5t-27 44t-11.5 54h57q4 -37 22 -59.5t56 -22.5t57 22.5t22 59.5h56q-1 -29 -10.5 -54t-27 -44t-42 -29.5t-55.5 -10.5z" />
    <glyph glyph-name="ebreve" unicode="&#x115;" horiz-adv-x="553" 
d="M123 255v-24q0 -51 10 -85t33.5 -54.5t62.5 -29.5t97 -9q14 0 32.5 2t37 5t35.5 7.5t29 9.5v-61q-35 -14 -77 -20t-77 -6q-68 0 -116.5 15.5t-79.5 46.5t-45.5 78.5t-14.5 110.5v60q0 69 17.5 118.5t48.5 81t73.5 46.5t91.5 15q53 0 95 -13t71.5 -44t45 -83t15.5 -129
v-38h-385zM436 318q0 42 -7.5 76t-25.5 57.5t-47.5 36t-73.5 12.5q-80 0 -119.5 -48.5t-39.5 -133.5v-5h313v5zM275 606q-31 0 -55 10.5t-41.5 29.5t-27 44t-11.5 54h57q4 -37 22 -59.5t56 -22.5t57 22.5t22 59.5h56q-1 -29 -10.5 -54t-27 -44t-42 -29.5t-55.5 -10.5z" />
    <glyph glyph-name="Edotaccent" unicode="&#x116;" 
d="M543 750v-70h-385v-256h352v-69h-352v-285h399v-70h-477v750h463zM281 913h81v-89h-81v89z" />
    <glyph glyph-name="edotaccent" unicode="&#x117;" horiz-adv-x="553" 
d="M123 255v-24q0 -51 10 -85t33.5 -54.5t62.5 -29.5t97 -9q14 0 32.5 2t37 5t35.5 7.5t29 9.5v-61q-35 -14 -77 -20t-77 -6q-68 0 -116.5 15.5t-79.5 46.5t-45.5 78.5t-14.5 110.5v60q0 69 17.5 118.5t48.5 81t73.5 46.5t91.5 15q53 0 95 -13t71.5 -44t45 -83t15.5 -129
v-38h-385zM436 318q0 42 -7.5 76t-25.5 57.5t-47.5 36t-73.5 12.5q-80 0 -119.5 -48.5t-39.5 -133.5v-5h313v5zM235 713h81v-89h-81v89z" />
    <glyph glyph-name="Eogonek" unicode="&#x118;" 
d="M449 -223q-63 0 -97 27t-34 69v9q0 20 10 39t26 34.5t34.5 27.5t35.5 17h-344v750h463v-70h-385v-256h352v-69h-352v-285h399v-70h-61q-20 -10 -38 -22.5t-31.5 -26.5t-21.5 -29t-8 -30v-8q0 -23 16 -34.5t55 -11.5q15 0 33 2t29 5v-57q-13 -4 -33 -7.5t-48 -3.5z" />
    <glyph glyph-name="eogonek" unicode="&#x119;" horiz-adv-x="553" 
d="M123 255v-24q0 -51 10 -85t33.5 -54.5t62.5 -29.5t97 -9q14 0 32.5 2t37 5t35.5 7.5t29 9.5v-61q-8 -4 -16.5 -6.5t-17.5 -4.5q-19 -9 -38 -21t-34.5 -27t-25.5 -31.5t-10 -33.5v-8q0 -23 16 -34.5t55 -11.5q15 0 33 2t29 5v-57q-13 -4 -33 -7.5t-48 -3.5q-63 0 -97 27
t-34 69v9q0 16 7 32t19 30.5t26.5 26t29.5 19.5h-15q-68 0 -116.5 15.5t-79.5 46.5t-45.5 78.5t-14.5 110.5v60q0 69 17.5 118.5t48.5 81t73.5 46.5t91.5 15q53 0 95 -13t71.5 -44t45 -83t15.5 -129v-38h-385zM436 318q0 42 -7.5 76t-25.5 57.5t-47.5 36t-73.5 12.5
q-80 0 -119.5 -48.5t-39.5 -133.5v-5h313v5z" />
    <glyph glyph-name="Ecaron" unicode="&#x11a;" 
d="M543 750v-70h-385v-256h352v-69h-352v-285h399v-70h-477v750h463zM194 944h64l71 -95l71 95h63l-100 -148h-69z" />
    <glyph glyph-name="ecaron" unicode="&#x11b;" horiz-adv-x="553" 
d="M123 255v-24q0 -51 10 -85t33.5 -54.5t62.5 -29.5t97 -9q14 0 32.5 2t37 5t35.5 7.5t29 9.5v-61q-35 -14 -77 -20t-77 -6q-68 0 -116.5 15.5t-79.5 46.5t-45.5 78.5t-14.5 110.5v60q0 69 17.5 118.5t48.5 81t73.5 46.5t91.5 15q53 0 95 -13t71.5 -44t45 -83t15.5 -129
v-38h-385zM436 318q0 42 -7.5 76t-25.5 57.5t-47.5 36t-73.5 12.5q-80 0 -119.5 -48.5t-39.5 -133.5v-5h313v5zM151 744h64l71 -95l71 95h63l-100 -148h-69z" />
    <glyph glyph-name="Gcircumflex" unicode="&#x11c;" horiz-adv-x="684" 
d="M566 669q-41 11 -83.5 16.5t-99.5 5.5q-78 0 -127 -19.5t-76 -53.5t-37 -79t-10 -97v-130q0 -60 10.5 -107t39.5 -79t79.5 -49t130.5 -17q39 0 76 3.5t73 11.5v261h-168v66h245v-377q-24 -9 -53.5 -16t-60.5 -11t-61 -6t-57 -2q-93 0 -156.5 20t-103 60t-56.5 100
t-17 140v120q0 173 79.5 251.5t246.5 78.5q57 0 102.5 -5.5t83.5 -19.5v-66zM314 954h69l100 -148h-64l-71 95l-72 -95h-62z" />
    <glyph glyph-name="gcircumflex" unicode="&#x11d;" horiz-adv-x="602" 
d="M246 -3q-96 0 -143 49t-47 133v163q0 60 17 102t46.5 68t70 38t87.5 12q57 0 102 -15.5t74 -37.5l6 41h65v-585q0 -44 -12 -79t-39 -59t-70.5 -37t-106.5 -13q-44 0 -78 5t-60 13v66q38 -11 70 -14t62 -3q42 0 72.5 5.5t49.5 20t28 38.5t9 61v76q-35 -18 -87 -33
t-116 -15zM449 445q-32 22 -73 36t-93 14q-32 0 -59.5 -7t-48 -25t-32.5 -48.5t-12 -77.5v-138q0 -75 32 -105t95 -30q25 0 51 3t51.5 9t48 15t40.5 20v334zM268 754h69l100 -148h-64l-71 95l-72 -95h-62z" />
    <glyph glyph-name="Gbreve" unicode="&#x11e;" horiz-adv-x="684" 
d="M566 669q-41 11 -83.5 16.5t-99.5 5.5q-78 0 -127 -19.5t-76 -53.5t-37 -79t-10 -97v-130q0 -60 10.5 -107t39.5 -79t79.5 -49t130.5 -17q39 0 76 3.5t73 11.5v261h-168v66h245v-377q-24 -9 -53.5 -16t-60.5 -11t-61 -6t-57 -2q-93 0 -156.5 20t-103 60t-56.5 100
t-17 140v120q0 173 79.5 251.5t246.5 78.5q57 0 102.5 -5.5t83.5 -19.5v-66zM354 806q-31 0 -55 10.5t-41.5 29.5t-27 44t-11.5 54h57q4 -37 22 -59.5t56 -22.5t57 22.5t22 59.5h56q-1 -29 -10.5 -54t-27 -44t-42 -29.5t-55.5 -10.5z" />
    <glyph glyph-name="gbreve" unicode="&#x11f;" horiz-adv-x="602" 
d="M246 -3q-96 0 -143 49t-47 133v163q0 60 17 102t46.5 68t70 38t87.5 12q57 0 102 -15.5t74 -37.5l6 41h65v-585q0 -44 -12 -79t-39 -59t-70.5 -37t-106.5 -13q-44 0 -78 5t-60 13v66q38 -11 70 -14t62 -3q42 0 72.5 5.5t49.5 20t28 38.5t9 61v76q-35 -18 -87 -33
t-116 -15zM449 445q-32 22 -73 36t-93 14q-32 0 -59.5 -7t-48 -25t-32.5 -48.5t-12 -77.5v-138q0 -75 32 -105t95 -30q25 0 51 3t51.5 9t48 15t40.5 20v334zM303 606q-31 0 -55 10.5t-41.5 29.5t-27 44t-11.5 54h57q4 -37 22 -59.5t56 -22.5t57 22.5t22 59.5h56
q-1 -29 -10.5 -54t-27 -44t-42 -29.5t-55.5 -10.5z" />
    <glyph glyph-name="Gdotaccent" unicode="&#x120;" horiz-adv-x="684" 
d="M566 669q-41 11 -83.5 16.5t-99.5 5.5q-78 0 -127 -19.5t-76 -53.5t-37 -79t-10 -97v-130q0 -60 10.5 -107t39.5 -79t79.5 -49t130.5 -17q39 0 76 3.5t73 11.5v261h-168v66h245v-377q-24 -9 -53.5 -16t-60.5 -11t-61 -6t-57 -2q-93 0 -156.5 20t-103 60t-56.5 100
t-17 140v120q0 173 79.5 251.5t246.5 78.5q57 0 102.5 -5.5t83.5 -19.5v-66zM307 913h81v-89h-81v89z" />
    <glyph glyph-name="gdotaccent" unicode="&#x121;" horiz-adv-x="602" 
d="M246 -3q-96 0 -143 49t-47 133v163q0 60 17 102t46.5 68t70 38t87.5 12q57 0 102 -15.5t74 -37.5l6 41h65v-585q0 -44 -12 -79t-39 -59t-70.5 -37t-106.5 -13q-44 0 -78 5t-60 13v66q38 -11 70 -14t62 -3q42 0 72.5 5.5t49.5 20t28 38.5t9 61v76q-35 -18 -87 -33
t-116 -15zM449 445q-32 22 -73 36t-93 14q-32 0 -59.5 -7t-48 -25t-32.5 -48.5t-12 -77.5v-138q0 -75 32 -105t95 -30q25 0 51 3t51.5 9t48 15t40.5 20v334zM262 713h81v-89h-81v89z" />
    <glyph glyph-name="uni0122" unicode="&#x122;" horiz-adv-x="684" 
d="M566 669q-41 11 -83.5 16.5t-99.5 5.5q-78 0 -127 -19.5t-76 -53.5t-37 -79t-10 -97v-130q0 -60 10.5 -107t39.5 -79t79.5 -49t130.5 -17q39 0 76 3.5t73 11.5v261h-168v66h245v-377q-24 -9 -53.5 -16t-60.5 -11t-61 -6t-57 -2q-93 0 -156.5 20t-103 60t-56.5 100
t-17 140v120q0 173 79.5 251.5t246.5 78.5q57 0 102.5 -5.5t83.5 -19.5v-66zM330 -56h88l-63 -177h-67z" />
    <glyph glyph-name="uni0123" unicode="&#x123;" horiz-adv-x="602" 
d="M246 -3q-96 0 -143 49t-47 133v163q0 60 17 102t46.5 68t70 38t87.5 12q57 0 102 -15.5t74 -37.5l6 41h65v-585q0 -44 -12 -79t-39 -59t-70.5 -37t-106.5 -13q-44 0 -78 5t-60 13v66q38 -11 70 -14t62 -3q42 0 72.5 5.5t49.5 20t28 38.5t9 61v76q-35 -18 -87 -33
t-116 -15zM449 445q-32 22 -73 36t-93 14q-32 0 -59.5 -7t-48 -25t-32.5 -48.5t-12 -77.5v-138q0 -75 32 -105t95 -30q25 0 51 3t51.5 9t48 15t40.5 20v334zM335 606h-88l63 177h67z" />
    <glyph glyph-name="Hcircumflex" unicode="&#x124;" horiz-adv-x="716" 
d="M636 0h-78v357h-400v-357h-78v750h78v-323h400v323h78v-750zM323 954h69l100 -148h-64l-71 95l-72 -95h-62z" />
    <glyph glyph-name="hcircumflex" unicode="&#x125;" horiz-adv-x="587" 
d="M440 0v381q0 60 -21 86.5t-77 26.5q-45 0 -93.5 -16.5t-95.5 -45.5v-432h-75v750l75 24v-277q20 12 44 23.5t49.5 21t52 15t52.5 5.5q86 0 125 -41t39 -119v-402h-75zM287 954h69l100 -148h-64l-71 95l-72 -95h-62z" />
    <glyph glyph-name="Hbar" unicode="&#x126;" horiz-adv-x="716" 
d="M-4 586h84v164h78v-164h400v164h78v-164h84v-62h-84v-524h-78v316h-400v-316h-78v524h-84v62zM558 386v138h-400v-138h400z" />
    <glyph glyph-name="hbar" unicode="&#x127;" horiz-adv-x="587" 
d="M-1 670h79v80l75 24v-104h159v-60h-159v-127q20 12 44 23.5t49.5 21t52 15t52.5 5.5q86 0 125 -41t39 -119v-388h-75v367q0 60 -21 86.5t-77 26.5q-45 0 -93.5 -16.5t-95.5 -45.5v-418h-75v610h-79v60z" />
    <glyph glyph-name="Itilde" unicode="&#x128;" horiz-adv-x="238" 
d="M158 0h-78v750h78v-750zM182 813q-24 0 -40.5 10t-29 22.5t-24.5 22.5t-27 10q-17 0 -28.5 -17t-13.5 -47h-58q2 24 8.5 46t18 39.5t28.5 27.5t41 10t41 -10t30 -22.5t24.5 -22.5t26.5 -10q22 0 30.5 17t10.5 48h58q-2 -22 -6.5 -44t-15.5 -40t-29 -29t-45 -11z" />
    <glyph glyph-name="itilde" unicode="&#x129;" horiz-adv-x="232" 
d="M79 0v548h75v-548h-75zM179 613q-24 0 -40.5 10t-29 22.5t-24.5 22.5t-27 10q-17 0 -28.5 -17t-13.5 -47h-58q2 24 8.5 46t18 39.5t28.5 27.5t41 10t41 -10t30 -22.5t24.5 -22.5t26.5 -10q22 0 30.5 17t10.5 48h58q-2 -22 -6.5 -44t-15.5 -40t-29 -29t-45 -11z" />
    <glyph glyph-name="Imacron" unicode="&#x12a;" horiz-adv-x="238" 
d="M158 0h-78v750h78v-750zM-25 915h288v-60h-288v60z" />
    <glyph glyph-name="imacron" unicode="&#x12b;" horiz-adv-x="232" 
d="M79 0v548h75v-548h-75zM-17 715h267v-60h-267v60z" />
    <glyph glyph-name="Ibreve" unicode="&#x12c;" horiz-adv-x="238" 
d="M158 0h-78v750h78v-750zM119 806q-31 0 -55 10.5t-41.5 29.5t-27 44t-11.5 54h57q4 -37 22 -59.5t56 -22.5t57 22.5t22 59.5h56q-1 -29 -10.5 -54t-27 -44t-42 -29.5t-55.5 -10.5z" />
    <glyph glyph-name="ibreve" unicode="&#x12d;" horiz-adv-x="232" 
d="M79 0v548h75v-548h-75zM116 606q-31 0 -55 10.5t-41.5 29.5t-27 44t-11.5 54h57q4 -37 22 -59.5t56 -22.5t57 22.5t22 59.5h56q-1 -29 -10.5 -54t-27 -44t-42 -29.5t-55.5 -10.5z" />
    <glyph glyph-name="Iogonek" unicode="&#x12e;" horiz-adv-x="238" 
d="M111 -223q-63 0 -97 27t-34 69v9q0 19 9.5 37.5t24 34t32 27t34.5 17.5v752h78v-750q-20 -10 -38 -22.5t-31.5 -26.5t-21.5 -29t-8 -30v-8q0 -23 16 -34.5t55 -11.5q15 0 33 2t29 5v-57q-13 -4 -33 -7.5t-48 -3.5z" />
    <glyph glyph-name="iogonek" unicode="&#x12f;" horiz-adv-x="232" 
d="M107 -223q-63 0 -97 27t-34 69v9q0 19 10 38t25 34.5t33 27t35 17.5v549h75v-548q-20 -10 -38 -22.5t-31.5 -26.5t-21.5 -29t-8 -30v-8q0 -23 16 -34.5t55 -11.5q15 0 33 2t29 5v-57q-13 -4 -33 -7.5t-48 -3.5zM156 669h-79v82h79v-82z" />
    <glyph glyph-name="Idotaccent" unicode="&#x130;" horiz-adv-x="238" 
d="M158 0h-78v750h78v-750zM79 913h81v-89h-81v89z" />
    <glyph glyph-name="dotlessi" unicode="&#x131;" horiz-adv-x="232" 
d="M79 0v548h75v-548h-75z" />
    <glyph glyph-name="IJ" unicode="&#x132;" horiz-adv-x="626" 
d="M158 0h-78v750h78v-750zM552 750v-571q0 -48 -8.5 -83.5t-29.5 -59t-56 -35t-88 -11.5q-14 0 -30.5 1t-33 3.5t-31 5t-24.5 5.5v73q29 -8 58.5 -11t57.5 -3q62 0 84.5 29t22.5 94v563h78z" />
    <glyph glyph-name="ij" unicode="&#x133;" horiz-adv-x="486" 
d="M79 0v548h75v-548h-75zM156 669h-79v82h79v-82zM408 -81q0 -68 -27.5 -104t-100.5 -36q-20 0 -47 2.5t-47 8.5v62q19 -3 39 -5.5t44 -2.5q38 0 51 17t13 59v628h75v-629zM410 669h-79v82h79v-82z" />
    <glyph glyph-name="Jcircumflex" unicode="&#x134;" horiz-adv-x="388" 
d="M314 750v-571q0 -48 -8.5 -83.5t-29.5 -59t-56 -35t-88 -11.5q-14 0 -30.5 1t-33 3.5t-31 5t-24.5 5.5v73q29 -8 58.5 -11t57.5 -3q62 0 84.5 29t22.5 94v563h78zM241 954h69l100 -148h-64l-71 95l-72 -95h-62z" />
    <glyph glyph-name="jcircumflex" unicode="&#x135;" horiz-adv-x="254" 
d="M176 -81q0 -68 -27.5 -104t-100.5 -36q-20 0 -47 2.5t-47 8.5v62q19 -3 39 -5.5t44 -2.5q38 0 51 17t13 59v628h75v-629zM105 754h69l100 -148h-64l-71 95l-72 -95h-62z" />
    <glyph glyph-name="uni0136" unicode="&#x136;" horiz-adv-x="647" 
d="M336 379l296 -379h-96l-266 344h-112v-344h-78v750h78v-337h117l238 337h90zM306 -56h88l-63 -177h-67z" />
    <glyph glyph-name="uni0137" unicode="&#x137;" horiz-adv-x="526" 
d="M153 334h85l181 214h86l-214 -248l220 -300h-89l-192 269h-77v-269h-75v750l75 24v-440zM246 -56h88l-63 -177h-67z" />
    <glyph glyph-name="kgreenlandic" unicode="&#x138;" horiz-adv-x="526" 
d="M153 315h92l174 233h86l-207 -267l213 -281h-89l-185 250h-84v-250h-75v548h75v-233z" />
    <glyph glyph-name="Lacute" unicode="&#x139;" horiz-adv-x="571" 
d="M158 750v-678h385v-72h-463v750h78zM166 940h97l-111 -134h-77z" />
    <glyph glyph-name="lacute" unicode="&#x13a;" horiz-adv-x="231" 
d="M78 750l75 24v-774h-75v750zM163 940h97l-111 -134h-77z" />
    <glyph glyph-name="uni013B" unicode="&#x13b;" horiz-adv-x="571" 
d="M158 750v-678h385v-72h-463v750h78zM286 -56h88l-63 -177h-67z" />
    <glyph glyph-name="uni013C" unicode="&#x13c;" horiz-adv-x="231" 
d="M78 750l75 24v-774h-75v750zM73 -56h88l-63 -177h-67z" />
    <glyph glyph-name="Lcaron" unicode="&#x13d;" horiz-adv-x="571" 
d="M356 750l-29 -177h-53l12 177h70zM158 750v-678h385v-72h-463v750h78z" />
    <glyph glyph-name="lcaron" unicode="&#x13e;" horiz-adv-x="269" 
d="M295 761l-25 -167h-53l8 167h70zM78 750l75 24v-774h-75v750z" />
    <glyph glyph-name="Ldot" unicode="&#x13f;" horiz-adv-x="571" 
d="M158 750v-678h385v-72h-463v750h78zM410 470h81v-89h-81v89z" />
    <glyph glyph-name="ldot" unicode="&#x140;" horiz-adv-x="334" 
d="M78 750l75 24v-774h-75v750zM249 442h81v-89h-81v89z" />
    <glyph glyph-name="Lslash" unicode="&#x141;" horiz-adv-x="594" 
d="M181 750v-349l251 115v-68l-251 -115v-261h385v-72h-463v297l-101 -46v68l101 46v385h78z" />
    <glyph glyph-name="lslash" unicode="&#x142;" horiz-adv-x="311" 
d="M2 336l116 74v340l75 24v-316l116 75v-64l-116 -75v-394h-75v346l-116 -74v64z" />
    <glyph glyph-name="Nacute" unicode="&#x143;" horiz-adv-x="718" 
d="M638 0h-86l-327 516q-20 31 -36 62t-33 68v-646h-76v750h86l328 -516q12 -19 21 -34.5t17 -30.5t15 -30t15 -33v644h76v-750zM403 940h97l-111 -134h-77z" />
    <glyph glyph-name="nacute" unicode="&#x144;" horiz-adv-x="589" 
d="M440 0v381q0 60 -21.5 86.5t-76.5 26.5q-44 0 -93.5 -16t-95.5 -47v-431h-75v548h66l8 -52q40 26 93.5 46t104.5 20q89 0 127 -42.5t38 -119.5v-400h-75zM360 740h97l-111 -134h-77z" />
    <glyph glyph-name="uni0145" unicode="&#x145;" horiz-adv-x="718" 
d="M638 0h-86l-327 516q-20 31 -36 62t-33 68v-646h-76v750h86l328 -516q12 -19 21 -34.5t17 -30.5t15 -30t15 -33v644h76v-750zM336 -56h88l-63 -177h-67z" />
    <glyph glyph-name="uni0146" unicode="&#x146;" horiz-adv-x="589" 
d="M440 0v381q0 60 -21.5 86.5t-76.5 26.5q-44 0 -93.5 -16t-95.5 -47v-431h-75v548h66l8 -52q40 26 93.5 46t104.5 20q89 0 127 -42.5t38 -119.5v-400h-75zM261 -56h88l-63 -177h-67z" />
    <glyph glyph-name="Ncaron" unicode="&#x147;" horiz-adv-x="718" 
d="M638 0h-86l-327 516q-20 31 -36 62t-33 68v-646h-76v750h86l328 -516q12 -19 21 -34.5t17 -30.5t15 -30t15 -33v644h76v-750zM245 944h64l71 -95l71 95h63l-100 -148h-69z" />
    <glyph glyph-name="ncaron" unicode="&#x148;" horiz-adv-x="589" 
d="M440 0v381q0 60 -21.5 86.5t-76.5 26.5q-44 0 -93.5 -16t-95.5 -47v-431h-75v548h66l8 -52q40 26 93.5 46t104.5 20q89 0 127 -42.5t38 -119.5v-400h-75zM180 744h64l71 -95l71 95h63l-100 -148h-69z" />
    <glyph glyph-name="napostrophe" unicode="&#x149;" horiz-adv-x="612" 
d="M84 700l-42 -194h-52l20 194h74zM463 0v381q0 60 -21.5 86.5t-76.5 26.5q-44 0 -93.5 -16t-95.5 -47v-431h-75v548h66l8 -52q40 26 93.5 46t104.5 20q89 0 127 -42.5t38 -119.5v-400h-75z" />
    <glyph glyph-name="Eng" unicode="&#x14a;" horiz-adv-x="714" 
d="M634 -81q0 -68 -36 -104t-111 -36q-20 0 -44.5 3t-43.5 10v62q37 -10 84 -10q38 0 57 17t19 59v64l-334 532q-20 31 -36 62t-33 68v-646h-76v750h86l324 -517q12 -19 21 -34.5t17 -30t15 -29.5t15 -33v644h76v-831z" />
    <glyph glyph-name="eng" unicode="&#x14b;" horiz-adv-x="587" 
d="M515 -81q0 -68 -27.5 -104t-100.5 -36q-20 0 -47 2.5t-47 8.5v62q19 -3 39 -5.5t44 -2.5q38 0 51 17t13 59v461q0 60 -21.5 86.5t-76.5 26.5q-44 0 -93.5 -16t-95.5 -47v-431h-75v548h66l8 -52q40 26 93.5 46t104.5 20q89 0 127 -42.5t38 -119.5v-481z" />
    <glyph glyph-name="Omacron" unicode="&#x14c;" horiz-adv-x="740" 
d="M688 321q0 -163 -82 -248t-236 -85t-236 85t-82 248v108q0 162 82 247.5t236 85.5t236 -85.5t82 -247.5v-108zM609 422q0 139 -62.5 204t-176.5 65t-176.5 -65t-62.5 -204v-94q0 -140 62.5 -204.5t176.5 -64.5t176.5 64.5t62.5 204.5v94zM236 915h267v-60h-267v60z" />
    <glyph glyph-name="omacron" unicode="&#x14d;" horiz-adv-x="583" 
d="M533 242q0 -121 -62 -186.5t-180 -65.5q-117 0 -179 65.5t-62 186.5v68q0 121 62 186.5t179 65.5q118 0 180 -65.5t62 -186.5v-68zM458 311q0 96 -43 142t-124 46q-80 0 -123 -46t-43 -142v-70q0 -94 42.5 -141t123.5 -47q82 0 124.5 47t42.5 141v70zM158 715h267v-60
h-267v60z" />
    <glyph glyph-name="Obreve" unicode="&#x14e;" horiz-adv-x="740" 
d="M688 321q0 -163 -82 -248t-236 -85t-236 85t-82 248v108q0 162 82 247.5t236 85.5t236 -85.5t82 -247.5v-108zM609 422q0 139 -62.5 204t-176.5 65t-176.5 -65t-62.5 -204v-94q0 -140 62.5 -204.5t176.5 -64.5t176.5 64.5t62.5 204.5v94zM370 806q-31 0 -55 10.5
t-41.5 29.5t-27 44t-11.5 54h57q4 -37 22 -59.5t56 -22.5t57 22.5t22 59.5h56q-1 -29 -10.5 -54t-27 -44t-42 -29.5t-55.5 -10.5z" />
    <glyph glyph-name="obreve" unicode="&#x14f;" horiz-adv-x="583" 
d="M533 242q0 -121 -62 -186.5t-180 -65.5q-117 0 -179 65.5t-62 186.5v68q0 121 62 186.5t179 65.5q118 0 180 -65.5t62 -186.5v-68zM458 311q0 96 -43 142t-124 46q-80 0 -123 -46t-43 -142v-70q0 -94 42.5 -141t123.5 -47q82 0 124.5 47t42.5 141v70zM292 606
q-31 0 -55 10.5t-41.5 29.5t-27 44t-11.5 54h57q4 -37 22 -59.5t56 -22.5t57 22.5t22 59.5h56q-1 -29 -10.5 -54t-27 -44t-42 -29.5t-55.5 -10.5z" />
    <glyph glyph-name="Ohungarumlaut" unicode="&#x150;" horiz-adv-x="740" 
d="M688 321q0 -163 -82 -248t-236 -85t-236 85t-82 248v108q0 162 82 247.5t236 85.5t236 -85.5t82 -247.5v-108zM609 422q0 139 -62.5 204t-176.5 65t-176.5 -65t-62.5 -204v-94q0 -140 62.5 -204.5t176.5 -64.5t176.5 64.5t62.5 204.5v94zM453 940h79l-70 -134h-58z
M298 940h80l-70 -134h-60z" />
    <glyph glyph-name="ohungarumlaut" unicode="&#x151;" horiz-adv-x="583" 
d="M533 242q0 -121 -62 -186.5t-180 -65.5q-117 0 -179 65.5t-62 186.5v68q0 121 62 186.5t179 65.5q118 0 180 -65.5t62 -186.5v-68zM458 311q0 96 -43 142t-124 46q-80 0 -123 -46t-43 -142v-70q0 -94 42.5 -141t123.5 -47q82 0 124.5 47t42.5 141v70zM388 740h79
l-70 -134h-58zM233 740h80l-70 -134h-60z" />
    <glyph glyph-name="OE" unicode="&#x152;" horiz-adv-x="1020" 
d="M382 0q-77 0 -138 20t-103.5 60t-65.5 100.5t-23 141.5v106q0 81 23 141t65.5 100.5t103.5 60.5t138 20h582v-70h-385v-256h352v-69h-352v-285h399v-70h-596zM131 329q0 -70 18 -119t51 -80t79 -45t103 -14h119v608h-119q-57 0 -103.5 -14.5t-79.5 -45.5t-50.5 -80
t-17.5 -118v-92z" />
    <glyph glyph-name="oe" unicode="&#x153;" horiz-adv-x="938" 
d="M514 255v-24q0 -51 10.5 -85t34 -54.5t62 -29.5t94.5 -9q14 0 32.5 2t37 5t35 7.5t28.5 9.5v-61q-35 -14 -76.5 -20t-76.5 -6q-85 0 -137 24t-78 74q-54 -98 -195 -98q-112 0 -173.5 65.5t-61.5 186.5v68q0 121 61.5 186.5t173.5 65.5q74 0 123 -26.5t75 -77.5
q29 54 78.5 79t110.5 25q51 0 92 -13t70.5 -44t45.5 -83t16 -129v-38h-382zM449 311q0 96 -43 142t-121 46q-75 0 -117.5 -46t-42.5 -142v-70q0 -94 42 -141t118 -47q80 0 122 47t42 141v70zM514 313h310v5q0 42 -7.5 76t-25.5 57.5t-47 36t-71 12.5q-78 0 -118.5 -48.5
t-40.5 -133.5v-5z" />
    <glyph glyph-name="Racute" unicode="&#x154;" horiz-adv-x="655" 
d="M80 750h273q55 0 100.5 -7t77.5 -28t49.5 -59.5t17.5 -102.5v-45q0 -44 -8.5 -75.5t-26 -53.5t-44 -35t-62.5 -20l171 -324h-83l-164 315h-223v-315h-78v750zM158 681v-299h170q54 0 91 5t59.5 18.5t32.5 37t10 60.5v58q0 34 -9 57.5t-28.5 37t-51.5 19.5t-77 6h-197z
M369 940h97l-111 -134h-77z" />
    <glyph glyph-name="racute" unicode="&#x155;" horiz-adv-x="364" 
d="M350 487q-54 -5 -106 -25.5t-91 -59.5v-402h-75v548h66l8 -76q13 13 32.5 28t44.5 28t55.5 22.5t65.5 11.5v-75zM248 740h97l-111 -134h-77z" />
    <glyph glyph-name="uni0156" unicode="&#x156;" horiz-adv-x="655" 
d="M80 750h273q55 0 100.5 -7t77.5 -28t49.5 -59.5t17.5 -102.5v-45q0 -44 -8.5 -75.5t-26 -53.5t-44 -35t-62.5 -20l171 -324h-83l-164 315h-223v-315h-78v750zM158 681v-299h170q54 0 91 5t59.5 18.5t32.5 37t10 60.5v58q0 34 -9 57.5t-28.5 37t-51.5 19.5t-77 6h-197z
M324 -56h88l-63 -177h-67z" />
    <glyph glyph-name="uni0157" unicode="&#x157;" horiz-adv-x="364" 
d="M350 487q-54 -5 -106 -25.5t-91 -59.5v-402h-75v548h66l8 -76q13 13 32.5 28t44.5 28t55.5 22.5t65.5 11.5v-75zM72 -56h88l-63 -177h-67z" />
    <glyph glyph-name="Rcaron" unicode="&#x158;" horiz-adv-x="655" 
d="M80 750h273q55 0 100.5 -7t77.5 -28t49.5 -59.5t17.5 -102.5v-45q0 -44 -8.5 -75.5t-26 -53.5t-44 -35t-62.5 -20l171 -324h-83l-164 315h-223v-315h-78v750zM158 681v-299h170q54 0 91 5t59.5 18.5t32.5 37t10 60.5v58q0 34 -9 57.5t-28.5 37t-51.5 19.5t-77 6h-197z
M206 944h64l71 -95l71 95h63l-100 -148h-69z" />
    <glyph glyph-name="rcaron" unicode="&#x159;" horiz-adv-x="364" 
d="M350 487q-54 -5 -106 -25.5t-91 -59.5v-402h-75v548h66l8 -76q13 13 32.5 28t44.5 28t55.5 22.5t65.5 11.5v-75zM88 744h64l71 -95l71 95h63l-100 -148h-69z" />
    <glyph glyph-name="Sacute" unicode="&#x15a;" horiz-adv-x="592" 
d="M550 207q0 -46 -11.5 -85.5t-41 -69t-79.5 -46t-127 -16.5q-57 0 -118 9t-121 32v73q77 -28 134.5 -36.5t103.5 -8.5q98 0 140 34.5t42 106.5q0 30 -6 50.5t-21 35.5t-41.5 26t-68.5 22l-108 28q-90 23 -130.5 68t-40.5 129q0 103 59 152t188 49q57 0 108 -7t88 -20v-64
q-43 12 -86 17.5t-91 5.5q-52 0 -88.5 -6.5t-59 -22t-32.5 -41t-10 -63.5q0 -28 6 -48t20 -35t37 -25.5t56 -19.5l106 -28q60 -16 97.5 -33.5t59 -40.5t29 -52.5t7.5 -69.5zM344 940h97l-111 -134h-77z" />
    <glyph glyph-name="sacute" unicode="&#x15b;" horiz-adv-x="467" 
d="M431 151q0 -35 -9.5 -64.5t-32 -51t-60.5 -33.5t-95 -12q-42 0 -94 7.5t-94 24.5v66q54 -20 99.5 -27t84.5 -7q37 0 62 6.5t39.5 18.5t20.5 29t6 38t-2.5 35t-13 25t-33 20t-61.5 19l-46 12q-45 12 -74.5 25t-47 30.5t-24.5 41t-7 55.5q0 77 48 115t148 38q43 0 82.5 -5
t67.5 -15v-61q-32 9 -67 14t-73 5q-76 0 -105 -20.5t-29 -65.5q0 -20 3.5 -34t15 -25t32 -19.5t54.5 -16.5l46 -11q49 -12 80.5 -25.5t48.5 -32t23.5 -42.5t6.5 -57zM267 740h97l-111 -134h-77z" />
    <glyph glyph-name="Scircumflex" unicode="&#x15c;" horiz-adv-x="592" 
d="M550 207q0 -46 -11.5 -85.5t-41 -69t-79.5 -46t-127 -16.5q-57 0 -118 9t-121 32v73q77 -28 134.5 -36.5t103.5 -8.5q98 0 140 34.5t42 106.5q0 30 -6 50.5t-21 35.5t-41.5 26t-68.5 22l-108 28q-90 23 -130.5 68t-40.5 129q0 103 59 152t188 49q57 0 108 -7t88 -20v-64
q-43 12 -86 17.5t-91 5.5q-52 0 -88.5 -6.5t-59 -22t-32.5 -41t-10 -63.5q0 -28 6 -48t20 -35t37 -25.5t56 -19.5l106 -28q60 -16 97.5 -33.5t59 -40.5t29 -52.5t7.5 -69.5zM274 954h69l100 -148h-64l-71 95l-72 -95h-62z" />
    <glyph glyph-name="scircumflex" unicode="&#x15d;" horiz-adv-x="467" 
d="M431 151q0 -35 -9.5 -64.5t-32 -51t-60.5 -33.5t-95 -12q-42 0 -94 7.5t-94 24.5v66q54 -20 99.5 -27t84.5 -7q37 0 62 6.5t39.5 18.5t20.5 29t6 38t-2.5 35t-13 25t-33 20t-61.5 19l-46 12q-45 12 -74.5 25t-47 30.5t-24.5 41t-7 55.5q0 77 48 115t148 38q43 0 82.5 -5
t67.5 -15v-61q-32 9 -67 14t-73 5q-76 0 -105 -20.5t-29 -65.5q0 -20 3.5 -34t15 -25t32 -19.5t54.5 -16.5l46 -11q49 -12 80.5 -25.5t48.5 -32t23.5 -42.5t6.5 -57zM200 754h69l100 -148h-64l-71 95l-72 -95h-62z" />
    <glyph glyph-name="Scedilla" unicode="&#x15e;" horiz-adv-x="592" 
d="M280 -263q-40 0 -81 7v56q15 -2 33.5 -3.5t37.5 -1.5q27 0 43.5 4t25 11t11.5 15.5t3 17.5v8q0 11 -3.5 20t-14 15t-29.5 9t-49 3h-16v94q-47 3 -94.5 11.5t-94.5 27.5v73q77 -28 134.5 -36.5t103.5 -8.5q98 0 140 34.5t42 106.5q0 30 -6 50.5t-21 35.5t-41.5 26
t-68.5 22l-108 28q-90 23 -130.5 68t-40.5 129q0 103 59 152t188 49q57 0 108 -7t88 -20v-64q-43 12 -86 17.5t-91 5.5q-52 0 -88.5 -6.5t-59 -22t-32.5 -41t-10 -63.5q0 -28 6 -48t20 -35t37 -25.5t56 -19.5l106 -28q60 -16 97.5 -33.5t59 -40.5t29 -52.5t7.5 -69.5
q0 -45 -11 -83.5t-38.5 -67.5t-74 -46.5t-117.5 -19.5v-47q69 -5 94.5 -27.5t25.5 -64.5v-7q0 -31 -11.5 -51.5t-32 -33t-47.5 -17.5t-58 -5z" />
    <glyph glyph-name="scedilla" unicode="&#x15f;" horiz-adv-x="467" 
d="M221 -263q-40 0 -81 7v56q15 -2 33.5 -3.5t37.5 -1.5q27 0 43.5 4t25 11t11.5 15.5t3 17.5v8q0 11 -3.5 20t-14 15t-29.5 9t-49 3h-16v94q-35 3 -71 10t-65 20v66q54 -20 99.5 -27t84.5 -7q37 0 62 6.5t39.5 18.5t20.5 29t6 38t-2.5 35t-13 25t-33 20t-61.5 19l-46 12
q-45 12 -74.5 25t-47 30.5t-24.5 41t-7 55.5q0 77 48 115t148 38q43 0 82.5 -5t67.5 -15v-61q-32 9 -67 14t-73 5q-76 0 -105 -20.5t-29 -65.5q0 -20 3.5 -34t15 -25t32 -19.5t54.5 -16.5l46 -11q49 -12 80.5 -25.5t48.5 -32t23.5 -42.5t6.5 -57q0 -34 -8.5 -63t-29.5 -50
t-56 -33.5t-87 -14.5v-47q69 -5 94.5 -27.5t25.5 -64.5v-7q0 -31 -11.5 -51.5t-32 -33t-47.5 -17.5t-58 -5z" />
    <glyph glyph-name="Scaron" unicode="&#x160;" horiz-adv-x="592" 
d="M550 207q0 -46 -11.5 -85.5t-41 -69t-79.5 -46t-127 -16.5q-57 0 -118 9t-121 32v73q77 -28 134.5 -36.5t103.5 -8.5q98 0 140 34.5t42 106.5q0 30 -6 50.5t-21 35.5t-41.5 26t-68.5 22l-108 28q-90 23 -130.5 68t-40.5 129q0 103 59 152t188 49q57 0 108 -7t88 -20v-64
q-43 12 -86 17.5t-91 5.5q-52 0 -88.5 -6.5t-59 -22t-32.5 -41t-10 -63.5q0 -28 6 -48t20 -35t37 -25.5t56 -19.5l106 -28q60 -16 97.5 -33.5t59 -40.5t29 -52.5t7.5 -69.5zM164 944h64l71 -95l71 95h63l-100 -148h-69z" />
    <glyph glyph-name="scaron" unicode="&#x161;" horiz-adv-x="467" 
d="M431 151q0 -35 -9.5 -64.5t-32 -51t-60.5 -33.5t-95 -12q-42 0 -94 7.5t-94 24.5v66q54 -20 99.5 -27t84.5 -7q37 0 62 6.5t39.5 18.5t20.5 29t6 38t-2.5 35t-13 25t-33 20t-61.5 19l-46 12q-45 12 -74.5 25t-47 30.5t-24.5 41t-7 55.5q0 77 48 115t148 38q43 0 82.5 -5
t67.5 -15v-61q-32 9 -67 14t-73 5q-76 0 -105 -20.5t-29 -65.5q0 -20 3.5 -34t15 -25t32 -19.5t54.5 -16.5l46 -11q49 -12 80.5 -25.5t48.5 -32t23.5 -42.5t6.5 -57zM104 744h64l71 -95l71 95h63l-100 -148h-69z" />
    <glyph glyph-name="uni0162" unicode="&#x162;" horiz-adv-x="607" 
d="M308 -263q-40 0 -81 7v56q15 -2 33.5 -3.5t37.5 -1.5q27 0 43.5 4t25 11t11.5 15.5t3 17.5v8q0 11 -3.5 20t-14 15t-29.5 9t-49 3h-16v102h-5v679h-246v71h571v-71h-247v-679h-5v-57q69 -5 94.5 -27.5t25.5 -64.5v-7q0 -31 -11.5 -51.5t-32 -33t-47.5 -17.5t-58 -5z" />
    <glyph glyph-name="uni0163" unicode="&#x163;" horiz-adv-x="386" 
d="M191 -263q-40 0 -81 7v56q15 -2 33.5 -3.5t37.5 -1.5q27 0 43.5 4t25 11t11.5 15.5t3 17.5v8q0 11 -3.5 20t-14 15t-29.5 9t-49 3h-16v124q-33 32 -33 103v359h-99v64h99v124l75 24v-148h155v-64h-155v-337q0 -27 3.5 -44t11.5 -27.5t22 -14.5t34 -4t43.5 4.5t41.5 14.5
v-64q-10 -6 -23.5 -10t-27.5 -6.5t-28 -4t-24 -1.5q-8 0 -14.5 0.5t-12.5 1.5v-49q69 -5 94.5 -27.5t25.5 -64.5v-7q0 -31 -11.5 -51.5t-32 -33t-47.5 -17.5t-58 -5z" />
    <glyph glyph-name="Tcaron" unicode="&#x164;" horiz-adv-x="607" 
d="M18 750h571v-71h-247v-679h-78v679h-246v71zM169 944h64l71 -95l71 95h63l-100 -148h-69z" />
    <glyph glyph-name="tcaron" unicode="&#x165;" horiz-adv-x="386" 
d="M349 761l-25 -167h-53l8 167h70zM194 484v-337q0 -27 3.5 -44t11.5 -27.5t22 -14.5t34 -4t43.5 4.5t41.5 14.5v-64q-10 -6 -23.5 -10t-27.5 -6.5t-28 -4t-24 -1.5q-67 0 -97.5 34.5t-30.5 100.5v359h-99v64h99v124l75 24v-148h155v-64h-155z" />
    <glyph glyph-name="Tbar" unicode="&#x166;" horiz-adv-x="607" 
d="M18 750h571v-71h-247v-258h190v-62h-190v-359h-78v359h-190v62h190v258h-246v71z" />
    <glyph glyph-name="tbar" unicode="&#x167;" horiz-adv-x="386" 
d="M194 484v-141h160v-60h-160v-136q0 -27 3.5 -44t11.5 -27.5t22 -14.5t34 -4t43.5 4.5t41.5 14.5v-64q-10 -6 -23.5 -10t-27.5 -6.5t-28 -4t-24 -1.5q-67 0 -97.5 34.5t-30.5 100.5v158h-94v60h94v141h-99v64h99v124l75 24v-148h155v-64h-155z" />
    <glyph glyph-name="Utilde" unicode="&#x168;" horiz-adv-x="725" 
d="M150 750v-468q0 -61 12.5 -103.5t38 -69t65.5 -38.5t95 -12q57 0 97.5 12t66.5 38.5t38 69t12 103.5v468h78v-473q0 -149 -70 -219.5t-222 -70.5q-151 0 -220 70.5t-69 219.5v473h78zM425 813q-24 0 -40.5 10t-29 22.5t-24.5 22.5t-27 10q-17 0 -28.5 -17t-13.5 -47h-58
q2 24 8.5 46t18 39.5t28.5 27.5t41 10t41 -10t30 -22.5t24.5 -22.5t26.5 -10q22 0 30.5 17t10.5 48h58q-2 -22 -6.5 -44t-15.5 -40t-29 -29t-45 -11z" />
    <glyph glyph-name="utilde" unicode="&#x169;" horiz-adv-x="586" 
d="M149 548v-382q0 -54 20.5 -81t74.5 -27q43 0 93.5 17t95.5 47v426h75v-548h-66l-8 56q-41 -26 -94.5 -46t-104.5 -20q-87 0 -124 40t-37 118v400h75zM357 613q-24 0 -40.5 10t-29 22.5t-24.5 22.5t-27 10q-17 0 -28.5 -17t-13.5 -47h-58q2 24 8.5 46t18 39.5t28.5 27.5
t41 10t41 -10t30 -22.5t24.5 -22.5t26.5 -10q22 0 30.5 17t10.5 48h58q-2 -22 -6.5 -44t-15.5 -40t-29 -29t-45 -11z" />
    <glyph glyph-name="Umacron" unicode="&#x16a;" horiz-adv-x="725" 
d="M150 750v-468q0 -61 12.5 -103.5t38 -69t65.5 -38.5t95 -12q57 0 97.5 12t66.5 38.5t38 69t12 103.5v468h78v-473q0 -149 -70 -219.5t-222 -70.5q-151 0 -220 70.5t-69 219.5v473h78zM229 915h267v-60h-267v60z" />
    <glyph glyph-name="umacron" unicode="&#x16b;" horiz-adv-x="586" 
d="M149 548v-382q0 -54 20.5 -81t74.5 -27q43 0 93.5 17t95.5 47v426h75v-548h-66l-8 56q-41 -26 -94.5 -46t-104.5 -20q-87 0 -124 40t-37 118v400h75zM161 715h267v-60h-267v60z" />
    <glyph glyph-name="Ubreve" unicode="&#x16c;" horiz-adv-x="725" 
d="M150 750v-468q0 -61 12.5 -103.5t38 -69t65.5 -38.5t95 -12q57 0 97.5 12t66.5 38.5t38 69t12 103.5v468h78v-473q0 -149 -70 -219.5t-222 -70.5q-151 0 -220 70.5t-69 219.5v473h78zM362 806q-31 0 -55 10.5t-41.5 29.5t-27 44t-11.5 54h57q4 -37 22 -59.5t56 -22.5
t57 22.5t22 59.5h56q-1 -29 -10.5 -54t-27 -44t-42 -29.5t-55.5 -10.5z" />
    <glyph glyph-name="ubreve" unicode="&#x16d;" horiz-adv-x="586" 
d="M149 548v-382q0 -54 20.5 -81t74.5 -27q43 0 93.5 17t95.5 47v426h75v-548h-66l-8 56q-41 -26 -94.5 -46t-104.5 -20q-87 0 -124 40t-37 118v400h75zM294 606q-31 0 -55 10.5t-41.5 29.5t-27 44t-11.5 54h57q4 -37 22 -59.5t56 -22.5t57 22.5t22 59.5h56
q-1 -29 -10.5 -54t-27 -44t-42 -29.5t-55.5 -10.5z" />
    <glyph glyph-name="Uring" unicode="&#x16e;" horiz-adv-x="725" 
d="M150 750v-468q0 -61 12.5 -103.5t38 -69t65.5 -38.5t95 -12q57 0 97.5 12t66.5 38.5t38 69t12 103.5v468h78v-473q0 -149 -70 -219.5t-222 -70.5q-151 0 -220 70.5t-69 219.5v473h78zM362 839q24 0 39 14.5t15 40.5q0 24 -15 39.5t-39 15.5t-39 -15.5t-15 -39.5
q0 -26 15 -40.5t39 -14.5zM362 795q-22 0 -41 8t-32.5 21.5t-21 31.5t-7.5 38q0 41 28.5 70t73.5 29q22 0 41 -8t33 -21.5t21.5 -31.5t7.5 -38t-7.5 -38t-21.5 -31.5t-33 -21.5t-41 -8z" />
    <glyph glyph-name="uring" unicode="&#x16f;" horiz-adv-x="586" 
d="M149 548v-382q0 -54 20.5 -81t74.5 -27q43 0 93.5 17t95.5 47v426h75v-548h-66l-8 56q-41 -26 -94.5 -46t-104.5 -20q-87 0 -124 40t-37 118v400h75zM294 639q24 0 39 14.5t15 40.5q0 24 -15 39.5t-39 15.5t-39 -15.5t-15 -39.5q0 -26 15 -40.5t39 -14.5zM294 595
q-22 0 -41 8t-32.5 21.5t-21 31.5t-7.5 38q0 41 28.5 70t73.5 29q22 0 41 -8t33 -21.5t21.5 -31.5t7.5 -38t-7.5 -38t-21.5 -31.5t-33 -21.5t-41 -8z" />
    <glyph glyph-name="Uhungarumlaut" unicode="&#x170;" horiz-adv-x="725" 
d="M150 750v-468q0 -61 12.5 -103.5t38 -69t65.5 -38.5t95 -12q57 0 97.5 12t66.5 38.5t38 69t12 103.5v468h78v-473q0 -149 -70 -219.5t-222 -70.5q-151 0 -220 70.5t-69 219.5v473h78zM456 940h79l-70 -134h-58zM301 940h80l-70 -134h-60z" />
    <glyph glyph-name="uhungarumlaut" unicode="&#x171;" horiz-adv-x="586" 
d="M149 548v-382q0 -54 20.5 -81t74.5 -27q43 0 93.5 17t95.5 47v426h75v-548h-66l-8 56q-41 -26 -94.5 -46t-104.5 -20q-87 0 -124 40t-37 118v400h75zM380 740h79l-70 -134h-58zM225 740h80l-70 -134h-60z" />
    <glyph glyph-name="Uogonek" unicode="&#x172;" horiz-adv-x="725" 
d="M428 -223q-63 0 -97 27t-34 69v9q0 32 23.5 60t52.5 45h-12q-151 0 -220 70.5t-69 219.5v473h78v-468q0 -61 12.5 -103.5t38 -69t65.5 -38.5t95 -12q57 0 97.5 12t66.5 38.5t38 69t12 103.5v468h78v-473q0 -118 -43.5 -186.5t-136.5 -91.5q-39 -20 -68 -48.5t-29 -58.5
v-8q0 -23 16 -34.5t55 -11.5q15 0 33 2t29 5v-57q-13 -4 -33 -7.5t-48 -3.5z" />
    <glyph glyph-name="uogonek" unicode="&#x173;" horiz-adv-x="586" 
d="M149 548v-382q0 -54 20.5 -81t74.5 -27q43 0 93.5 17t95.5 47v426h75v-548h-2q-20 -10 -38 -22.5t-31.5 -26.5t-21.5 -29t-8 -30v-8q0 -23 16 -34.5t55 -11.5q15 0 33 2t29 5v-57q-13 -4 -33 -7.5t-48 -3.5q-63 0 -97 27t-34 69v9q0 21 10.5 40.5t27 35.5t36.5 27.5
t39 16.5l-7 54q-41 -26 -94.5 -46t-104.5 -20q-87 0 -124 40t-37 118v400h75z" />
    <glyph glyph-name="Wcircumflex" unicode="&#x174;" horiz-adv-x="943" 
d="M514 464q-11 39 -22 85.5t-20 100.5q-11 -55 -22 -101t-22 -85l-127 -464h-83l-208 750h83l129 -493q9 -35 19 -76.5t19 -92.5q11 49 21 91.5t20 77.5l133 493h74l138 -493q9 -32 18.5 -73t17.5 -92q9 45 19 87.5t20 77.5l133 493h79l-215 -750h-75zM437 954h69l100 -148
h-64l-71 95l-72 -95h-62z" />
    <glyph glyph-name="wcircumflex" unicode="&#x175;" horiz-adv-x="800" 
d="M101 548l110 -345q8 -27 15.5 -51.5t16.5 -59.5h1q8 36 13 60t13 51l100 345h68l104 -345q8 -26 14.5 -52t13.5 -59h1q8 33 15 59t15 52l103 345h72l-171 -548h-72l-104 345q-5 16 -8.5 29t-6 26t-5 27t-4.5 31h-1q-5 -34 -10 -57.5t-14 -55.5l-102 -345h-71l-183 548h77
zM371 754h69l100 -148h-64l-71 95l-72 -95h-62z" />
    <glyph glyph-name="Ycircumflex" unicode="&#x176;" horiz-adv-x="592" 
d="M339 313v-313h-77v311l-256 439h85l142 -253q18 -32 35.5 -64t32.5 -66q16 35 32.5 67t33.5 63l136 253h83zM267 954h69l100 -148h-64l-71 95l-72 -95h-62z" />
    <glyph glyph-name="ycircumflex" unicode="&#x177;" horiz-adv-x="533" 
d="M225 -213h-75l82 213l-218 548h81l131 -345q13 -33 23 -64t22 -74q13 45 23.5 77.5t21.5 63.5l128 342h75zM237 754h69l100 -148h-64l-71 95l-72 -95h-62z" />
    <glyph glyph-name="Ydieresis" unicode="&#x178;" horiz-adv-x="592" 
d="M339 313v-313h-77v311l-256 439h85l142 -253q18 -32 35.5 -64t32.5 -66q16 35 32.5 67t33.5 63l136 253h83zM172 912h81v-89h-81v89zM348 912h81v-89h-81v89z" />
    <glyph glyph-name="Zacute" unicode="&#x179;" horiz-adv-x="608" 
d="M183 158q-15 -21 -31.5 -43.5t-36.5 -48.5h460v-66h-549v59l380 533q16 22 33.5 45.5t34.5 46.5h-433v66h522v-59zM331 940h97l-111 -134h-77z" />
    <glyph glyph-name="zacute" unicode="&#x17a;" horiz-adv-x="488" 
d="M190 151q-32 -44 -70 -89h339v-62h-425v55l264 353q16 21 31 40t30 37h-314v63h400v-56zM281 740h97l-111 -134h-77z" />
    <glyph glyph-name="Zdotaccent" unicode="&#x17b;" horiz-adv-x="608" 
d="M183 158q-15 -21 -31.5 -43.5t-36.5 -48.5h460v-66h-549v59l380 533q16 22 33.5 45.5t34.5 46.5h-433v66h522v-59zM263 913h81v-89h-81v89z" />
    <glyph glyph-name="zdotaccent" unicode="&#x17c;" horiz-adv-x="488" 
d="M190 151q-32 -44 -70 -89h339v-62h-425v55l264 353q16 21 31 40t30 37h-314v63h400v-56zM209 713h81v-89h-81v89z" />
    <glyph glyph-name="Zcaron" unicode="&#x17d;" horiz-adv-x="608" 
d="M183 158q-15 -21 -31.5 -43.5t-36.5 -48.5h460v-66h-549v59l380 533q16 22 33.5 45.5t34.5 46.5h-433v66h522v-59zM174 944h64l71 -95l71 95h63l-100 -148h-69z" />
    <glyph glyph-name="zcaron" unicode="&#x17e;" horiz-adv-x="488" 
d="M190 151q-32 -44 -70 -89h339v-62h-425v55l264 353q16 21 31 40t30 37h-314v63h400v-56zM117 744h64l71 -95l71 95h63l-100 -148h-69z" />
    <glyph glyph-name="longs" unicode="&#x17f;" horiz-adv-x="368" 
d="M161 0h-75v646q0 69 37.5 98.5t100.5 29.5q30 0 57 -4t42 -9v-57q-17 3 -35.5 5t-37.5 2q-24 0 -40.5 -3t-27.5 -12t-16 -25.5t-5 -42.5v-628z" />
    <glyph glyph-name="uni0180" unicode="&#x180;" horiz-adv-x="602" 
d="M-5 672h83v78l74 24v-102h163v-60h-163v-128q16 9 38 20.5t49 21t57 16t62 6.5q50 0 85.5 -15t58.5 -41t33.5 -61.5t10.5 -75.5v-140q0 -63 -16 -106t-44.5 -69.5t-68 -38.5t-85.5 -12q-58 0 -104 18.5t-81 41.5l-6 -49h-63v612h-83v60zM152 113q24 -18 49 -29t48 -17.5
t42.5 -8.5t33.5 -2q76 0 111 39.5t35 128.5v108q0 82 -32 115t-97 33q-51 0 -101.5 -19.5t-88.5 -42.5v-305z" />
    <glyph glyph-name="uni0181" unicode="&#x181;" horiz-adv-x="748" 
d="M182 682h-34q-50 0 -68.5 -17.5t-18.5 -58.5q0 -20 2.5 -35.5t5.5 -26.5h-64q-5 16 -7.5 36t-2.5 43q0 66 37 96.5t116 30.5h276q55 0 100 -6.5t77 -24.5t49 -51t17 -85v-46q0 -24 -5 -46.5t-17.5 -41.5t-34.5 -33.5t-56 -22.5q74 -10 107 -48t33 -93v-74
q0 -54 -15 -88.5t-47 -54.5t-82.5 -27.5t-121.5 -7.5h-246v682zM260 358v-291h170q54 0 90 5t57.5 18.5t30.5 37t9 60.5v55q0 29 -8 50.5t-28 36t-54 21.5t-85 7h-182zM260 683v-262h177q34 0 62 5t48 17t31.5 33.5t11.5 54.5v51q0 31 -8 50.5t-27.5 30.5t-51.5 15.5
t-81 4.5h-162z" />
    <glyph glyph-name="uni0182" unicode="&#x182;" horiz-adv-x="650" 
d="M80 750h450v-68h-372v-256h173q68 0 118 -8.5t82.5 -28.5t48.5 -54t16 -86v-62q0 -59 -17 -95.5t-49 -57t-80 -27.5t-109 -7h-261v750zM344 69q49 0 82.5 5t54 18.5t29 37t8.5 60.5v53q0 36 -9.5 58.5t-31 35t-55.5 17.5t-83 5h-181v-290h186z" />
    <glyph glyph-name="uni0183" unicode="&#x183;" horiz-adv-x="602" 
d="M358 522q50 0 85.5 -15t58.5 -41t33.5 -61.5t10.5 -75.5v-114q0 -63 -16 -106t-44.5 -69.5t-68 -38.5t-85.5 -12q-58 0 -104 18.5t-81 41.5l-6 -49h-63v759h426v-67h-352v-234q16 9 38 20.5t49 21t57 16t62 6.5zM152 113q24 -18 49 -29t48 -17.5t42.5 -8.5t33.5 -2
q76 0 111 39.5t35 128.5v82q0 82 -32 115t-97 33q-51 0 -101.5 -19.5t-88.5 -42.5v-279z" />
    <glyph glyph-name="uni0184" unicode="&#x184;" horiz-adv-x="664" 
d="M80 750h78v-250h201q65 0 110.5 -8.5t73.5 -30t40.5 -58.5t12.5 -94v-123q0 -55 -14.5 -91t-42.5 -57t-69 -29.5t-93 -8.5h-78q-59 0 -100.5 10t-67.5 33t-38.5 60.5t-12.5 93.5v553zM380 69q42 0 69 7.5t42 21.5t21 35t6 48v130q0 37 -7 61t-25 37.5t-50 18.5t-82 5
h-196v-244q0 -32 6.5 -54.5t22 -37t43 -21.5t69.5 -7h81z" />
    <glyph glyph-name="uni0185" unicode="&#x185;" horiz-adv-x="597" 
d="M78 750l74 24v-276q16 10 39 21.5t50 21t57.5 15.5t61.5 6q46 0 80.5 -14t58 -39.5t35.5 -60t12 -75.5v-154q0 -118 -55 -173.5t-170 -55.5h-25q-106 0 -162 36.5t-56 119.5v604zM152 161q0 -57 33 -82t113 -25h19q82 0 118 42t36 135v117q0 79 -31.5 112.5t-97.5 33.5
q-24 0 -49.5 -5t-50 -14t-48 -20t-42.5 -23v-271z" />
    <glyph glyph-name="uni0186" unicode="&#x186;" horiz-adv-x="618" 
d="M59 735q36 14 86 19.5t104 5.5q75 0 133.5 -16.5t99 -55t61.5 -101t21 -154.5v-123q0 -83 -15.5 -143t-52 -99.5t-97 -58.5t-150.5 -19q-49 0 -105 7t-96 24v66q50 -16 100.5 -21.5t95.5 -5.5q72 0 118.5 15t74.5 45t39 75t11 106v140q0 63 -12 110t-40.5 78t-74.5 46.5
t-115 15.5q-51 0 -101.5 -5.5t-84.5 -16.5v66z" />
    <glyph glyph-name="uni0187" unicode="&#x187;" horiz-adv-x="620" 
d="M474.5 685.5q-50.5 5.5 -101.5 5.5q-69 0 -115 -15.5t-74.5 -46.5t-40.5 -78t-12 -110v-140q0 -61 11 -106t39 -75t74.5 -45t118.5 -15q45 0 95.5 5.5t100.5 21.5v-66q-40 -17 -96 -24t-105 -7q-90 0 -150.5 19t-97 58.5t-52 99.5t-15.5 143v123q0 92 21 154.5t61.5 101
t99 55t133.5 16.5q31 0 61 -1.5t58 -6.5v11q1 77 30.5 109t92.5 32q21 0 37 -2.5t29 -6.5v-61q-11 3 -23 5t-32 2q-34 0 -48.5 -17.5t-14.5 -62.5v-92q-34 11 -84.5 16.5z" />
    <glyph glyph-name="uni0188" unicode="&#x188;" horiz-adv-x="525" 
d="M437 503v-22q-35 11 -69.5 14t-69.5 3q-50 0 -83.5 -13t-53.5 -36.5t-29 -56t-9 -72.5v-86q0 -41 8 -74.5t28 -57t54 -36.5t87 -13q32 0 70 5t77 19v-62q-34 -15 -76 -20t-78 -5q-123 0 -184 56.5t-61 188.5v75q0 69 17.5 117t49.5 78t77 43.5t100 13.5q20 0 39.5 -1.5
t39.5 -3.5v2q1 77 29 109t91 32q21 0 38.5 -3t30.5 -7v-60q-11 3 -24.5 5.5t-33.5 2.5q-34 0 -48.5 -18t-14.5 -63v-54h-2z" />
    <glyph glyph-name="uni0189" unicode="&#x189;" horiz-adv-x="717" 
d="M10 420h84v330h247q86 0 147 -15.5t100 -53t57 -99.5t18 -155v-117q0 -86 -14 -145t-50 -96t-97.5 -53t-155.5 -16h-252v350h-84v70zM172 680v-260h231v-70h-231v-280h169q78 0 126 14.5t74 44t35 73t9 101.5v138q0 62 -11 107t-38 74.5t-73.5 43.5t-116.5 14h-174z" />
    <glyph glyph-name="uni018A" unicode="&#x18a;" horiz-adv-x="805" 
d="M182 0v682h-34q-50 0 -68.5 -17.5t-18.5 -58.5q0 -20 2.5 -35.5t5.5 -26.5h-64q-5 16 -7.5 36t-2.5 43q0 66 37 96.5t116 30.5h281q86 0 147 -15.5t100 -53t57 -99.5t18 -155v-117q0 -86 -14 -145t-50 -96t-97.5 -53t-155.5 -16h-252zM260 680v-610h169q78 0 126 14.5
t74 44t35 73t9 101.5v138q0 62 -11 107t-38 74.5t-73.5 43.5t-116.5 14h-174z" />
    <glyph glyph-name="uni018B" unicode="&#x18b;" horiz-adv-x="650" 
d="M570 0h-261q-62 0 -109.5 7t-79.5 27.5t-49 57t-17 95.5v62q0 52 16 86t48.5 54t82.5 28.5t118 8.5h173v256h-372v68h450v-750zM492 69v290h-181q-49 0 -83 -5t-55.5 -17.5t-31 -35t-9.5 -58.5v-53q0 -37 8.5 -60.5t29 -37t53.5 -18.5t83 -5h186z" />
    <glyph glyph-name="uni018C" unicode="&#x18c;" horiz-adv-x="602" 
d="M244 522q32 0 62 -6.5t57 -16t49 -21t38 -20.5v234h-352v67h426v-759h-63l-6 49q-35 -23 -81 -41.5t-104 -18.5q-47 0 -86 12t-67.5 38.5t-44.5 69.5t-16 106v114q0 40 10.5 75.5t33.5 61.5t58.5 41t85.5 15zM450 392q-38 23 -88.5 42.5t-101.5 19.5q-65 0 -97 -33
t-32 -115v-82q0 -89 35 -128.5t111 -39.5q14 0 33.5 2t42.5 8.5t48 17.5t49 29v279z" />
    <glyph glyph-name="uni018D" unicode="&#x18d;" horiz-adv-x="571" 
d="M385 -99q0 17 -13 31t-39 30t-65 36.5t-92 51.5q-71 41 -98.5 101t-27.5 128v41q0 121 61.5 181.5t173.5 60.5q114 0 175 -60.5t61 -181.5v-41q0 -112 -57 -170.5t-161 -63.5q46 -24 76.5 -42.5t48.5 -35t25 -33.5t7 -37v-7q0 -22 -8.5 -42.5t-29 -36t-54.5 -25t-85 -9.5
q-42 0 -78.5 7t-73.5 24v64q36 -17 75.5 -24.5t73.5 -7.5q31 0 51.5 5t32.5 13.5t16.5 18.5t4.5 19v5zM285 498q-37 0 -66.5 -10t-50.5 -31.5t-32 -56.5t-11 -85v-30q0 -99 43 -142t117 -43t117.5 43t43.5 142v30q0 50 -11 85t-32 56.5t-51 31.5t-67 10z" />
    <glyph glyph-name="uni018E" unicode="&#x18e;" 
d="M519 750v-750h-477v70h399v285h-352v69h352v256h-385v70h463z" />
    <glyph glyph-name="uni018F" unicode="&#x18f;" horiz-adv-x="689" 
d="M559 406v43q0 64 -13.5 109.5t-43.5 75t-79 43.5t-119 14q-41 0 -91.5 -7.5t-100.5 -24.5v68q43 17 97 26.5t101 9.5q91 0 153.5 -21t101 -63t55.5 -105.5t17 -149.5v-90q0 -93 -22 -159t-61 -107.5t-93 -61t-119 -19.5q-62 0 -116.5 17t-94.5 57t-63 105.5t-23 162.5v77
h514zM123 308q0 -57 12.5 -103.5t38.5 -79.5t67.5 -51t99.5 -18q110 0 164 64.5t54 180.5v39h-436v-32z" />
    <glyph glyph-name="uni0190" unicode="&#x190;" horiz-adv-x="582" 
d="M319 353q-37 0 -70.5 -6.5t-59 -23t-40.5 -44t-15 -69.5q0 -70 48 -110.5t155 -40.5q63 0 119.5 10t99.5 27v-70q-38 -15 -94 -27t-128 -12q-139 0 -210.5 57.5t-71.5 165.5q0 70 37 115t112 62q-37 11 -61.5 29.5t-39.5 41.5t-21 48t-6 49q0 101 69.5 154.5t199.5 53.5
q63 0 109 -8.5t84 -23.5v-68q-45 16 -89.5 23t-98.5 7q-102 0 -147.5 -35.5t-45.5 -101.5q0 -69 42.5 -102t120.5 -33h127v-68h-125z" />
    <glyph glyph-name="uni0191" unicode="&#x191;" horiz-adv-x="571" 
d="M533 750v-70h-375v-278h344v-70h-344v-350q0 -82 -30.5 -119t-102.5 -37q-48 0 -78 11v65q12 -3 28 -6t37 -3q41 0 54.5 23t13.5 77v757h453z" />
    <glyph glyph-name="florin" unicode="&#x192;" horiz-adv-x="368" 
d="M344 548v-64h-153v-481q0 -94 -30.5 -135.5t-106.5 -41.5q-23 0 -45 3.5t-37 8.5v61q13 -4 31 -6.5t39 -2.5q41 0 57.5 23t16.5 77v494h-96v64h96v98q0 69 37.5 98.5t100.5 29.5q30 0 57 -4t42 -9v-57q-17 3 -35.5 5t-37.5 2q-24 0 -40.5 -3t-27.5 -12t-16 -25.5
t-5 -42.5v-80h153z" />
    <glyph glyph-name="uni0193" unicode="&#x193;" horiz-adv-x="686" 
d="M566 669q-41 11 -83.5 16.5t-99.5 5.5q-78 0 -127 -19.5t-76 -53.5t-37 -79t-10 -97v-130q0 -60 10.5 -107t39.5 -79t79.5 -49t130.5 -17q39 0 76 3.5t73 11.5v261h-168v66h245v-377q-24 -9 -53.5 -16t-60.5 -11t-61 -6t-57 -2q-93 0 -156.5 20t-103 60t-56.5 100
t-17 140v120q0 173 79.5 251.5t246.5 78.5q33 0 62.5 -2t55.5 -6v11q1 77 29 109t91 32q21 0 37 -2.5t29 -6.5v-61q-11 3 -23 5t-32 2q-34 0 -48.5 -17.5t-14.5 -62.5v-92z" />
    <glyph glyph-name="uni0194" unicode="&#x194;" horiz-adv-x="592" 
d="M129 127q0 18 5 34.5t12 32t15 29t15 24.5l77 121l-237 382h84l195 -316l200 316h81l-242 -380l70 -111q23 -37 39.5 -70.5t17.5 -62.5v-13q0 -58 -46.5 -91.5t-122.5 -33.5q-42 0 -72.5 11t-50.5 29t-30 41t-10 48v10zM292 305l-54 -85q-11 -17 -18 -29.5t-11.5 -22.5
t-6 -19.5t-1.5 -19.5v-6q0 -37 25.5 -54.5t65.5 -17.5q42 0 68.5 19.5t26.5 52.5v6q0 20 -9.5 37.5t-31.5 53.5z" />
    <glyph glyph-name="uni0195" unicode="&#x195;" horiz-adv-x="925" 
d="M430 381q0 60 -21 86.5t-77 26.5q-45 0 -88.5 -16.5t-90.5 -45.5v-432h-75v750l75 24v-277q40 24 88.5 44.5t99.5 20.5q86 0 125 -41t39 -119v-232q0 -54 30 -84t106 -30q70 0 103 30t33 84v378h75v-384q0 -82 -52.5 -128t-158.5 -46q-96 0 -153.5 42.5t-57.5 133.5v215z
" />
    <glyph glyph-name="uni0196" unicode="&#x196;" horiz-adv-x="310" 
d="M78 750l75 24v-630q0 -27 3 -44t10.5 -27t20 -14t32.5 -4t42.5 3t42.5 11v-63q-20 -8 -46.5 -12t-52.5 -4q-71 0 -99 33.5t-28 109.5v617z" />
    <glyph glyph-name="uni0197" unicode="&#x197;" horiz-adv-x="293" 
d="M186 423h127v-63h-127v-360h-78v360h-127v63h127v327h78v-327z" />
    <glyph glyph-name="uni0198" unicode="&#x198;" horiz-adv-x="653" 
d="M628 689q-7 3 -15 5t-19 2q-12 0 -20.5 -3.5t-17 -11t-18 -21t-23.5 -32.5l-179 -249l296 -379h-96l-266 344h-112v-344h-78v750h78v-337h117l178 252q19 27 33 45t28 29.5t29.5 16.5t36.5 5q17 0 28.5 -3t19.5 -8v-61z" />
    <glyph glyph-name="uni0199" unicode="&#x199;" horiz-adv-x="524" 
d="M238 334l181 214h86l-214 -248l220 -300h-89l-192 269h-77v-269h-75v626q0 76 30 112t96 36q23 0 40 -2.5t30 -7.5v-59q-11 3 -25 5.5t-34 2.5q-38 0 -50 -20t-12 -68v-291h85z" />
    <glyph glyph-name="uni019A" unicode="&#x19a;" horiz-adv-x="359" 
d="M22 427h117v323l75 24v-347h123v-63h-123v-364h-75v364h-117v63z" />
    <glyph glyph-name="uni019B" unicode="&#x19b;" horiz-adv-x="533" 
d="M62 527l152 69l-29 83q-6 17 -17 25.5t-31 8.5q-18 0 -33.5 -5t-23.5 -9v58q14 8 33 12.5t38 4.5q42 0 65 -19.5t34 -50.5l28 -78l148 68v-60l-128 -59l223 -575h-75l-128 342q-6 15 -11 28.5t-10 27.5t-10.5 30t-11.5 36q-6 -21 -11.5 -38.5t-11 -33t-12 -31.5
t-13.5 -35l-130 -326h-81l221 529l-6 16l-169 -77v59z" />
    <glyph glyph-name="uni019C" unicode="&#x19c;" horiz-adv-x="966" 
d="M156 751v-577q0 -52 26.5 -80t77.5 -28q16 0 38 3t46.5 10t50 18t48.5 27v627h78v-577q0 -52 23.5 -80t74.5 -28q16 0 39.5 3t49 10.5t51.5 18.5t49 28v625h78v-751h-69l-8 58q-40 -29 -95.5 -47t-105.5 -18q-48 0 -87 18.5t-59 55.5q-54 -38 -109.5 -56t-103.5 -18
q-35 0 -66 10t-54.5 30t-37 50t-13.5 70v598h78z" />
    <glyph glyph-name="uni019D" unicode="&#x19d;" horiz-adv-x="718" 
d="M638 0h-86l-327 516q-20 31 -36 62t-33 68v-664q0 -82 -29.5 -119t-101.5 -37q-48 0 -78 11v65q12 -3 28 -6t37 -3t34 5.5t20.5 17t10.5 30t3 44.5v760h86l328 -516q12 -19 21 -34.5t17 -30.5t15 -30t15 -33v644h76v-750z" />
    <glyph glyph-name="uni019E" unicode="&#x19e;" horiz-adv-x="587" 
d="M440 -216v597q0 60 -21.5 86.5t-76.5 26.5q-44 0 -93.5 -16t-95.5 -47v-431h-75v548h66l8 -52q40 26 93.5 46t104.5 20q89 0 127 -42.5t38 -119.5v-616h-75z" />
    <glyph glyph-name="uni019F" unicode="&#x19f;" horiz-adv-x="740" 
d="M688 321q0 -163 -82 -248t-236 -85t-236 85t-82 248v108q0 162 82 247.5t236 85.5t236 -85.5t82 -247.5v-108zM609 347h-478v-19q0 -140 62.5 -204.5t176.5 -64.5t176.5 64.5t62.5 204.5v19zM131 411h478v11q0 139 -62.5 204t-176.5 65t-176.5 -65t-62.5 -204v-11z" />
    <glyph glyph-name="Ohorn" unicode="&#x1a0;" horiz-adv-x="771" 
d="M688 321q0 -163 -82 -248t-236 -85t-236 85t-82 248v108q0 162 82 247.5t236 85.5q81 0 142.5 -24.5t102.5 -72.5h32q50 0 67.5 15t17.5 57q0 20 -2.5 35t-5.5 26h67q5 -16 7.5 -35t2.5 -42q0 -63 -33 -92t-102 -29h-10q32 -73 32 -171v-108zM609 422q0 139 -62.5 204
t-176.5 65t-176.5 -65t-62.5 -204v-94q0 -140 62.5 -204.5t176.5 -64.5t176.5 64.5t62.5 204.5v94z" />
    <glyph glyph-name="ohorn" unicode="&#x1a1;" horiz-adv-x="621" 
d="M527 242q0 -121 -60.5 -186.5t-178.5 -65.5q-117 0 -177.5 65.5t-60.5 186.5v68q0 121 60.5 186.5t177.5 65.5q147 0 205 -103h20q35 0 49 16t14 54q0 18 -2 32.5t-4 25.5h63q4 -15 6 -36t2 -41q0 -59 -31.5 -87.5t-85.5 -28.5h-6q9 -39 9 -84v-68zM452 311
q0 96 -41.5 142t-122.5 46q-80 0 -121.5 -46t-41.5 -142v-70q0 -188 163 -188q164 0 164 188v70z" />
    <glyph glyph-name="uni01A2" unicode="&#x1a2;" horiz-adv-x="1034" 
d="M688 321q0 -163 -82 -248t-236 -85t-236 85t-82 248v108q0 162 82 247.5t236 85.5q63 0 113.5 -14.5t88.5 -42.5q32 20 79.5 38.5t111.5 18.5q91 0 142 -41t51 -121v-816h-76v795q0 55 -26.5 84.5t-96.5 29.5q-33 0 -68 -10t-65 -29q64 -84 64 -225v-108zM609 422
q0 139 -62.5 204t-176.5 65t-176.5 -65t-62.5 -204v-94q0 -140 62.5 -204.5t176.5 -64.5t176.5 64.5t62.5 204.5v94z" />
    <glyph glyph-name="uni01A3" unicode="&#x1a3;" horiz-adv-x="855" 
d="M530 242q0 -121 -62 -186.5t-180 -65.5q-117 0 -179 65.5t-62 186.5v68q0 121 62 186.5t179 65.5q100 0 160 -48q28 20 67 34t88 14q92 0 134.5 -40t42.5 -120v-618h-75v602q0 28 -4.5 49t-16 35.5t-32.5 21.5t-54 7q-27 0 -53.5 -8t-54.5 -25q40 -62 40 -156v-68z
M455 311q0 96 -43 142t-124 46q-80 0 -123 -46t-43 -142v-70q0 -94 42.5 -141t123.5 -47q82 0 124.5 47t42.5 141v70z" />
    <glyph glyph-name="uni01A4" unicode="&#x1a4;" horiz-adv-x="735" 
d="M182 682h-34q-50 0 -68.5 -17.5t-18.5 -58.5q0 -20 2.5 -35.5t5.5 -26.5h-64q-5 16 -7.5 36t-2.5 43q0 66 37 96.5t116 30.5h305q55 0 101 -7t78 -28t50 -60.5t18 -103.5v-51q0 -60 -16 -98t-49 -59.5t-83 -29.5t-117 -8h-175v-305h-78v682zM260 681v-308h170q54 0 91 5
t59.5 18.5t32.5 37t10 61.5v67q0 34 -9 57t-29 37t-51.5 19.5t-76.5 5.5h-197z" />
    <glyph glyph-name="uni01A5" unicode="&#x1a5;" horiz-adv-x="601" 
d="M152 83q35 -15 77 -22.5t77 -7.5q49 0 81 12t50.5 34t25.5 53.5t7 70.5v125q0 78 -30 112t-99 34q-22 0 -46.5 -5t-49.5 -13t-49 -19.5t-44 -24.5v-349zM152 498q35 22 88 43t116 21q48 0 83.5 -14t59.5 -39.5t35.5 -60t11.5 -75.5v-160q0 -61 -15 -103.5t-44.5 -69.5
t-73.5 -39t-102 -12q-17 0 -37.5 2t-41.5 6t-41.5 9.5t-38.5 12.5v-235h-74v839q0 76 28.5 113.5t102.5 37.5q17 0 34.5 -2.5t29.5 -7.5v-59q-11 3 -25.5 5.5t-31.5 2.5q-38 0 -51 -19.5t-13 -67.5v-128z" />
    <glyph glyph-name="uni01A6" unicode="&#x1a6;" horiz-adv-x="655" 
d="M80 750h78v-106h195q55 0 100.5 -7t77.5 -28t49.5 -59.5t17.5 -102.5v-45q0 -44 -8.5 -75.5t-26 -53.5t-44 -35t-62.5 -20l171 -324h-83l-164 315h-223v-209h-78v750zM158 575v-299h170q54 0 91 5t59.5 18.5t32.5 37t10 60.5v58q0 34 -9 57.5t-28.5 37t-51.5 19.5t-77 6
h-197z" />
    <glyph glyph-name="uni01A7" unicode="&#x1a7;" horiz-adv-x="592" 
d="M42 207q0 40 7.5 69.5t29 52.5t59 40.5t97.5 33.5l106 28q33 9 56 19.5t37 25.5t20 35t6 48q0 38 -10 63.5t-32.5 41t-59 22t-88.5 6.5q-48 0 -91 -5.5t-86 -17.5v64q37 13 88 20t108 7q129 0 188 -49t59 -152q0 -84 -40.5 -129t-130.5 -68l-108 -28q-42 -11 -68.5 -22
t-41.5 -26t-21 -35.5t-6 -50.5q0 -72 42 -106.5t140 -34.5q46 0 103.5 8.5t134.5 36.5v-73q-60 -23 -121 -32t-118 -9q-77 0 -127 16.5t-79.5 46t-41 69t-11.5 85.5z" />
    <glyph glyph-name="uni01A8" unicode="&#x1a8;" horiz-adv-x="467" 
d="M36 151q0 33 6.5 57t23.5 42.5t48 32t81 25.5l46 11q34 8 54.5 16.5t32 19.5t15 25t3.5 34q0 45 -29 65.5t-105 20.5q-38 0 -73 -5t-67 -14v61q28 10 67.5 15t82.5 5q100 0 148 -38t48 -115q0 -32 -7 -55.5t-24.5 -41t-47 -30.5t-74.5 -25l-46 -12q-39 -10 -61.5 -19
t-33 -20t-13 -25t-2.5 -35t6 -38t20.5 -29t39 -18.5t62.5 -6.5q39 0 84.5 7t99.5 27v-66q-42 -17 -94 -24.5t-94 -7.5q-57 0 -95 12t-60.5 33.5t-32 51t-9.5 64.5z" />
    <glyph glyph-name="uni01A9" unicode="&#x1a9;" horiz-adv-x="576" 
d="M530 750v-71h-357l229 -307l-232 -299h368v-73h-473v58l243 313l-243 326v53h465z" />
    <glyph glyph-name="uni01AA" unicode="&#x1aa;" horiz-adv-x="474" 
d="M153 510q-32 0 -56.5 10t-41.5 28t-26 41.5t-9 50.5t9.5 50.5t27 41.5t42.5 28.5t57 10.5q33 0 58 -11t42.5 -29t26.5 -41.5t9 -49.5v-650q0 -57 18 -78.5t58 -21.5q44 0 78 14v-63q-19 -7 -43 -11t-51 -4q-72 0 -103.5 40t-31.5 118v544q-13 -10 -29.5 -14t-34.5 -4z
M156 568q32 0 50.5 19t18.5 53q0 32 -18.5 52.5t-50.5 20.5t-51 -20.5t-19 -52.5q0 -34 19 -53t51 -19z" />
    <glyph glyph-name="uni01AB" unicode="&#x1ab;" horiz-adv-x="386" 
d="M194 484v-337q0 -27 3.5 -44t11.5 -27.5t22 -14.5t34 -4t43.5 4.5t41.5 14.5v-49l5 3v-27q0 -48 -7.5 -81.5t-24 -54.5t-44 -30.5t-66.5 -9.5q-27 0 -49 3t-36 8v63q19 -5 36 -7.5t38 -2.5q43 0 61.5 19t18.5 70v13q-20 -3 -35 -3q-67 0 -97.5 34.5t-30.5 100.5v359h-99
v64h99v124l75 24v-148h155v-64h-155z" />
    <glyph glyph-name="uni01AC" unicode="&#x1ac;" horiz-adv-x="632" 
d="M614 679h-248v-679h-78v679h-120q-51 0 -71 -16.5t-20 -58.5q0 -19 2.5 -34t5.5 -26h-65q-5 16 -7.5 36t-2.5 43q0 68 39 97.5t115 29.5h450v-71z" />
    <glyph glyph-name="uni01AD" unicode="&#x1ad;" horiz-adv-x="405" 
d="M199 484v-337q0 -27 3.5 -44t11.5 -27.5t22 -14.5t34 -4t43.5 4.5t41.5 14.5v-64q-10 -6 -23.5 -10t-27.5 -6.5t-28 -4t-24 -1.5q-67 0 -97.5 34.5t-30.5 100.5v359h-99v64h99v78q0 78 32 113t101 35q17 0 34 -2t29 -7v-58q-11 3 -25 5t-31 2q-33 0 -49 -15.5t-16 -55.5
v-95h155v-64h-155z" />
    <glyph glyph-name="uni01AE" unicode="&#x1ae;" horiz-adv-x="607" 
d="M18 750h571v-71h-247v-689q0 -52 13.5 -74t54.5 -22q20 0 36 2.5t29 6.5v-65q-14 -5 -34.5 -8.5t-43.5 -3.5q-72 0 -102.5 37.5t-30.5 119.5v696h-246v71z" />
    <glyph glyph-name="Uhorn" unicode="&#x1af;" horiz-adv-x="792" 
d="M150 750v-468q0 -61 12.5 -103.5t38 -69t65.5 -38.5t95 -12q57 0 97.5 12t66.5 38.5t38 69t12 103.5v468h78v-85h15q50 0 67.5 15t17.5 57q0 20 -2.5 35t-5.5 26h67q5 -16 7.5 -35t2.5 -42q0 -63 -33 -92t-102 -29h-34v-323q0 -149 -70 -219.5t-222 -70.5
q-151 0 -220 70.5t-69 219.5v473h78z" />
    <glyph glyph-name="uhorn" unicode="&#x1b0;" horiz-adv-x="638" 
d="M506 394v-394h-66l-8 56q-41 -26 -94.5 -46t-104.5 -20q-87 0 -124 40t-37 118v400h75v-382q0 -54 20.5 -81t74.5 -27q43 0 93.5 17t95.5 47v426h75v-89h24q35 0 49 16t14 54q0 18 -2 32.5t-4 25.5h63q4 -15 6 -36t2 -41q0 -59 -31.5 -87.5t-85.5 -28.5h-35z" />
    <glyph glyph-name="uni01B1" unicode="&#x1b1;" horiz-adv-x="804" 
d="M20 750h301v-66q-70 -20 -113.5 -84.5t-43.5 -177.5v-98q0 -69 16.5 -119.5t47.5 -83.5t75 -48.5t98 -15.5q55 0 99 15.5t75 48.5t47.5 83.5t16.5 119.5v98q0 113 -43 177.5t-114 84.5v66h302v-68h-177q23 -18 43.5 -42t35.5 -55.5t23.5 -70t8.5 -84.5v-114
q0 -81 -22.5 -143t-64 -103t-100 -62t-130.5 -21q-71 0 -129.5 21t-100 62t-64 103t-22.5 143v114q0 93 32 154.5t79 97.5h-176v68z" />
    <glyph glyph-name="uni01B2" unicode="&#x1b2;" horiz-adv-x="624" 
d="M519 591q8 21 10.5 32.5t2.5 25.5q0 22 -11.5 34t-41.5 12q-12 0 -25 -1.5t-26 -5.5v65q31 9 67 9q32 0 55 -8.5t37.5 -23t21 -33t6.5 -39.5q0 -20 -8.5 -44t-19.5 -52l-212 -562h-76l-291 750h84l187 -499q14 -39 29 -78.5t29 -85.5q13 45 26 85t28 79z" />
    <glyph glyph-name="uni01B3" unicode="&#x1b3;" horiz-adv-x="674" 
d="M459 675q23 44 47 65.5t68 21.5q55 0 82.5 -31.5t27.5 -90.5q0 -22 -2.5 -39.5t-7.5 -33.5h-65q3 11 5.5 24.5t2.5 33.5q0 34 -8 50.5t-33 16.5q-20 0 -30.5 -11t-21.5 -32l-185 -336v-313h-77v311l-256 439h85l144 -256q17 -29 33 -60.5t33 -66.5q14 35 30.5 66t33.5 63
z" />
    <glyph glyph-name="uni01B4" unicode="&#x1b4;" horiz-adv-x="605" 
d="M225 -213h-75l82 213l-218 548h81l130 -342q12 -32 21.5 -63.5t23.5 -75.5q14 45 24 76.5t22 62.5l177 468q21 55 44.5 77.5t64.5 22.5q34 0 53 -10v-61q-12 6 -36 6q-22 0 -35 -10t-21 -33z" />
    <glyph glyph-name="uni01B5" unicode="&#x1b5;" horiz-adv-x="612" 
d="M370 421h165v-63h-210l-142 -200q-15 -21 -31.5 -43.5t-36.5 -48.5h460v-66h-549v59l213 299h-168v63h213l122 171q16 22 33.5 45.5t34.5 46.5h-433v66h522v-59z" />
    <glyph glyph-name="uni01B6" unicode="&#x1b6;" horiz-adv-x="483" 
d="M312 314h99v-60h-144l-77 -103q-32 -44 -70 -89h339v-62h-425v55l149 199h-110v60h155l70 94q16 21 31 40t30 37h-314v63h400v-56z" />
    <glyph glyph-name="uni01B7" unicode="&#x1b7;" horiz-adv-x="679" 
d="M505 683h-430v67h522v-59l-269 -353q10 1 15 1h12q81 0 134 -19t84.5 -52t44.5 -77t13 -95v-55q0 -57 -18.5 -105.5t-58 -83.5t-100 -55t-144.5 -20q-87 0 -155.5 14.5t-113.5 31.5v70q53 -19 116.5 -32t148.5 -13q127 0 186.5 52.5t59.5 146.5v39q0 46 -10 81.5
t-35 59.5t-66 36.5t-104 12.5q-25 0 -48 -1.5t-52 -5.5l-6 49z" />
    <glyph glyph-name="uni01B8" unicode="&#x1b8;" horiz-adv-x="679" 
d="M448 318l-6 -49q-29 4 -52 5.5t-48 1.5q-63 0 -104 -12.5t-66 -36.5t-35 -59.5t-10 -81.5v-39q0 -94 59.5 -146.5t186.5 -52.5q85 0 148.5 13t116.5 32v-70q-45 -17 -113.5 -31.5t-155.5 -14.5q-84 0 -144.5 20t-100 55t-58 83.5t-18.5 105.5v55q0 51 13 95t44.5 77
t84.5 52t134 19h12t15 -1l-269 353v59h522v-67h-430z" />
    <glyph glyph-name="uni01B9" unicode="&#x1b9;" horiz-adv-x="554" 
d="M399 212l-17 -51q-26 3 -46.5 4t-42.5 1q-97 0 -136 -36t-39 -107v-28q0 -42 15.5 -71t42.5 -46t62 -24.5t74 -7.5q61 0 110.5 9.5t94.5 26.5v-68q-38 -15 -94.5 -26t-114.5 -11q-61 0 -110 14.5t-83.5 41.5t-53 66.5t-18.5 89.5v43q0 36 10 71t36.5 62.5t73 45
t120.5 17.5h11.5t15.5 -1l-214 263v58h413v-63h-326z" />
    <glyph glyph-name="uni01BA" unicode="&#x1ba;" horiz-adv-x="536" 
d="M53 -87q0 28 10.5 49t33 36t59 25.5t87.5 18.5q59 9 95.5 19.5t57 24t27.5 31.5t7 42q0 57 -43.5 78.5t-130.5 21.5q-23 0 -43.5 -1.5t-46.5 -4.5l-15 46l113 106q23 22 47.5 41.5t49.5 39.5h-321v63h410v-58l-200 -177q69 0 117 -9t78 -28t43.5 -48t13.5 -69
q0 -43 -14.5 -73.5t-44.5 -51.5t-77 -34t-111 -22q-74 -10 -101 -25t-27 -40q0 -13 5.5 -26.5t22 -24t46.5 -17t79 -6.5q38 0 84.5 8.5t91.5 25.5v-64q-38 -15 -86 -24t-98 -9q-63 0 -105 12t-67.5 31t-36 43.5t-10.5 49.5z" />
    <glyph glyph-name="uni01BB" unicode="&#x1bb;" horiz-adv-x="630" 
d="M97 373h282q28 29 48 51.5t32.5 42.5t18 40t5.5 44v13q0 28 -8.5 50t-29.5 37.5t-55 24t-85 8.5q-54 0 -107.5 -12.5t-95.5 -30.5v71q18 8 42.5 16t51.5 14t55.5 9.5t54.5 3.5q67 0 115.5 -14t79.5 -38.5t45.5 -59t14.5 -75.5v-19q0 -53 -22.5 -93t-63.5 -83h86v-63h-148
l-16 -17l-222 -224h413v-69h-508v69l237 241h-220v63z" />
    <glyph glyph-name="uni01BC" unicode="&#x1bc;" horiz-adv-x="630" 
d="M156 675h-115v70h503v-70h-317l-32 -238q32 5 60 8.5t65 3.5q70 0 118.5 -14.5t78.5 -40t43.5 -61t13.5 -78.5v-54q0 -96 -69 -153.5t-198 -57.5q-72 0 -130 11.5t-95 26.5v70q44 -16 99.5 -27t121.5 -11q100 0 147 39.5t47 105.5v39q0 35 -10.5 61t-33.5 43t-61 25.5
t-92 8.5q-41 0 -92 -6.5t-92 -15.5z" />
    <glyph glyph-name="uni01BD" unicode="&#x1bd;" horiz-adv-x="464" 
d="M29 548h385v-63h-229l-18 -155q20 5 39.5 7t44.5 2q48 0 82 -11t55 -30.5t31 -45.5t10 -56v-47q0 -70 -49 -114.5t-147 -44.5q-55 0 -99.5 9.5t-71.5 20.5v66q35 -14 74 -22t90 -8q26 0 50 4t42 15t28.5 29.5t10.5 48.5v33q0 48 -26.5 70t-95.5 22q-41 0 -75 -4.5
t-69 -13.5l24 225h-86v63z" />
    <glyph glyph-name="uni01BE" unicode="&#x1be;" horiz-adv-x="514" 
d="M280.5 453q4.5 -13 14 -26t25 -26t41.5 -31q21 -15 41.5 -30.5t36 -36.5t25.5 -49.5t10 -70.5q0 -46 -12 -82t-39 -60.5t-71 -37.5t-109 -13q-57 0 -106 12t-84 28v69q42 -17 89 -29t97 -12q49 0 80.5 8t49 24t24 39.5t6.5 53.5q0 25 -5 44t-15.5 34t-26.5 28t-38 28
q-30 20 -50.5 36t-33.5 32t-20 33.5t-10 39.5l-3 26h-139v65h139v122l75 25v-147h161v-65h-160q3 -18 7.5 -31z" />
    <glyph glyph-name="uni01BF" unicode="&#x1bf;" horiz-adv-x="597" 
d="M78 548h66l9 -52q18 11 40 22.5t48.5 21.5t55.5 16t61 6q46 0 81 -14t58 -39.5t35 -60t12 -75.5v-117q0 -58 -16.5 -100t-45 -70.5t-67 -46t-82 -27.5t-89.5 -14.5t-90 -7.5v-206h-76v764zM154 54q72 5 130 14.5t99 32t63 61.5t22 104v82q0 78 -29.5 113t-98.5 35
q-44 0 -95 -19.5t-91 -46.5v-376z" />
    <glyph glyph-name="uni01C0" unicode="&#x1c0;" horiz-adv-x="235" 
d="M151 -216h-67v990h67v-990z" />
    <glyph glyph-name="uni01C1" unicode="&#x1c1;" horiz-adv-x="418" 
d="M151 -216h-67v990h67v-990zM334 -216h-67v990h67v-990z" />
    <glyph glyph-name="uni01C2" unicode="&#x1c2;" horiz-adv-x="311" 
d="M189 340v-92h112v-63h-112v-401h-67v401h-112v63h112v92h-112v63h112v371h67v-371h112v-63h-112z" />
    <glyph glyph-name="uni01C3" unicode="&#x1c3;" horiz-adv-x="278" 
d="M168 201h-60l-13 549h86zM92 96h93v-96h-93v96z" />
    <glyph glyph-name="uni01C4" unicode="&#x1c4;" horiz-adv-x="1301" 
d="M80 0v750h247q86 0 147 -15.5t100 -53t57 -99.5t18 -155v-117q0 -86 -14 -145t-50 -96t-97.5 -53t-155.5 -16h-252zM158 680v-610h169q78 0 126 14.5t74 44t35 73t9 101.5v138q0 62 -11 107t-38 74.5t-73.5 43.5t-116.5 14h-174zM876 158q-15 -21 -31.5 -43.5
t-36.5 -48.5h460v-66h-549v59l380 533q16 22 33.5 45.5t34.5 46.5h-433v66h522v-59zM862 944h64l71 -95l71 95h63l-100 -148h-69z" />
    <glyph glyph-name="uni01C5" unicode="&#x1c5;" horiz-adv-x="1191" 
d="M80 0v750h247q86 0 147 -15.5t100 -53t57 -99.5t18 -155v-117q0 -86 -14 -145t-50 -96t-97.5 -53t-155.5 -16h-252zM158 680v-610h169q78 0 126 14.5t74 44t35 73t9 101.5v138q0 62 -11 107t-38 74.5t-73.5 43.5t-116.5 14h-174zM893 151q-32 -44 -70 -89h339v-62h-425
v55l264 353q16 21 31 40t30 37h-314v63h400v-56zM814 744h64l71 -95l71 95h63l-100 -148h-69z" />
    <glyph glyph-name="uni01C6" unicode="&#x1c6;" horiz-adv-x="1090" 
d="M244 -10q-95 0 -141.5 48.5t-46.5 133.5v170q0 60 17 102t46.5 68t70 38t87.5 12q54 0 98.5 -12t73.5 -27v227l75 24v-774h-65l-6 54q-34 -24 -89 -44t-120 -20zM449 457q-28 14 -70 26t-96 12q-32 0 -59.5 -7t-48 -25t-32.5 -48.5t-12 -77.5v-145q0 -75 31.5 -105
t94.5 -30q50 0 101 16t91 43v341zM792 151q-32 -44 -70 -89h339v-62h-425v55l264 353q16 21 31 40t30 37h-314v63h400v-56zM713 744h64l71 -95l71 95h63l-100 -148h-69z" />
    <glyph glyph-name="uni01C7" unicode="&#x1c7;" horiz-adv-x="959" 
d="M158 750v-678h385v-72h-463v750h78zM885 750v-571q0 -48 -8.5 -83.5t-29.5 -59t-56 -35t-88 -11.5q-14 0 -30.5 1t-33 3.5t-31 5t-24.5 5.5v73q29 -8 58.5 -11t57.5 -3q62 0 84.5 29t22.5 94v563h78z" />
    <glyph glyph-name="uni01C8" unicode="&#x1c8;" horiz-adv-x="825" 
d="M158 750v-678h385v-72h-463v750h78zM747 -81q0 -68 -27.5 -104t-100.5 -36q-20 0 -47 2.5t-47 8.5v62q19 -3 39 -5.5t44 -2.5q38 0 51 17t13 59v628h75v-629zM749 669h-79v82h79v-82z" />
    <glyph glyph-name="uni01C9" unicode="&#x1c9;" horiz-adv-x="485" 
d="M78 750l75 24v-774h-75v750zM407 -81q0 -68 -27.5 -104t-100.5 -36q-20 0 -47 2.5t-47 8.5v62q19 -3 39 -5.5t44 -2.5q38 0 51 17t13 59v628h75v-629zM409 669h-79v82h79v-82z" />
    <glyph glyph-name="uni01CA" unicode="&#x1ca;" horiz-adv-x="1106" 
d="M638 0h-86l-327 516q-20 31 -36 62t-33 68v-646h-76v750h86l328 -516q12 -19 21 -34.5t17 -30.5t15 -30t15 -33v644h76v-750zM1032 750v-571q0 -48 -8.5 -83.5t-29.5 -59t-56 -35t-88 -11.5q-14 0 -30.5 1t-33 3.5t-31 5t-24.5 5.5v73q29 -8 58.5 -11t57.5 -3
q62 0 84.5 29t22.5 94v563h78z" />
    <glyph glyph-name="uni01CB" unicode="&#x1cb;" horiz-adv-x="972" 
d="M638 0h-86l-327 516q-20 31 -36 62t-33 68v-646h-76v750h86l328 -516q12 -19 21 -34.5t17 -30.5t15 -30t15 -33v644h76v-750zM894 -81q0 -68 -27.5 -104t-100.5 -36q-20 0 -47 2.5t-47 8.5v62q19 -3 39 -5.5t44 -2.5q38 0 51 17t13 59v628h75v-629zM896 669h-79v82h79
v-82z" />
    <glyph glyph-name="uni01CC" unicode="&#x1cc;" horiz-adv-x="841" 
d="M440 0v381q0 60 -21.5 86.5t-76.5 26.5q-44 0 -93.5 -16t-95.5 -47v-431h-75v548h66l8 -52q40 26 93.5 46t104.5 20q89 0 127 -42.5t38 -119.5v-400h-75zM763 -81q0 -68 -27.5 -104t-100.5 -36q-20 0 -47 2.5t-47 8.5v62q19 -3 39 -5.5t44 -2.5q38 0 51 17t13 59v628h75
v-629zM765 669h-79v82h79v-82z" />
    <glyph glyph-name="uni01CD" unicode="&#x1cd;" horiz-adv-x="669" 
d="M663 0h-85l-84 221h-327l-81 -221h-80l283 750h76zM469 290l-97 259q-12 32 -22 58t-22 63q-10 -33 -20.5 -64t-21.5 -62l-94 -254h277zM194 944h64l71 -95l71 95h63l-100 -148h-69z" />
    <glyph glyph-name="uni01CE" unicode="&#x1ce;" horiz-adv-x="535" 
d="M402 0l-6 56q-16 -10 -38.5 -21.5t-49 -21.5t-56 -16.5t-59.5 -6.5q-78 0 -115.5 38t-37.5 122v17q0 89 58 124.5t182 35.5h112v40q0 31 -4 55.5t-17 41.5t-38.5 26t-67.5 9q-37 0 -80 -8t-83 -23v63q44 16 87 23.5t85 7.5q64 0 102 -16t58 -43.5t25.5 -63.5t5.5 -76
v-363h-63zM392 269h-111q-48 0 -80 -5.5t-51 -18t-27 -34t-8 -53.5v-8q0 -54 20.5 -76t65.5 -22q22 0 48 4.5t51.5 13t49.5 19t42 22.5v158zM133 744h64l71 -95l71 95h63l-100 -148h-69z" />
    <glyph glyph-name="uni01CF" unicode="&#x1cf;" horiz-adv-x="238" 
d="M158 0h-78v750h78v-750zM-15 944h64l71 -95l71 95h63l-100 -148h-69z" />
    <glyph glyph-name="uni01D0" unicode="&#x1d0;" horiz-adv-x="232" 
d="M79 0v548h75v-548h-75zM-18 744h64l71 -95l71 95h63l-100 -148h-69z" />
    <glyph glyph-name="uni01D1" unicode="&#x1d1;" horiz-adv-x="740" 
d="M688 321q0 -163 -82 -248t-236 -85t-236 85t-82 248v108q0 162 82 247.5t236 85.5t236 -85.5t82 -247.5v-108zM609 422q0 139 -62.5 204t-176.5 65t-176.5 -65t-62.5 -204v-94q0 -140 62.5 -204.5t176.5 -64.5t176.5 64.5t62.5 204.5v94zM235 944h64l71 -95l71 95h63
l-100 -148h-69z" />
    <glyph glyph-name="uni01D2" unicode="&#x1d2;" horiz-adv-x="583" 
d="M533 242q0 -121 -62 -186.5t-180 -65.5q-117 0 -179 65.5t-62 186.5v68q0 121 62 186.5t179 65.5q118 0 180 -65.5t62 -186.5v-68zM458 311q0 96 -43 142t-124 46q-80 0 -123 -46t-43 -142v-70q0 -94 42.5 -141t123.5 -47q82 0 124.5 47t42.5 141v70zM157 744h64l71 -95
l71 95h63l-100 -148h-69z" />
    <glyph glyph-name="uni01D3" unicode="&#x1d3;" horiz-adv-x="725" 
d="M150 750v-468q0 -61 12.5 -103.5t38 -69t65.5 -38.5t95 -12q57 0 97.5 12t66.5 38.5t38 69t12 103.5v468h78v-473q0 -149 -70 -219.5t-222 -70.5q-151 0 -220 70.5t-69 219.5v473h78zM228 944h64l71 -95l71 95h63l-100 -148h-69z" />
    <glyph glyph-name="uni01D4" unicode="&#x1d4;" horiz-adv-x="586" 
d="M149 548v-382q0 -54 20.5 -81t74.5 -27q43 0 93.5 17t95.5 47v426h75v-548h-66l-8 56q-41 -26 -94.5 -46t-104.5 -20q-87 0 -124 40t-37 118v400h75zM160 744h64l71 -95l71 95h63l-100 -148h-69z" />
    <glyph glyph-name="uni01D5" unicode="&#x1d5;" horiz-adv-x="725" 
d="M150 750v-468q0 -61 12.5 -103.5t38 -69t65.5 -38.5t95 -12q57 0 97.5 12t66.5 38.5t38 69t12 103.5v468h78v-473q0 -149 -70 -219.5t-222 -70.5q-151 0 -220 70.5t-69 219.5v473h78zM234 892h81v-89h-81v89zM410 892h81v-89h-81v89zM230 1022h267v-60h-267v60z" />
    <glyph glyph-name="uni01D6" unicode="&#x1d6;" horiz-adv-x="586" 
d="M149 548v-382q0 -54 20.5 -81t74.5 -27q43 0 93.5 17t95.5 47v426h75v-548h-66l-8 56q-41 -26 -94.5 -46t-104.5 -20q-87 0 -124 40t-37 118v400h75zM167 694h81v-89h-81v89zM343 694h81v-89h-81v89zM163 811h267v-60h-267v60z" />
    <glyph glyph-name="uni01D7" unicode="&#x1d7;" horiz-adv-x="725" 
d="M150 750v-468q0 -61 12.5 -103.5t38 -69t65.5 -38.5t95 -12q57 0 97.5 12t66.5 38.5t38 69t12 103.5v468h78v-473q0 -149 -70 -219.5t-222 -70.5q-151 0 -220 70.5t-69 219.5v473h78zM401 1059h97l-111 -134h-77zM234 892h81v-89h-81v89zM410 892h81v-89h-81v89z" />
    <glyph glyph-name="uni01D8" unicode="&#x1d8;" horiz-adv-x="586" 
d="M149 548v-382q0 -54 20.5 -81t74.5 -27q43 0 93.5 17t95.5 47v426h75v-548h-66l-8 56q-41 -26 -94.5 -46t-104.5 -20q-87 0 -124 40t-37 118v400h75zM334 861h97l-111 -134h-77zM167 694h81v-89h-81v89zM343 694h81v-89h-81v89z" />
    <glyph glyph-name="uni01D9" unicode="&#x1d9;" horiz-adv-x="725" 
d="M150 750v-468q0 -61 12.5 -103.5t38 -69t65.5 -38.5t95 -12q57 0 97.5 12t66.5 38.5t38 69t12 103.5v468h78v-473q0 -149 -70 -219.5t-222 -70.5q-151 0 -220 70.5t-69 219.5v473h78zM228 1070h64l71 -95l71 95h63l-100 -148h-69zM234 892h81v-89h-81v89zM410 892h81v-89
h-81v89z" />
    <glyph glyph-name="uni01DA" unicode="&#x1da;" horiz-adv-x="586" 
d="M149 548v-382q0 -54 20.5 -81t74.5 -27q43 0 93.5 17t95.5 47v426h75v-548h-66l-8 56q-41 -26 -94.5 -46t-104.5 -20q-87 0 -124 40t-37 118v400h75zM160 877h64l71 -95l71 95h63l-100 -148h-69zM167 694h81v-89h-81v89zM343 694h81v-89h-81v89z" />
    <glyph glyph-name="uni01DB" unicode="&#x1db;" horiz-adv-x="725" 
d="M150 750v-468q0 -61 12.5 -103.5t38 -69t65.5 -38.5t95 -12q57 0 97.5 12t66.5 38.5t38 69t12 103.5v468h78v-473q0 -149 -70 -219.5t-222 -70.5q-151 0 -220 70.5t-69 219.5v473h78zM414 925h-77l-108 134h97zM234 892h81v-89h-81v89zM410 892h81v-89h-81v89z" />
    <glyph glyph-name="uni01DC" unicode="&#x1dc;" horiz-adv-x="586" 
d="M149 548v-382q0 -54 20.5 -81t74.5 -27q43 0 93.5 17t95.5 47v426h75v-548h-66l-8 56q-41 -26 -94.5 -46t-104.5 -20q-87 0 -124 40t-37 118v400h75zM347 727h-77l-108 134h97zM167 694h81v-89h-81v89zM343 694h81v-89h-81v89z" />
    <glyph glyph-name="uni01DD" unicode="&#x1dd;" horiz-adv-x="553" 
d="M430 297v24q0 51 -10 85t-33.5 54.5t-62.5 29.5t-97 9q-14 0 -32.5 -2t-37 -5t-35.5 -7.5t-29 -9.5v61q35 14 77 20t77 6q136 0 196 -62t60 -189v-60q0 -69 -17.5 -118.5t-48.5 -81t-73.5 -46.5t-91.5 -15q-53 0 -95 13t-71.5 44t-45 83t-15.5 129v38h385zM117 234
q0 -42 7.5 -76t25.5 -57.5t47.5 -36t73.5 -12.5q80 0 119.5 48.5t39.5 133.5v5h-313v-5z" />
    <glyph glyph-name="uni01DE" unicode="&#x1de;" horiz-adv-x="669" 
d="M663 0h-85l-84 221h-327l-81 -221h-80l283 750h76zM469 290l-97 259q-12 32 -22 58t-22 63q-10 -33 -20.5 -64t-21.5 -62l-94 -254h277zM200 892h81v-89h-81v89zM376 892h81v-89h-81v89zM195 1022h267v-60h-267v60z" />
    <glyph glyph-name="uni01DF" unicode="&#x1df;" horiz-adv-x="535" 
d="M402 0l-6 56q-16 -10 -38.5 -21.5t-49 -21.5t-56 -16.5t-59.5 -6.5q-78 0 -115.5 38t-37.5 122v17q0 89 58 124.5t182 35.5h112v40q0 31 -4 55.5t-17 41.5t-38.5 26t-67.5 9q-37 0 -80 -8t-83 -23v63q44 16 87 23.5t85 7.5q64 0 102 -16t58 -43.5t25.5 -63.5t5.5 -76
v-363h-63zM392 269h-111q-48 0 -80 -5.5t-51 -18t-27 -34t-8 -53.5v-8q0 -54 20.5 -76t65.5 -22q22 0 48 4.5t51.5 13t49.5 19t42 22.5v158zM154 694h81v-89h-81v89zM330 694h81v-89h-81v89zM150 811h267v-60h-267v60z" />
    <glyph glyph-name="uni01E0" unicode="&#x1e0;" horiz-adv-x="669" 
d="M663 0h-85l-84 221h-327l-81 -221h-80l283 750h76zM469 290l-97 259q-12 32 -22 58t-22 63q-10 -33 -20.5 -64t-21.5 -62l-94 -254h277zM287 905h81v-89h-81v89zM195 1022h267v-60h-267v60z" />
    <glyph glyph-name="uni01E1" unicode="&#x1e1;" horiz-adv-x="535" 
d="M402 0l-6 56q-16 -10 -38.5 -21.5t-49 -21.5t-56 -16.5t-59.5 -6.5q-78 0 -115.5 38t-37.5 122v17q0 89 58 124.5t182 35.5h112v40q0 31 -4 55.5t-17 41.5t-38.5 26t-67.5 9q-37 0 -80 -8t-83 -23v63q44 16 87 23.5t85 7.5q64 0 102 -16t58 -43.5t25.5 -63.5t5.5 -76
v-363h-63zM392 269h-111q-48 0 -80 -5.5t-51 -18t-27 -34t-8 -53.5v-8q0 -54 20.5 -76t65.5 -22q22 0 48 4.5t51.5 13t49.5 19t42 22.5v158zM242 703h81v-89h-81v89zM150 811h267v-60h-267v60z" />
    <glyph glyph-name="uni01E2" unicode="&#x1e2;" horiz-adv-x="1031" 
d="M975 750v-70h-385v-256h352v-69h-352v-285h399v-70h-477v221h-273l-145 -221h-88l482 750h487zM285 292h227v366q-9 -17 -18.5 -33t-21.5 -35zM500 915h267v-60h-267v60z" />
    <glyph glyph-name="uni01E3" unicode="&#x1e3;" horiz-adv-x="888" 
d="M461 263v-42q1 -48 11.5 -80t33.5 -51.5t61.5 -28t94.5 -8.5q14 0 32 2t36 5t34.5 7.5t28.5 9.5v-61q-35 -14 -75.5 -20t-75.5 -6q-78 0 -130 19.5t-82 61.5q-45 -35 -105.5 -58t-131.5 -23q-78 0 -115.5 38t-37.5 122v17q0 86 58 120t182 34h108v46q0 31 -3.5 55.5
t-16 41.5t-37 26t-66.5 9q-37 0 -80 -8t-83 -23v63q44 16 87 23.5t85 7.5q74 0 112 -22t55 -56q27 38 76.5 58t101.5 20q53 0 95 -14.5t71.5 -45.5t45 -81t15.5 -120v-38h-385zM388 263h-107q-48 0 -80 -4.5t-51 -16.5t-27 -32.5t-8 -51.5v-8q0 -54 20.5 -76t65.5 -22
q60 0 105 17.5t82 41.5v152zM774 326q0 39 -7.5 71t-25.5 55t-47.5 35.5t-73.5 12.5q-79 0 -119 -46.5t-40 -127.5v-5h313v5zM310 715h267v-60h-267v60z" />
    <glyph glyph-name="uni01E4" unicode="&#x1e4;" horiz-adv-x="714" 
d="M374 263h168v106h-168v66h245v-172h75v-70h-75v-168q-24 -9 -53.5 -16t-60.5 -11t-61 -6t-57 -2q-93 0 -156.5 20t-103 60t-56.5 100t-17 140v120q0 173 79.5 251.5t246.5 78.5q57 0 102.5 -5.5t83.5 -19.5v-66q-41 11 -83.5 16.5t-99.5 5.5q-78 0 -127 -19.5t-76 -53.5
t-37 -79t-10 -97v-130q0 -60 10.5 -107t39.5 -79t79.5 -49t130.5 -17q39 0 76 3.5t73 11.5v118h-168v70z" />
    <glyph glyph-name="uni01E5" unicode="&#x1e5;" horiz-adv-x="605" 
d="M75 -21h371v85q-35 -18 -87 -33t-116 -15q-96 0 -143 49t-47 133v144q0 60 17 102t46.5 68t70 38t87.5 12q57 0 102 -15.5t74 -37.5l6 41h65v-571h79v-63h-83q-12 -65 -64 -102t-160 -37q-44 0 -78 5t-60 13v66q38 -11 70 -14t62 -3q67 0 104 15t49 57h-365v63zM446 445
q-32 22 -73 36t-93 14q-32 0 -59.5 -7t-48 -25t-32.5 -48.5t-12 -77.5v-119q0 -75 32 -105t95 -30q25 0 51 3t51.5 9t48 15t40.5 20v315z" />
    <glyph glyph-name="Gcaron" unicode="&#x1e6;" horiz-adv-x="684" 
d="M566 669q-41 11 -83.5 16.5t-99.5 5.5q-78 0 -127 -19.5t-76 -53.5t-37 -79t-10 -97v-130q0 -60 10.5 -107t39.5 -79t79.5 -49t130.5 -17q39 0 76 3.5t73 11.5v261h-168v66h245v-377q-24 -9 -53.5 -16t-60.5 -11t-61 -6t-57 -2q-93 0 -156.5 20t-103 60t-56.5 100
t-17 140v120q0 173 79.5 251.5t246.5 78.5q57 0 102.5 -5.5t83.5 -19.5v-66zM260 944h64l71 -95l71 95h63l-100 -148h-69z" />
    <glyph glyph-name="gcaron" unicode="&#x1e7;" horiz-adv-x="602" 
d="M246 -3q-96 0 -143 49t-47 133v163q0 60 17 102t46.5 68t70 38t87.5 12q57 0 102 -15.5t74 -37.5l6 41h65v-585q0 -44 -12 -79t-39 -59t-70.5 -37t-106.5 -13q-44 0 -78 5t-60 13v66q38 -11 70 -14t62 -3q42 0 72.5 5.5t49.5 20t28 38.5t9 61v76q-35 -18 -87 -33
t-116 -15zM449 445q-32 22 -73 36t-93 14q-32 0 -59.5 -7t-48 -25t-32.5 -48.5t-12 -77.5v-138q0 -75 32 -105t95 -30q25 0 51 3t51.5 9t48 15t40.5 20v334zM178 744h64l71 -95l71 95h63l-100 -148h-69z" />
    <glyph glyph-name="uni01E8" unicode="&#x1e8;" horiz-adv-x="647" 
d="M336 379l296 -379h-96l-266 344h-112v-344h-78v750h78v-337h117l238 337h90zM204 944h64l71 -95l71 95h63l-100 -148h-69z" />
    <glyph glyph-name="uni01E9" unicode="&#x1e9;" horiz-adv-x="526" 
d="M153 334h85l181 214h86l-214 -248l220 -300h-89l-192 269h-77v-269h-75v750l75 24v-440zM164 944h64l71 -95l71 95h63l-100 -148h-69z" />
    <glyph glyph-name="uni01EA" unicode="&#x1ea;" horiz-adv-x="740" 
d="M431 -223q-63 0 -97 27t-34 69v9q0 16 6.5 31.5t17.5 29.5t25 25.5t29 19.5h-8q-154 0 -236 85t-82 248v108q0 162 82 247.5t236 85.5t236 -85.5t82 -247.5v-108q0 -133 -55 -214t-159 -107h4q-20 -10 -38 -22.5t-31.5 -26.5t-21.5 -29t-8 -30v-8q0 -23 16 -34.5
t55 -11.5q15 0 33 2t29 5v-57q-13 -4 -33 -7.5t-48 -3.5zM609 422q0 139 -62.5 204t-176.5 65t-176.5 -65t-62.5 -204v-94q0 -140 62.5 -204.5t176.5 -64.5t176.5 64.5t62.5 204.5v94z" />
    <glyph glyph-name="uni01EB" unicode="&#x1eb;" horiz-adv-x="583" 
d="M326 -223q-63 0 -97 27t-34 69v9q0 16 7 32t19 30.5t26.5 26t29.5 19.5q-110 4 -168.5 69t-58.5 183v68q0 121 62 186.5t179 65.5q118 0 180 -65.5t62 -186.5v-68q0 -99 -41.5 -160.5t-119.5 -81.5q-20 -10 -37.5 -22.5t-31 -26.5t-21.5 -29t-8 -30v-8q0 -23 16 -34.5
t55 -11.5q15 0 33 2t29 5v-57q-13 -4 -33 -7.5t-48 -3.5zM458 311q0 96 -43 142t-124 46q-80 0 -123 -46t-43 -142v-70q0 -94 42.5 -141t123.5 -47q82 0 124.5 47t42.5 141v70z" />
    <glyph glyph-name="uni01EC" unicode="&#x1ec;" horiz-adv-x="740" 
d="M431 -223q-63 0 -97 27t-34 69v9q0 16 6.5 31.5t17.5 29.5t25 25.5t29 19.5h-8q-154 0 -236 85t-82 248v108q0 162 82 247.5t236 85.5t236 -85.5t82 -247.5v-108q0 -133 -55 -214t-159 -107h4q-20 -10 -38 -22.5t-31.5 -26.5t-21.5 -29t-8 -30v-8q0 -23 16 -34.5
t55 -11.5q15 0 33 2t29 5v-57q-13 -4 -33 -7.5t-48 -3.5zM609 422q0 139 -62.5 204t-176.5 65t-176.5 -65t-62.5 -204v-94q0 -140 62.5 -204.5t176.5 -64.5t176.5 64.5t62.5 204.5v94zM236 915h267v-60h-267v60z" />
    <glyph glyph-name="uni01ED" unicode="&#x1ed;" horiz-adv-x="583" 
d="M326 -223q-63 0 -97 27t-34 69v9q0 16 7 32t19 30.5t26.5 26t29.5 19.5q-110 4 -168.5 69t-58.5 183v68q0 121 62 186.5t179 65.5q118 0 180 -65.5t62 -186.5v-68q0 -99 -41.5 -160.5t-119.5 -81.5q-20 -10 -37.5 -22.5t-31 -26.5t-21.5 -29t-8 -30v-8q0 -23 16 -34.5
t55 -11.5q15 0 33 2t29 5v-57q-13 -4 -33 -7.5t-48 -3.5zM458 311q0 96 -43 142t-124 46q-80 0 -123 -46t-43 -142v-70q0 -94 42.5 -141t123.5 -47q82 0 124.5 47t42.5 141v70zM158 715h267v-60h-267v60z" />
    <glyph glyph-name="uni01EE" unicode="&#x1ee;" horiz-adv-x="679" 
d="M505 683h-430v67h522v-59l-269 -353q10 1 15 1h12q81 0 134 -19t84.5 -52t44.5 -77t13 -95v-55q0 -57 -18.5 -105.5t-58 -83.5t-100 -55t-144.5 -20q-87 0 -155.5 14.5t-113.5 31.5v70q53 -19 116.5 -32t148.5 -13q127 0 186.5 52.5t59.5 146.5v39q0 46 -10 81.5
t-35 59.5t-66 36.5t-104 12.5q-25 0 -48 -1.5t-52 -5.5l-6 49zM205 944h64l71 -95l71 95h63l-100 -148h-69z" />
    <glyph glyph-name="uni01EF" unicode="&#x1ef;" horiz-adv-x="554" 
d="M371 485h-326v63h413v-58l-214 -263q9 1 15.5 1h11.5q73 0 120 -17.5t73.5 -45t36.5 -62.5t10 -71v-43q0 -50 -18.5 -89.5t-53 -66.5t-83.5 -41.5t-110 -14.5q-58 0 -114.5 11t-94.5 26v68q45 -17 94.5 -26.5t110.5 -9.5q39 0 74 7.5t62 24.5t42.5 46t15.5 71v28
q0 71 -39 107t-136 36q-22 0 -42.5 -1t-46.5 -4l-17 51zM123 744h64l71 -95l71 95h63l-100 -148h-69z" />
    <glyph glyph-name="uni01F0" unicode="&#x1f0;" horiz-adv-x="254" 
d="M176 -81q0 -68 -27.5 -104t-100.5 -36q-20 0 -47 2.5t-47 8.5v62q19 -3 39 -5.5t44 -2.5q38 0 51 17t13 59v628h75v-629zM4 744h64l71 -95l71 95h63l-100 -148h-69z" />
    <glyph glyph-name="uni01F1" unicode="&#x1f1;" horiz-adv-x="1301" 
d="M80 0v750h247q86 0 147 -15.5t100 -53t57 -99.5t18 -155v-117q0 -86 -14 -145t-50 -96t-97.5 -53t-155.5 -16h-252zM158 680v-610h169q78 0 126 14.5t74 44t35 73t9 101.5v138q0 62 -11 107t-38 74.5t-73.5 43.5t-116.5 14h-174zM876 158q-15 -21 -31.5 -43.5
t-36.5 -48.5h460v-66h-549v59l380 533q16 22 33.5 45.5t34.5 46.5h-433v66h522v-59z" />
    <glyph glyph-name="uni01F2" unicode="&#x1f2;" horiz-adv-x="1191" 
d="M80 0v750h247q86 0 147 -15.5t100 -53t57 -99.5t18 -155v-117q0 -86 -14 -145t-50 -96t-97.5 -53t-155.5 -16h-252zM158 680v-610h169q78 0 126 14.5t74 44t35 73t9 101.5v138q0 62 -11 107t-38 74.5t-73.5 43.5t-116.5 14h-174zM893 151q-32 -44 -70 -89h339v-62h-425
v55l264 353q16 21 31 40t30 37h-314v63h400v-56z" />
    <glyph glyph-name="uni01F3" unicode="&#x1f3;" horiz-adv-x="1090" 
d="M244 -10q-95 0 -141.5 48.5t-46.5 133.5v170q0 60 17 102t46.5 68t70 38t87.5 12q54 0 98.5 -12t73.5 -27v227l75 24v-774h-65l-6 54q-34 -24 -89 -44t-120 -20zM449 457q-28 14 -70 26t-96 12q-32 0 -59.5 -7t-48 -25t-32.5 -48.5t-12 -77.5v-145q0 -75 31.5 -105
t94.5 -30q50 0 101 16t91 43v341zM792 151q-32 -44 -70 -89h339v-62h-425v55l264 353q16 21 31 40t30 37h-314v63h400v-56z" />
    <glyph glyph-name="uni01F4" unicode="&#x1f4;" horiz-adv-x="684" 
d="M566 669q-41 11 -83.5 16.5t-99.5 5.5q-78 0 -127 -19.5t-76 -53.5t-37 -79t-10 -97v-130q0 -60 10.5 -107t39.5 -79t79.5 -49t130.5 -17q39 0 76 3.5t73 11.5v261h-168v66h245v-377q-24 -9 -53.5 -16t-60.5 -11t-61 -6t-57 -2q-93 0 -156.5 20t-103 60t-56.5 100
t-17 140v120q0 173 79.5 251.5t246.5 78.5q57 0 102.5 -5.5t83.5 -19.5v-66zM411 940h97l-111 -134h-77z" />
    <glyph glyph-name="uni01F5" unicode="&#x1f5;" horiz-adv-x="602" 
d="M246 -3q-96 0 -143 49t-47 133v163q0 60 17 102t46.5 68t70 38t87.5 12q57 0 102 -15.5t74 -37.5l6 41h65v-585q0 -44 -12 -79t-39 -59t-70.5 -37t-106.5 -13q-44 0 -78 5t-60 13v66q38 -11 70 -14t62 -3q42 0 72.5 5.5t49.5 20t28 38.5t9 61v76q-35 -18 -87 -33
t-116 -15zM449 445q-32 22 -73 36t-93 14q-32 0 -59.5 -7t-48 -25t-32.5 -48.5t-12 -77.5v-138q0 -75 32 -105t95 -30q25 0 51 3t51.5 9t48 15t40.5 20v334zM319 740h97l-111 -134h-77z" />
    <glyph glyph-name="uni01F6" unicode="&#x1f6;" horiz-adv-x="1052" 
d="M636 170q0 -54 28.5 -83t104.5 -29q70 0 101.5 29t31.5 83v378h78v-384q0 -82 -52.5 -128t-158.5 -46q-96 0 -153.5 42.5t-57.5 133.5v191h-400v-357h-78v750h78v-323h400v323h78v-580z" />
    <glyph glyph-name="uni01F7" unicode="&#x1f7;" horiz-adv-x="640" 
d="M80 750h78v-74l150 62q25 10 50.5 16t48.5 6q49 0 83 -14.5t55.5 -40t31.5 -61.5t10 -79v-114q0 -77 -23.5 -144.5t-75.5 -120.5t-133.5 -90t-196.5 -53v-259h-78v966zM158 116q103 17 171 49t108 76t56 98t16 114v107q0 70 -27.5 100t-74.5 30q-31 0 -71 -16l-178 -73
v-485z" />
    <glyph glyph-name="uni01F8" unicode="&#x1f8;" horiz-adv-x="718" 
d="M638 0h-86l-327 516q-20 31 -36 62t-33 68v-646h-76v750h86l328 -516q12 -19 21 -34.5t17 -30.5t15 -30t15 -33v644h76v-750zM453 806h-77l-108 134h97z" />
    <glyph glyph-name="uni01F9" unicode="&#x1f9;" horiz-adv-x="589" 
d="M440 0v381q0 60 -21.5 86.5t-76.5 26.5q-44 0 -93.5 -16t-95.5 -47v-431h-75v548h66l8 -52q40 26 93.5 46t104.5 20q89 0 127 -42.5t38 -119.5v-400h-75zM387 606h-77l-108 134h97z" />
    <glyph glyph-name="Aringacute" unicode="&#x1fa;" horiz-adv-x="669" 
d="M663 0h-85l-84 221h-327l-81 -221h-80l283 750h76zM469 290l-97 259q-12 32 -22 58t-22 63q-10 -33 -20.5 -64t-21.5 -62l-94 -254h277zM328 826q24 0 39 14.5t15 40.5q0 24 -15 39.5t-39 15.5t-39 -15.5t-15 -39.5q0 -26 15 -40.5t39 -14.5zM328 782q-22 0 -41 8
t-32.5 21.5t-21 31.5t-7.5 38q0 41 28.5 70t73.5 29q22 0 41 -8t33 -21.5t21.5 -31.5t7.5 -38t-7.5 -38t-21.5 -31.5t-33 -21.5t-41 -8zM392 1146h97l-111 -134h-77z" />
    <glyph glyph-name="aringacute" unicode="&#x1fb;" horiz-adv-x="535" 
d="M402 0l-6 56q-16 -10 -38.5 -21.5t-49 -21.5t-56 -16.5t-59.5 -6.5q-78 0 -115.5 38t-37.5 122v17q0 89 58 124.5t182 35.5h112v40q0 31 -4 55.5t-17 41.5t-38.5 26t-67.5 9q-37 0 -80 -8t-83 -23v63q44 16 87 23.5t85 7.5q64 0 102 -16t58 -43.5t25.5 -63.5t5.5 -76
v-363h-63zM392 269h-111q-48 0 -80 -5.5t-51 -18t-27 -34t-8 -53.5v-8q0 -54 20.5 -76t65.5 -22q22 0 48 4.5t51.5 13t49.5 19t42 22.5v158zM278 636q24 0 39 14.5t15 40.5q0 24 -15 39.5t-39 15.5t-39 -15.5t-15 -39.5q0 -26 15 -40.5t39 -14.5zM278 592q-22 0 -41 8
t-32.5 21.5t-21 31.5t-7.5 38q0 41 28.5 70t73.5 29q22 0 41 -8t33 -21.5t21.5 -31.5t7.5 -38t-7.5 -38t-21.5 -31.5t-33 -21.5t-41 -8zM329 951h97l-111 -134h-77z" />
    <glyph glyph-name="AEacute" unicode="&#x1fc;" horiz-adv-x="1031" 
d="M975 750v-70h-385v-256h352v-69h-352v-285h399v-70h-477v221h-273l-145 -221h-88l482 750h487zM285 292h227v366q-9 -17 -18.5 -33t-21.5 -35zM620 940h97l-111 -134h-77z" />
    <glyph glyph-name="aeacute" unicode="&#x1fd;" horiz-adv-x="888" 
d="M461 263v-42q1 -48 11.5 -80t33.5 -51.5t61.5 -28t94.5 -8.5q14 0 32 2t36 5t34.5 7.5t28.5 9.5v-61q-35 -14 -75.5 -20t-75.5 -6q-78 0 -130 19.5t-82 61.5q-45 -35 -105.5 -58t-131.5 -23q-78 0 -115.5 38t-37.5 122v17q0 86 58 120t182 34h108v46q0 31 -3.5 55.5
t-16 41.5t-37 26t-66.5 9q-37 0 -80 -8t-83 -23v63q44 16 87 23.5t85 7.5q74 0 112 -22t55 -56q27 38 76.5 58t101.5 20q53 0 95 -14.5t71.5 -45.5t45 -81t15.5 -120v-38h-385zM388 263h-107q-48 0 -80 -4.5t-51 -16.5t-27 -32.5t-8 -51.5v-8q0 -54 20.5 -76t65.5 -22
q60 0 105 17.5t82 41.5v152zM774 326q0 39 -7.5 71t-25.5 55t-47.5 35.5t-73.5 12.5q-79 0 -119 -46.5t-40 -127.5v-5h313v5zM503 740h97l-111 -134h-77z" />
    <glyph glyph-name="Oslashacute" unicode="&#x1fe;" horiz-adv-x="740" 
d="M688 320q0 -163 -82 -248t-236 -85q-117 0 -194 50l-55 -80h-74l82 120q-77 85 -77 243v110q0 162 82 247.5t236 85.5q59 0 107.5 -13t86.5 -38l55 80h74l-83 -121q78 -86 78 -241v-110zM131 327q0 -116 45 -182l345 504q-58 43 -151 43q-114 0 -176.5 -65t-62.5 -204
v-96zM609 423q0 113 -45 181l-345 -504q29 -22 67 -32t84 -10q114 0 176.5 64.5t62.5 204.5v96zM413 940h97l-111 -134h-77z" />
    <glyph glyph-name="oslashacute" unicode="&#x1ff;" horiz-adv-x="577" 
d="M533 242q0 -121 -62 -186.5t-180 -65.5q-78 0 -132 30l-42 -63h-70l65 98q-62 65 -62 187v68q0 121 62 186.5t179 65.5q82 0 138 -33l37 55h70l-62 -92q59 -65 59 -182v-68zM125 241q0 -77 29 -123l237 354q-39 27 -100 27q-80 0 -123 -46t-43 -142v-70zM458 311
q0 73 -26 117l-236 -352q40 -23 95 -23q82 0 124.5 47t42.5 141v70zM327 740h97l-111 -134h-77z" />
    <glyph glyph-name="uni0200" unicode="&#x200;" horiz-adv-x="669" 
d="M663 0h-85l-84 221h-327l-81 -221h-80l283 750h76zM469 290l-97 259q-12 32 -22 58t-22 63q-10 -33 -20.5 -64t-21.5 -62l-94 -254h277zM290 806h-62l-73 134h80zM432 806h-61l-70 134h81z" />
    <glyph glyph-name="uni0201" unicode="&#x201;" horiz-adv-x="535" 
d="M402 0l-6 56q-16 -10 -38.5 -21.5t-49 -21.5t-56 -16.5t-59.5 -6.5q-78 0 -115.5 38t-37.5 122v17q0 89 58 124.5t182 35.5h112v40q0 31 -4 55.5t-17 41.5t-38.5 26t-67.5 9q-37 0 -80 -8t-83 -23v63q44 16 87 23.5t85 7.5q64 0 102 -16t58 -43.5t25.5 -63.5t5.5 -76
v-363h-63zM392 269h-111q-48 0 -80 -5.5t-51 -18t-27 -34t-8 -53.5v-8q0 -54 20.5 -76t65.5 -22q22 0 48 4.5t51.5 13t49.5 19t42 22.5v158zM264 606h-62l-73 134h80zM406 606h-61l-70 134h81z" />
    <glyph glyph-name="uni0202" unicode="&#x202;" horiz-adv-x="669" 
d="M663 0h-85l-84 221h-327l-81 -221h-80l283 750h76zM469 290l-97 259q-12 32 -22 58t-22 63q-10 -33 -20.5 -64t-21.5 -62l-94 -254h277zM328 944q31 0 55.5 -10.5t42 -29.5t27 -44t10.5 -54h-57q-3 37 -21.5 59.5t-56.5 22.5t-56.5 -22.5t-22.5 -59.5h-56q2 29 11.5 54
t27 44t41.5 29.5t55 10.5z" />
    <glyph glyph-name="uni0203" unicode="&#x203;" horiz-adv-x="535" 
d="M402 0l-6 56q-16 -10 -38.5 -21.5t-49 -21.5t-56 -16.5t-59.5 -6.5q-78 0 -115.5 38t-37.5 122v17q0 89 58 124.5t182 35.5h112v40q0 31 -4 55.5t-17 41.5t-38.5 26t-67.5 9q-37 0 -80 -8t-83 -23v63q44 16 87 23.5t85 7.5q64 0 102 -16t58 -43.5t25.5 -63.5t5.5 -76
v-363h-63zM392 269h-111q-48 0 -80 -5.5t-51 -18t-27 -34t-8 -53.5v-8q0 -54 20.5 -76t65.5 -22q22 0 48 4.5t51.5 13t49.5 19t42 22.5v158zM268 744q31 0 55.5 -10.5t42 -29.5t27 -44t10.5 -54h-57q-3 37 -21.5 59.5t-56.5 22.5t-56.5 -22.5t-22.5 -59.5h-56q2 29 11.5 54
t27 44t41.5 29.5t55 10.5z" />
    <glyph glyph-name="uni0204" unicode="&#x204;" 
d="M543 750v-70h-385v-256h352v-69h-352v-285h399v-70h-477v750h463zM296 806h-62l-73 134h80zM438 806h-61l-70 134h81z" />
    <glyph glyph-name="uni0205" unicode="&#x205;" horiz-adv-x="553" 
d="M123 255v-24q0 -51 10 -85t33.5 -54.5t62.5 -29.5t97 -9q14 0 32.5 2t37 5t35.5 7.5t29 9.5v-61q-35 -14 -77 -20t-77 -6q-68 0 -116.5 15.5t-79.5 46.5t-45.5 78.5t-14.5 110.5v60q0 69 17.5 118.5t48.5 81t73.5 46.5t91.5 15q53 0 95 -13t71.5 -44t45 -83t15.5 -129
v-38h-385zM436 318q0 42 -7.5 76t-25.5 57.5t-47.5 36t-73.5 12.5q-80 0 -119.5 -48.5t-39.5 -133.5v-5h313v5zM272 606h-62l-73 134h80zM414 606h-61l-70 134h81z" />
    <glyph glyph-name="uni0206" unicode="&#x206;" 
d="M543 750v-70h-385v-256h352v-69h-352v-285h399v-70h-477v750h463zM300 944q31 0 55.5 -10.5t42 -29.5t27 -44t10.5 -54h-57q-3 37 -21.5 59.5t-56.5 22.5t-56.5 -22.5t-22.5 -59.5h-56q2 29 11.5 54t27 44t41.5 29.5t55 10.5z" />
    <glyph glyph-name="uni0207" unicode="&#x207;" horiz-adv-x="553" 
d="M123 255v-24q0 -51 10 -85t33.5 -54.5t62.5 -29.5t97 -9q14 0 32.5 2t37 5t35.5 7.5t29 9.5v-61q-35 -14 -77 -20t-77 -6q-68 0 -116.5 15.5t-79.5 46.5t-45.5 78.5t-14.5 110.5v60q0 69 17.5 118.5t48.5 81t73.5 46.5t91.5 15q53 0 95 -13t71.5 -44t45 -83t15.5 -129
v-38h-385zM436 318q0 42 -7.5 76t-25.5 57.5t-47.5 36t-73.5 12.5q-80 0 -119.5 -48.5t-39.5 -133.5v-5h313v5zM275 744q31 0 55.5 -10.5t42 -29.5t27 -44t10.5 -54h-57q-3 37 -21.5 59.5t-56.5 22.5t-56.5 -22.5t-22.5 -59.5h-56q2 29 11.5 54t27 44t41.5 29.5t55 10.5z
" />
    <glyph glyph-name="uni0208" unicode="&#x208;" horiz-adv-x="238" 
d="M158 0h-78v750h78v-750zM81 806h-62l-73 134h80zM223 806h-61l-70 134h81z" />
    <glyph glyph-name="uni0209" unicode="&#x209;" horiz-adv-x="232" 
d="M79 0v548h75v-548h-75zM113 606h-62l-73 134h80zM255 606h-61l-70 134h81z" />
    <glyph glyph-name="uni020A" unicode="&#x20a;" horiz-adv-x="238" 
d="M158 0h-78v750h78v-750zM119 944q31 0 55.5 -10.5t42 -29.5t27 -44t10.5 -54h-57q-3 37 -21.5 59.5t-56.5 22.5t-56.5 -22.5t-22.5 -59.5h-56q2 29 11.5 54t27 44t41.5 29.5t55 10.5z" />
    <glyph glyph-name="uni020B" unicode="&#x20b;" horiz-adv-x="232" 
d="M79 0v548h75v-548h-75zM116 744q31 0 55.5 -10.5t42 -29.5t27 -44t10.5 -54h-57q-3 37 -21.5 59.5t-56.5 22.5t-56.5 -22.5t-22.5 -59.5h-56q2 29 11.5 54t27 44t41.5 29.5t55 10.5z" />
    <glyph glyph-name="uni020C" unicode="&#x20c;" horiz-adv-x="740" 
d="M688 321q0 -163 -82 -248t-236 -85t-236 85t-82 248v108q0 162 82 247.5t236 85.5t236 -85.5t82 -247.5v-108zM609 422q0 139 -62.5 204t-176.5 65t-176.5 -65t-62.5 -204v-94q0 -140 62.5 -204.5t176.5 -64.5t176.5 64.5t62.5 204.5v94zM320 806h-62l-73 134h80z
M462 806h-61l-70 134h81z" />
    <glyph glyph-name="uni020D" unicode="&#x20d;" horiz-adv-x="583" 
d="M533 242q0 -121 -62 -186.5t-180 -65.5q-117 0 -179 65.5t-62 186.5v68q0 121 62 186.5t179 65.5q118 0 180 -65.5t62 -186.5v-68zM458 311q0 96 -43 142t-124 46q-80 0 -123 -46t-43 -142v-70q0 -94 42.5 -141t123.5 -47q82 0 124.5 47t42.5 141v70zM258 606h-62
l-73 134h80zM400 606h-61l-70 134h81z" />
    <glyph glyph-name="uni020E" unicode="&#x20e;" horiz-adv-x="740" 
d="M688 321q0 -163 -82 -248t-236 -85t-236 85t-82 248v108q0 162 82 247.5t236 85.5t236 -85.5t82 -247.5v-108zM609 422q0 139 -62.5 204t-176.5 65t-176.5 -65t-62.5 -204v-94q0 -140 62.5 -204.5t176.5 -64.5t176.5 64.5t62.5 204.5v94zM370 944q31 0 55.5 -10.5
t42 -29.5t27 -44t10.5 -54h-57q-3 37 -21.5 59.5t-56.5 22.5t-56.5 -22.5t-22.5 -59.5h-56q2 29 11.5 54t27 44t41.5 29.5t55 10.5z" />
    <glyph glyph-name="uni020F" unicode="&#x20f;" horiz-adv-x="583" 
d="M533 242q0 -121 -62 -186.5t-180 -65.5q-117 0 -179 65.5t-62 186.5v68q0 121 62 186.5t179 65.5q118 0 180 -65.5t62 -186.5v-68zM458 311q0 96 -43 142t-124 46q-80 0 -123 -46t-43 -142v-70q0 -94 42.5 -141t123.5 -47q82 0 124.5 47t42.5 141v70zM292 744
q31 0 55.5 -10.5t42 -29.5t27 -44t10.5 -54h-57q-3 37 -21.5 59.5t-56.5 22.5t-56.5 -22.5t-22.5 -59.5h-56q2 29 11.5 54t27 44t41.5 29.5t55 10.5z" />
    <glyph glyph-name="uni0210" unicode="&#x210;" horiz-adv-x="655" 
d="M80 750h273q55 0 100.5 -7t77.5 -28t49.5 -59.5t17.5 -102.5v-45q0 -44 -8.5 -75.5t-26 -53.5t-44 -35t-62.5 -20l171 -324h-83l-164 315h-223v-315h-78v750zM158 681v-299h170q54 0 91 5t59.5 18.5t32.5 37t10 60.5v58q0 34 -9 57.5t-28.5 37t-51.5 19.5t-77 6h-197z
M305 806h-62l-73 134h80zM447 806h-61l-70 134h81z" />
    <glyph glyph-name="uni0211" unicode="&#x211;" horiz-adv-x="364" 
d="M350 487q-54 -5 -106 -25.5t-91 -59.5v-402h-75v548h66l8 -76q13 13 32.5 28t44.5 28t55.5 22.5t65.5 11.5v-75zM193 606h-62l-73 134h80zM335 606h-61l-70 134h81z" />
    <glyph glyph-name="uni0212" unicode="&#x212;" horiz-adv-x="655" 
d="M80 750h273q55 0 100.5 -7t77.5 -28t49.5 -59.5t17.5 -102.5v-45q0 -44 -8.5 -75.5t-26 -53.5t-44 -35t-62.5 -20l171 -324h-83l-164 315h-223v-315h-78v750zM158 681v-299h170q54 0 91 5t59.5 18.5t32.5 37t10 60.5v58q0 34 -9 57.5t-28.5 37t-51.5 19.5t-77 6h-197z
M327 944q31 0 55.5 -10.5t42 -29.5t27 -44t10.5 -54h-57q-3 37 -21.5 59.5t-56.5 22.5t-56.5 -22.5t-22.5 -59.5h-56q2 29 11.5 54t27 44t41.5 29.5t55 10.5z" />
    <glyph glyph-name="uni0213" unicode="&#x213;" horiz-adv-x="364" 
d="M350 487q-54 -5 -106 -25.5t-91 -59.5v-402h-75v548h66l8 -76q13 13 32.5 28t44.5 28t55.5 22.5t65.5 11.5v-75zM213 744q31 0 55.5 -10.5t42 -29.5t27 -44t10.5 -54h-57q-3 37 -21.5 59.5t-56.5 22.5t-56.5 -22.5t-22.5 -59.5h-56q2 29 11.5 54t27 44t41.5 29.5t55 10.5
z" />
    <glyph glyph-name="uni0214" unicode="&#x214;" horiz-adv-x="725" 
d="M150 750v-468q0 -61 12.5 -103.5t38 -69t65.5 -38.5t95 -12q57 0 97.5 12t66.5 38.5t38 69t12 103.5v468h78v-473q0 -149 -70 -219.5t-222 -70.5q-151 0 -220 70.5t-69 219.5v473h78zM334 806h-62l-73 134h80zM476 806h-61l-70 134h81z" />
    <glyph glyph-name="uni0215" unicode="&#x215;" horiz-adv-x="586" 
d="M149 548v-382q0 -54 20.5 -81t74.5 -27q43 0 93.5 17t95.5 47v426h75v-548h-66l-8 56q-41 -26 -94.5 -46t-104.5 -20q-87 0 -124 40t-37 118v400h75zM265 606h-62l-73 134h80zM407 606h-61l-70 134h81z" />
    <glyph glyph-name="uni0216" unicode="&#x216;" horiz-adv-x="725" 
d="M150 750v-468q0 -61 12.5 -103.5t38 -69t65.5 -38.5t95 -12q57 0 97.5 12t66.5 38.5t38 69t12 103.5v468h78v-473q0 -149 -70 -219.5t-222 -70.5q-151 0 -220 70.5t-69 219.5v473h78zM362 944q31 0 55.5 -10.5t42 -29.5t27 -44t10.5 -54h-57q-3 37 -21.5 59.5t-56.5 22.5
t-56.5 -22.5t-22.5 -59.5h-56q2 29 11.5 54t27 44t41.5 29.5t55 10.5z" />
    <glyph glyph-name="uni0217" unicode="&#x217;" horiz-adv-x="586" 
d="M149 548v-382q0 -54 20.5 -81t74.5 -27q43 0 93.5 17t95.5 47v426h75v-548h-66l-8 56q-41 -26 -94.5 -46t-104.5 -20q-87 0 -124 40t-37 118v400h75zM294 744q31 0 55.5 -10.5t42 -29.5t27 -44t10.5 -54h-57q-3 37 -21.5 59.5t-56.5 22.5t-56.5 -22.5t-22.5 -59.5h-56
q2 29 11.5 54t27 44t41.5 29.5t55 10.5z" />
    <glyph glyph-name="uni0218" unicode="&#x218;" horiz-adv-x="592" 
d="M550 207q0 -46 -11.5 -85.5t-41 -69t-79.5 -46t-127 -16.5q-57 0 -118 9t-121 32v73q77 -28 134.5 -36.5t103.5 -8.5q98 0 140 34.5t42 106.5q0 30 -6 50.5t-21 35.5t-41.5 26t-68.5 22l-108 28q-90 23 -130.5 68t-40.5 129q0 103 59 152t188 49q57 0 108 -7t88 -20v-64
q-43 12 -86 17.5t-91 5.5q-52 0 -88.5 -6.5t-59 -22t-32.5 -41t-10 -63.5q0 -28 6 -48t20 -35t37 -25.5t56 -19.5l106 -28q60 -16 97.5 -33.5t59 -40.5t29 -52.5t7.5 -69.5zM274 -56h88l-63 -177h-67z" />
    <glyph glyph-name="uni0219" unicode="&#x219;" horiz-adv-x="467" 
d="M431 151q0 -35 -9.5 -64.5t-32 -51t-60.5 -33.5t-95 -12q-42 0 -94 7.5t-94 24.5v66q54 -20 99.5 -27t84.5 -7q37 0 62 6.5t39.5 18.5t20.5 29t6 38t-2.5 35t-13 25t-33 20t-61.5 19l-46 12q-45 12 -74.5 25t-47 30.5t-24.5 41t-7 55.5q0 77 48 115t148 38q43 0 82.5 -5
t67.5 -15v-61q-32 9 -67 14t-73 5q-76 0 -105 -20.5t-29 -65.5q0 -20 3.5 -34t15 -25t32 -19.5t54.5 -16.5l46 -11q49 -12 80.5 -25.5t48.5 -32t23.5 -42.5t6.5 -57zM221 -56h88l-63 -177h-67z" />
    <glyph glyph-name="uni021A" unicode="&#x21a;" horiz-adv-x="607" 
d="M18 750h571v-71h-247v-679h-78v679h-246v71zM260 -56h88l-63 -177h-67z" />
    <glyph glyph-name="uni021B" unicode="&#x21b;" horiz-adv-x="386" 
d="M194 484v-337q0 -27 3.5 -44t11.5 -27.5t22 -14.5t34 -4t43.5 4.5t41.5 14.5v-64q-10 -6 -23.5 -10t-27.5 -6.5t-28 -4t-24 -1.5q-67 0 -97.5 34.5t-30.5 100.5v359h-99v64h99v124l75 24v-148h155v-64h-155zM171 -56h88l-63 -177h-67z" />
    <glyph glyph-name="uni021C" unicode="&#x21c;" horiz-adv-x="557" 
d="M158 364v67l100 9q86 8 126.5 39t40.5 93q0 66 -45 93t-148 27q-37 0 -84 -6.5t-93 -22.5v68q38 14 88.5 22t97.5 8q131 0 196.5 -47.5t65.5 -141.5q0 -48 -21 -89t-72 -69q34 -11 57 -29t36 -39.5t18 -45.5t5 -48q-1 -63 -26 -107t-66 -74t-93.5 -47.5t-108.5 -28
t-110 -15.5t-98 -9v75q82 6 159 16t135.5 31.5t94 59t35.5 100.5q0 34 -10.5 57.5t-27.5 38t-40.5 22t-48.5 11.5q-30 -6 -65 -9z" />
    <glyph glyph-name="uni021D" unicode="&#x21d;" horiz-adv-x="555" 
d="M161 165v64l97 11q86 9 128.5 41t42.5 94q0 68 -46.5 95.5t-149.5 27.5q-35 0 -83 -6.5t-93 -22.5v65q38 14 88 22t97 8q134 0 197.5 -47.5t63.5 -141.5q0 -48 -22 -89t-74 -69q36 -11 59 -28.5t36.5 -39.5t18.5 -46t5 -48q-1 -63 -26 -107t-66.5 -73.5t-94.5 -47
t-108.5 -27.5t-109.5 -14.5t-97 -8.5v72q86 7 163.5 17t136 31.5t93 59.5t34.5 100q0 35 -11 58.5t-29.5 38t-42.5 21.5t-50 10q-28 -6 -62 -9z" />
    <glyph glyph-name="uni021E" unicode="&#x21e;" horiz-adv-x="716" 
d="M636 0h-78v357h-400v-357h-78v750h78v-323h400v323h78v-750zM223 944h64l71 -95l71 95h63l-100 -148h-69z" />
    <glyph glyph-name="uni021F" unicode="&#x21f;" horiz-adv-x="587" 
d="M440 0v381q0 60 -21 86.5t-77 26.5q-45 0 -93.5 -16.5t-95.5 -45.5v-432h-75v750l75 24v-277q20 12 44 23.5t49.5 21t52 15t52.5 5.5q86 0 125 -41t39 -119v-402h-75zM190 944h64l71 -95l71 95h63l-100 -148h-69z" />
    <glyph glyph-name="uni0220" unicode="&#x220;" horiz-adv-x="734" 
d="M578 -216v746q0 37 -6 66.5t-21.5 50.5t-41.5 32t-66 11q-72 0 -143 -26t-138 -67v-597h-79v750h69l9 -81q72 43 146.5 68t147.5 25q103 0 152 -56t49 -151v-771h-78z" />
    <glyph glyph-name="uni0221" unicode="&#x221;" horiz-adv-x="717" 
d="M463 64q-54 -38 -109.5 -56t-112.5 -18q-50 0 -86 14t-58.5 39t-33 59.5t-10.5 75.5v160q0 60 15.5 102.5t45 69.5t71 39.5t93.5 12.5q20 0 44 -3t47 -8.5t43.5 -12.5t33.5 -15v227q19 6 38 11.5t37 12.5v-657v-14t2 -15q23 14 48.5 23t52.5 9q54 0 78.5 -24.5
t24.5 -61.5q0 -24 -9 -42t-25 -29.5t-36.5 -17t-43.5 -5.5q-43 0 -72.5 17t-47.5 41q-39 -44 -65 -97h-64q18 39 44.5 76t58.5 69q-2 5 -2.5 9t-1.5 9zM446 457q-36 18 -80.5 28t-82.5 10q-35 0 -64 -7.5t-49 -26t-31 -49.5t-11 -77v-139q0 -75 30 -107t95 -32
q49 0 100 15.5t93 43.5v341zM623 71q-23 0 -44 -9t-41 -24q10 -21 28.5 -34.5t48.5 -13.5q60 0 60 41q0 18 -11.5 29t-40.5 11z" />
    <glyph glyph-name="uni0222" unicode="&#x222;" horiz-adv-x="645" 
d="M299 353l-30 -10q-69 -24 -103.5 -57t-34.5 -93q0 -35 14 -60.5t39.5 -42.5t61 -25.5t77.5 -8.5q88 0 139 35t51 105q0 26 -7.5 48.5t-27 41t-52 33.5t-81.5 25zM381 762q93 -11 142 -61t49 -134q0 -63 -35.5 -108.5t-104.5 -76.5q45 -13 76 -32.5t49.5 -43.5t26.5 -51.5
t8 -57.5q0 -46 -17 -84.5t-50.5 -66t-84 -42.5t-117.5 -15q-71 0 -122 15t-84 41.5t-48.5 64t-15.5 82.5q0 65 37.5 113t124.5 75q-72 22 -107.5 70.5t-35.5 114.5q0 81 49 132.5t140 64.5v-69q-57 -11 -84.5 -44.5t-27.5 -86.5q0 -59 32 -90.5t101 -46.5l70 -16l45 22
q47 23 72.5 53t25.5 78q0 57 -25.5 89.5t-88.5 41.5v69z" />
    <glyph glyph-name="uni0223" unicode="&#x223;" 
d="M281 367l-29 -12q-67 -27 -98 -63t-31 -95q0 -68 47.5 -106.5t129.5 -38.5q85 0 130.5 40t45.5 108q0 27 -7 50t-24.5 42.5t-48 35.5t-76.5 28zM360 774q86 -12 128.5 -62t42.5 -131q0 -65 -34.5 -111.5t-103.5 -78.5q85 -28 120 -76.5t35 -108.5q0 -44 -14 -83
t-43.5 -68.5t-76 -47t-110.5 -17.5q-69 0 -117 16.5t-78.5 45t-44 67t-13.5 81.5q0 63 36.5 113t119.5 77q-69 27 -104.5 76t-35.5 115q0 80 46.5 130.5t125.5 61.5v-61q-51 -11 -75.5 -46t-24.5 -87q0 -57 32 -92.5t94 -54.5l56 -16l45 22q45 21 70 54.5t25 87.5
q0 55 -23 87.5t-78 44.5v62z" />
    <glyph glyph-name="uni0224" unicode="&#x224;" horiz-adv-x="608" 
d="M183 158q-15 -21 -31.5 -43.5t-36.5 -48.5h460v-83q0 -82 -30.5 -119.5t-102.5 -37.5q-23 0 -43.5 3.5t-34.5 8.5v65q13 -4 29 -6.5t36 -2.5q41 0 54.5 22t13.5 74v10h-471v59l380 533q16 22 33.5 45.5t34.5 46.5h-433v66h522v-59z" />
    <glyph glyph-name="uni0225" unicode="&#x225;" horiz-adv-x="488" 
d="M190 151q-32 -44 -70 -89h339v-59q0 -94 -30.5 -135.5t-106.5 -41.5q-23 0 -45 3.5t-37 8.5v61q13 -4 31 -6.5t39 -2.5q41 0 57.5 23t16.5 77v10h-350v55l264 353q16 21 31 40t30 37h-314v63h400v-56z" />
    <glyph glyph-name="uni0226" unicode="&#x226;" horiz-adv-x="669" 
d="M663 0h-85l-84 221h-327l-81 -221h-80l283 750h76zM469 290l-97 259q-12 32 -22 58t-22 63q-10 -33 -20.5 -64t-21.5 -62l-94 -254h277zM288 913h81v-89h-81v89z" />
    <glyph glyph-name="uni0227" unicode="&#x227;" horiz-adv-x="535" 
d="M402 0l-6 56q-16 -10 -38.5 -21.5t-49 -21.5t-56 -16.5t-59.5 -6.5q-78 0 -115.5 38t-37.5 122v17q0 89 58 124.5t182 35.5h112v40q0 31 -4 55.5t-17 41.5t-38.5 26t-67.5 9q-37 0 -80 -8t-83 -23v63q44 16 87 23.5t85 7.5q64 0 102 -16t58 -43.5t25.5 -63.5t5.5 -76
v-363h-63zM392 269h-111q-48 0 -80 -5.5t-51 -18t-27 -34t-8 -53.5v-8q0 -54 20.5 -76t65.5 -22q22 0 48 4.5t51.5 13t49.5 19t42 22.5v158zM232 713h81v-89h-81v89z" />
    <glyph glyph-name="uni0228" unicode="&#x228;" 
d="M319 -263q-40 0 -81 7v56q15 -2 33.5 -3.5t37.5 -1.5q27 0 43.5 4t25 11t11.5 15.5t3 17.5v8q0 11 -3.5 20t-14 15t-29.5 9t-49 3h-16v102h-200v750h463v-70h-385v-256h352v-69h-352v-285h399v-70h-209v-57q69 -5 94.5 -27.5t25.5 -64.5v-7q0 -31 -11.5 -51.5t-32 -33
t-47.5 -17.5t-58 -5z" />
    <glyph glyph-name="uni0229" unicode="&#x229;" horiz-adv-x="553" 
d="M281 -263q-40 0 -81 7v56q15 -2 33.5 -3.5t37.5 -1.5q27 0 43.5 4t25 11t11.5 15.5t3 17.5v8q0 11 -3.5 20t-14 15t-29.5 9t-49 3h-16v96q-102 13 -147 74.5t-45 172.5v60q0 69 17.5 118.5t48.5 81t73.5 46.5t91.5 15q53 0 95 -13t71.5 -44t45 -83t15.5 -129v-38h-385
v-24q0 -51 10 -85t33.5 -54.5t62.5 -29.5t97 -9q14 0 32.5 2t37 5t35.5 7.5t29 9.5v-61q-34 -14 -74.5 -19.5t-75.5 -6.5v-47q69 -5 94.5 -27.5t25.5 -64.5v-7q0 -31 -11.5 -51.5t-32 -33t-47.5 -17.5t-58 -5zM436 318q0 42 -7.5 76t-25.5 57.5t-47.5 36t-73.5 12.5
q-80 0 -119.5 -48.5t-39.5 -133.5v-5h313v5z" />
    <glyph glyph-name="uni022A" unicode="&#x22a;" horiz-adv-x="740" 
d="M688 321q0 -163 -82 -248t-236 -85t-236 85t-82 248v108q0 162 82 247.5t236 85.5t236 -85.5t82 -247.5v-108zM609 422q0 139 -62.5 204t-176.5 65t-176.5 -65t-62.5 -204v-94q0 -140 62.5 -204.5t176.5 -64.5t176.5 64.5t62.5 204.5v94zM242 892h81v-89h-81v89zM418 892
h81v-89h-81v89zM238 1022h267v-60h-267v60z" />
    <glyph glyph-name="uni022B" unicode="&#x22b;" horiz-adv-x="583" 
d="M533 242q0 -121 -62 -186.5t-180 -65.5q-117 0 -179 65.5t-62 186.5v68q0 121 62 186.5t179 65.5q118 0 180 -65.5t62 -186.5v-68zM458 311q0 96 -43 142t-124 46q-80 0 -123 -46t-43 -142v-70q0 -94 42.5 -141t123.5 -47q82 0 124.5 47t42.5 141v70zM163 694h81v-89h-81
v89zM339 694h81v-89h-81v89zM159 811h267v-60h-267v60z" />
    <glyph glyph-name="uni022C" unicode="&#x22c;" horiz-adv-x="740" 
d="M688 321q0 -163 -82 -248t-236 -85t-236 85t-82 248v108q0 162 82 247.5t236 85.5t236 -85.5t82 -247.5v-108zM609 422q0 139 -62.5 204t-176.5 65t-176.5 -65t-62.5 -204v-94q0 -140 62.5 -204.5t176.5 -64.5t176.5 64.5t62.5 204.5v94zM432 792q-24 0 -40.5 10
t-29 22.5t-24.5 22.5t-27 10q-17 0 -28.5 -17t-13.5 -47h-58q2 24 8.5 46t18 39.5t28.5 27.5t41 10t41 -10t30 -22.5t24.5 -22.5t26.5 -10q22 0 30.5 17t10.5 48h58q-2 -22 -6.5 -44t-15.5 -40t-29 -29t-45 -11zM238 1022h267v-60h-267v60z" />
    <glyph glyph-name="uni022D" unicode="&#x22d;" horiz-adv-x="583" 
d="M533 242q0 -121 -62 -186.5t-180 -65.5q-117 0 -179 65.5t-62 186.5v68q0 121 62 186.5t179 65.5q118 0 180 -65.5t62 -186.5v-68zM458 311q0 96 -43 142t-124 46q-80 0 -123 -46t-43 -142v-70q0 -94 42.5 -141t123.5 -47q82 0 124.5 47t42.5 141v70zM354 589
q-24 0 -40.5 10t-29 22.5t-24.5 22.5t-27 10q-17 0 -28.5 -17t-13.5 -47h-58q2 24 8.5 46t18 39.5t28.5 27.5t41 10t41 -10t30 -22.5t24.5 -22.5t26.5 -10q22 0 30.5 17t10.5 48h58q-2 -22 -6.5 -44t-15.5 -40t-29 -29t-45 -11zM159 811h267v-60h-267v60z" />
    <glyph glyph-name="uni022E" unicode="&#x22e;" horiz-adv-x="740" 
d="M688 321q0 -163 -82 -248t-236 -85t-236 85t-82 248v108q0 162 82 247.5t236 85.5t236 -85.5t82 -247.5v-108zM609 422q0 139 -62.5 204t-176.5 65t-176.5 -65t-62.5 -204v-94q0 -140 62.5 -204.5t176.5 -64.5t176.5 64.5t62.5 204.5v94zM329 913h81v-89h-81v89z" />
    <glyph glyph-name="uni022F" unicode="&#x22f;" horiz-adv-x="583" 
d="M533 242q0 -121 -62 -186.5t-180 -65.5q-117 0 -179 65.5t-62 186.5v68q0 121 62 186.5t179 65.5q118 0 180 -65.5t62 -186.5v-68zM458 311q0 96 -43 142t-124 46q-80 0 -123 -46t-43 -142v-70q0 -94 42.5 -141t123.5 -47q82 0 124.5 47t42.5 141v70zM251 713h81v-89h-81
v89z" />
    <glyph glyph-name="uni0230" unicode="&#x230;" horiz-adv-x="740" 
d="M688 321q0 -163 -82 -248t-236 -85t-236 85t-82 248v108q0 162 82 247.5t236 85.5t236 -85.5t82 -247.5v-108zM609 422q0 139 -62.5 204t-176.5 65t-176.5 -65t-62.5 -204v-94q0 -140 62.5 -204.5t176.5 -64.5t176.5 64.5t62.5 204.5v94zM329 902h81v-89h-81v89z
M238 1022h267v-60h-267v60z" />
    <glyph glyph-name="uni0231" unicode="&#x231;" horiz-adv-x="583" 
d="M533 242q0 -121 -62 -186.5t-180 -65.5q-117 0 -179 65.5t-62 186.5v68q0 121 62 186.5t179 65.5q118 0 180 -65.5t62 -186.5v-68zM458 311q0 96 -43 142t-124 46q-80 0 -123 -46t-43 -142v-70q0 -94 42.5 -141t123.5 -47q82 0 124.5 47t42.5 141v70zM251 701h81v-89h-81
v89zM159 811h267v-60h-267v60z" />
    <glyph glyph-name="uni0232" unicode="&#x232;" horiz-adv-x="592" 
d="M339 313v-313h-77v311l-256 439h85l142 -253q18 -32 35.5 -64t32.5 -66q16 35 32.5 67t33.5 63l136 253h83zM163 915h267v-60h-267v60z" />
    <glyph glyph-name="uni0233" unicode="&#x233;" horiz-adv-x="533" 
d="M225 -213h-75l82 213l-218 548h81l131 -345q13 -33 23 -64t22 -74q13 45 23.5 77.5t21.5 63.5l128 342h75zM133 715h267v-60h-267v60z" />
    <glyph glyph-name="uni0234" unicode="&#x234;" horiz-adv-x="385" 
d="M196 196q28 6 61 6q70 0 104 -30.5t34 -77.5q0 -25 -10.5 -45t-28.5 -33.5t-41.5 -20.5t-49.5 -7q-36 0 -60.5 9.5t-40.5 26t-25 38.5t-13 46q-27 -20 -44 -48t-28 -60h-64q6 20 16.5 43t26.5 46t37.5 44t50.5 37v18v562l75 24v-578zM257 147q-17 0 -32 -2t-29 -5
q1 -19 4.5 -36.5t11.5 -31t21 -22t34 -8.5q37 0 53.5 16t16.5 36q0 25 -18.5 39t-61.5 14z" />
    <glyph glyph-name="uni0235" unicode="&#x235;" horiz-adv-x="694" 
d="M515 197q13 2 26 3.5t28 1.5q70 0 102.5 -29.5t32.5 -76.5q0 -25 -10 -45t-27.5 -34t-40.5 -21.5t-49 -7.5q-36 0 -60.5 10t-39.5 27t-23 39.5t-11 47.5q-29 -21 -47.5 -50t-29.5 -62h-64q6 21 17 44.5t27.5 47t39.5 45t54 36.5v15v193q0 60 -21.5 86.5t-76.5 26.5
q-44 0 -93.5 -16t-95.5 -47v-431h-75v548h66l8 -52q40 26 93.5 46t104.5 20q89 0 127 -42.5t38 -119.5v-203zM569 147q-15 0 -28.5 -1.5t-25.5 -3.5q0 -19 2.5 -37t9 -32t19 -22.5t33.5 -8.5q37 0 52 17t15 37q0 25 -17 38t-60 13z" />
    <glyph glyph-name="uni0236" unicode="&#x236;" horiz-adv-x="416" 
d="M142 484h-99v64h99v124l75 24v-148h155v-64h-155v-288q28 6 61 6q70 0 104 -30.5t34 -77.5q0 -25 -10.5 -45t-28.5 -33.5t-41.5 -20.5t-49.5 -7q-36 0 -60.5 9.5t-40.5 26t-25 38.5t-13 46q-27 -20 -44 -48t-28 -60h-64q6 20 16.5 43t26.5 46t37.5 44t50.5 37v18v296z
M278 147q-17 0 -32 -2t-29 -5q1 -19 4.5 -36.5t11.5 -31t21 -22t34 -8.5q37 0 53.5 16t16.5 36q0 25 -18.5 39t-61.5 14z" />
    <glyph glyph-name="uni0237" unicode="&#x237;" horiz-adv-x="254" 
d="M176 -81q0 -68 -27.5 -104t-100.5 -36q-20 0 -47 2.5t-47 8.5v62q19 -3 39 -5.5t44 -2.5q38 0 51 17t13 59v628h75v-629z" />
    <glyph glyph-name="uni0238" unicode="&#x238;" horiz-adv-x="968" 
d="M727 562q50 0 85.5 -15t58.5 -41t33.5 -61.5t10.5 -75.5v-154q0 -63 -16 -106t-44.5 -69.5t-68 -38.5t-85.5 -12q-58 0 -104 18.5t-81 41.5l-6 -49h-54l-6 54q-34 -24 -89 -44t-120 -20q-95 0 -141.5 48.5t-46.5 133.5v170q0 60 17 102t46.5 68t70 38t87.5 12
q54 0 98.5 -12t73.5 -27v227l75 24v-276q16 9 38 20.5t49 21t57 16t62 6.5zM446 457q-28 14 -70 26t-96 12q-32 0 -59.5 -7t-48 -25t-32.5 -48.5t-12 -77.5v-145q0 -75 31.5 -105t94.5 -30q50 0 101 16t91 43v341zM521 113q24 -18 49 -29t48 -17.5t42.5 -8.5t33.5 -2
q76 0 111 39.5t35 128.5v122q0 82 -32 115t-97 33q-51 0 -101.5 -19.5t-88.5 -42.5v-319z" />
    <glyph glyph-name="uni0239" unicode="&#x239;" horiz-adv-x="968" 
d="M727 562q50 0 85.5 -15t58.5 -41t33.5 -61t10.5 -75v-155q0 -63 -18.5 -106t-51 -69.5t-77 -38t-97.5 -11.5q-18 0 -38.5 2t-40.5 5t-38.5 8t-32.5 11v-232h-75v254q-35 -18 -87 -33t-116 -15q-96 0 -143 49t-47 133v170q0 60 17 102t46.5 68t70 38t87.5 12
q57 0 102 -15.5t74 -37.5l6 39h57l8 -50q16 9 38.5 20.5t48.5 21t56 16t63 6.5zM446 445q-32 22 -73 36t-93 14q-32 0 -59.5 -7t-48 -25t-32.5 -48.5t-12 -77.5v-145q0 -75 32 -105t95 -30q25 0 51 3t51.5 9t48 15t40.5 20v341zM521 79q30 -11 69 -17t72 -6q92 0 135 37.5
t43 131.5v122q0 82 -32 114.5t-98 32.5q-24 0 -49.5 -5.5t-50.5 -14t-47.5 -19.5t-41.5 -23v-353z" />
    <glyph glyph-name="uni023A" unicode="&#x23a;" horiz-adv-x="669" 
d="M441 558l112 234h63l-147 -306l194 -486h-85l-84 221h-152l-126 -264h-63l126 264h-112l-81 -221h-80l283 750h76zM312 290l88 183l-28 76q-12 32 -22 58t-22 63q-10 -33 -20.5 -64t-21.5 -62l-94 -254h120zM428 399l-53 -109h94z" />
    <glyph glyph-name="uni023B" unicode="&#x23b;" horiz-adv-x="618" 
d="M98 -43l44 91q-48 39 -68 103.5t-20 158.5v123q0 92 21 154.5t61.5 101t99 55t133.5 16.5q29 0 56.5 -1.5t53.5 -5.5l19 39h63l-24 -50l22 -7v-66q-11 3 -24 6t-28 5l-284 -593q28 -14 64.5 -20.5t86.5 -6.5q45 0 95.5 5.5t100.5 21.5v-66q-40 -17 -96 -24t-105 -7
q-109 0 -178 29l-30 -62h-63zM131 301q0 -60 10.5 -104t36.5 -74l270 565q-38 3 -75 3q-69 0 -115 -15.5t-74.5 -46.5t-40.5 -78t-12 -110v-140z" />
    <glyph glyph-name="uni023C" unicode="&#x23c;" horiz-adv-x="493" 
d="M78 -43l39 82q-35 29 -52 77t-17 119v75q0 69 17.5 117t49.5 78t77 43.5t100 13.5q19 0 37.5 -1.5t36.5 -3.5l27 57h60l-33 -68q5 -1 8.5 -2t8.5 -3v-60l-43 10l-200 -417q39 -21 106 -21q32 0 70 5t77 19v-62q-34 -15 -76 -20t-78 -5q-77 0 -129 21l-26 -54h-60z
M123 234q0 -38 6 -69t23 -54l185 386q-10 1 -19.5 1h-19.5q-50 0 -83.5 -13t-53.5 -36.5t-29 -56t-9 -72.5v-86z" />
    <glyph glyph-name="uni023D" unicode="&#x23d;" horiz-adv-x="576" 
d="M163 750v-313h179v-66h-179v-299h385v-72h-463v371h-95v66h95v313h78z" />
    <glyph glyph-name="uni023E" unicode="&#x23e;" horiz-adv-x="607" 
d="M18 750h460l20 42h63l-20 -42h48v-71h-82l-165 -344v-335h-78v172l-103 -215h-63l166 346v376h-246v71zM342 466l102 213h-102v-213z" />
    <glyph glyph-name="uni023F" unicode="&#x23f;" horiz-adv-x="464" 
d="M431 151q0 -35 -9.5 -64.5t-32 -51t-60.5 -33.5t-95 -12h-15t-15 1l32 -27q25 -21 48 -36t48 -24t53 -12.5t63 -2.5v-58q-31 0 -64 2.5t-66.5 13t-68.5 30.5t-69 55q-38 39 -62.5 55t-41.5 24q-14 4 -30 11v66q54 -20 99.5 -27t84.5 -7q37 0 62 6.5t39.5 18.5t20.5 29
t6 38t-2.5 35t-13 25t-33 20t-61.5 19l-46 12q-45 12 -74.5 25t-47 30.5t-24.5 41t-7 55.5q0 77 48 115t148 38q43 0 82.5 -5t67.5 -15v-61q-32 9 -67 14t-73 5q-76 0 -105 -20.5t-29 -65.5q0 -20 3.5 -34t15 -25t32 -19.5t54.5 -16.5l46 -11q49 -12 80.5 -25.5t48.5 -32
t23.5 -42.5t6.5 -57z" />
    <glyph glyph-name="uni0240" unicode="&#x240;" horiz-adv-x="492" 
d="M107 49q11 -3 23 -7.5t27.5 -12t36 -19.5t49.5 -31q22 -15 48 -29.5t55 -26t61.5 -18t67.5 -4.5v-65q-35 -2 -69.5 2.5t-71.5 17.5t-77 35t-86 55q-41 29 -80 41t-57 13v55l264 353q16 21 31 40t30 37h-314v63h400v-56l-255 -341q-17 -23 -40 -51t-43 -51z" />
    <glyph glyph-name="uni0241" unicode="&#x241;" horiz-adv-x="508" 
d="M192 201q0 34 5.5 63t19 55t35 50.5t54.5 50.5q25 20 41 35.5t25 31t12.5 33t3.5 43.5q0 30 -6 53t-23.5 38.5t-48 23t-78.5 7.5q-50 0 -97 -11.5t-89 -28.5v71q35 16 84 28.5t106 12.5q64 0 108 -13t71 -38t39 -61t12 -82q0 -42 -9 -71t-24 -51.5t-35.5 -40t-44.5 -36.5
q-27 -22 -44 -41t-26 -38.5t-12 -40.5t-3 -47v-197h-76v201z" />
    <glyph glyph-name="uni0242" unicode="&#x242;" horiz-adv-x="450" 
d="M180 96q0 26 1.5 46.5t9 39t23 37t42.5 39.5q21 16 35.5 29t23.5 26.5t13.5 30t4.5 41.5q0 30 -6 50.5t-20 33t-36 18t-55 5.5q-50 0 -88 -10t-82 -29v68q35 17 77 28t92 11q97 0 145 -41t48 -134q0 -37 -8 -62.5t-21.5 -45t-31.5 -35t-38 -31.5q-17 -14 -27.5 -25
t-16.5 -23.5t-8 -28.5t-2 -40v-94h-75v96z" />
    <glyph glyph-name="uni0243" unicode="&#x243;" horiz-adv-x="654" 
d="M5 247h83v503h242q55 0 100 -6.5t77 -24.5t49 -51t17 -85v-46q0 -24 -5 -46.5t-17.5 -41.5t-34.5 -33.5t-56 -22.5q74 -10 107 -48t33 -93v-74q0 -54 -15 -88.5t-47 -54.5t-82.5 -27.5t-121.5 -7.5h-246v181h-83v66zM166 358v-111h176v-66h-176v-114h170q54 0 90 5
t57.5 18.5t30.5 37t9 60.5v55q0 29 -8 50.5t-28 36t-54 21.5t-85 7h-182zM166 683v-262h177q34 0 62 5t48 17t31.5 33.5t11.5 54.5v51q0 31 -8 50.5t-27.5 30.5t-51.5 15.5t-81 4.5h-162z" />
    <glyph glyph-name="uni0244" unicode="&#x244;" horiz-adv-x="757" 
d="M166 750v-312h425v312h78v-312h83v-70h-83v-91q0 -149 -70 -219.5t-222 -70.5q-151 0 -220 70.5t-69 219.5v91h-83v70h83v312h78zM377 59q57 0 97.5 12t66.5 38.5t38 69t12 103.5v86h-425v-86q0 -61 12.5 -103.5t38 -69t65.5 -38.5t95 -12z" />
    <glyph glyph-name="uni0245" unicode="&#x245;" horiz-adv-x="665" 
d="M575 0l-190 506q-14 39 -27.5 74.5t-27.5 82.5q-14 -47 -26 -82.5t-27 -74.5l-190 -506h-81l286 750h76l291 -750h-84z" />
    <glyph glyph-name="uni0246" unicode="&#x246;" 
d="M461 750l20 42h63l-20 -42h19v-70h-53l-123 -256h143v-69h-176l-136 -285h359v-70h-393l-20 -43h-63l20 43h-21v750h381zM158 424h146l123 256h-269v-256zM158 118l113 237h-113v-237z" />
    <glyph glyph-name="uni0247" unicode="&#x247;" horiz-adv-x="553" 
d="M112 -43l32 68q-50 29 -72 82.5t-22 133.5v60q0 69 17.5 118.5t48.5 81t73.5 46.5t91.5 15q66 0 112 -20l34 72h60l-49 -101q34 -30 52 -83.5t18 -136.5v-38h-194l-91 -192q39 -10 103 -10q14 0 32.5 2t37 5t35.5 7.5t29 9.5v-61q-35 -14 -77 -20t-77 -6q-62 0 -112 14
l-22 -47h-60zM123 313h160l81 170q-32 17 -82 17q-80 0 -119.5 -48.5t-39.5 -133.5v-5zM123 231q0 -54 11.5 -89.5t38.5 -55.5l82 169h-132v-24zM436 318q0 40 -7 72.5t-23 55.5l-64 -133h94v5z" />
    <glyph glyph-name="uni0248" unicode="&#x248;" horiz-adv-x="417" 
d="M314 750v-313h98v-66h-98v-192q0 -48 -8.5 -83.5t-29.5 -59t-56 -35t-88 -11.5q-14 0 -30.5 1t-33 3.5t-31 5t-24.5 5.5v73q29 -8 58.5 -11t57.5 -3q62 0 84.5 29t22.5 94v184h-168v66h168v313h78z" />
    <glyph glyph-name="uni0249" unicode="&#x249;" horiz-adv-x="297" 
d="M176 346h116v-66h-116v-361q0 -68 -27.5 -104t-100.5 -36q-20 0 -47 2.5t-47 8.5v62q19 -3 39 -5.5t44 -2.5q38 0 51 17t13 59v360h-123v66h123v202h75v-202zM178 669h-79v82h79v-82z" />
    <glyph glyph-name="uni024A" unicode="&#x24a;" horiz-adv-x="782" 
d="M628 -38q0 -60 18.5 -88t66.5 -28q25 0 40 3t29 7v-64q-16 -6 -35 -9.5t-48 -3.5q-81 0 -115 42.5t-34 138.5v90q-44 -23 -110 -41.5t-147 -18.5q-59 0 -102 16.5t-70.5 46.5t-40.5 72.5t-13 95.5v264q0 75 20.5 128t56 86t84 48t104.5 15q72 0 129 -21t94 -48l7 54h66
v-785zM550 618q-40 28 -92 50t-118 22q-44 0 -79.5 -10.5t-61.5 -34.5t-40 -64t-14 -99v-248q0 -47 11 -80t32 -53.5t51 -29.5t69 -9q31 0 64.5 4t65.5 11.5t60.5 19t51.5 25.5v496z" />
    <glyph glyph-name="uni024B" unicode="&#x24b;" horiz-adv-x="642" 
d="M521 -74q0 -48 12 -68t50 -20q20 0 34 2.5t25 5.5v-59q-13 -5 -30 -7.5t-40 -2.5q-66 0 -96 36t-30 112v113q-35 -18 -87 -33t-116 -15q-96 0 -143 49t-47 133v170q0 60 17 102t46.5 68t70 38t87.5 12q57 0 102 -16.5t74 -38.5l6 41h65v-622zM446 443q-32 22 -73 37
t-93 15q-32 0 -59.5 -7t-48 -25t-32.5 -48.5t-12 -77.5v-145q0 -75 32 -105t95 -30q25 0 51 3t51.5 9t48 15t40.5 20v339z" />
    <glyph glyph-name="uni024C" unicode="&#x24c;" horiz-adv-x="681" 
d="M106 315h-101v67h101v368h273q55 0 100.5 -7t77.5 -28t49.5 -59.5t17.5 -102.5v-45q0 -44 -8.5 -75.5t-26 -53.5t-44 -35t-62.5 -20l171 -324h-83l-164 315h-223v-315h-78v315zM184 681v-299h170q54 0 91 5t59.5 18.5t32.5 37t10 60.5v58q0 34 -9 57.5t-28.5 37
t-51.5 19.5t-77 6h-197z" />
    <glyph glyph-name="uni024D" unicode="&#x24d;" horiz-adv-x="364" 
d="M350 487q-54 -5 -106 -25.5t-91 -59.5v-80h153v-63h-153v-259h-75v259h-78v63h78v226h66l8 -76q13 13 32.5 28t44.5 28t55.5 22.5t65.5 11.5v-75z" />
    <glyph glyph-name="uni024E" unicode="&#x24e;" horiz-adv-x="614" 
d="M534 641h80v-62h-115l-150 -266v-313h-77v311l-157 268h-115v62h79l-63 109h85l61 -109h292l59 109h83zM311 367q16 35 32.5 67t33.5 63l44 82h-224l46 -82q18 -32 35.5 -64t32.5 -66z" />
    <glyph glyph-name="uni024F" unicode="&#x24f;" horiz-adv-x="550" 
d="M464 389h81v-63h-105l-208 -539h-75l82 213l-130 326h-104v63h79l-63 159h81l60 -159h229l60 159h75zM278 65q13 45 23.5 77.5t21.5 63.5l45 120h-182l47 -123q13 -33 23 -64t22 -74z" />
    <glyph glyph-name="gravecomb" unicode="&#x300;" horiz-adv-x="600" 
d="M357 606h-77l-108 134h97z" />
    <glyph glyph-name="acutecomb" unicode="&#x301;" horiz-adv-x="600" 
d="M308 740h97l-111 -134h-77z" />
    <glyph glyph-name="uni0302" unicode="&#x302;" horiz-adv-x="600" 
d="M265 754h69l100 -148h-64l-71 95l-72 -95h-62z" />
    <glyph glyph-name="tildecomb" unicode="&#x303;" horiz-adv-x="600" 
d="M362 613q-24 0 -40.5 10t-29 22.5t-24.5 22.5t-27 10q-17 0 -28.5 -17t-13.5 -47h-58q2 24 8.5 46t18 39.5t28.5 27.5t41 10t41 -10t30 -22.5t24.5 -22.5t26.5 -10q22 0 30.5 17t10.5 48h58q-2 -22 -6.5 -44t-15.5 -40t-29 -29t-45 -11z" />
    <glyph glyph-name="uni0304" unicode="&#x304;" horiz-adv-x="600" 
d="M166 715h267v-60h-267v60z" />
    <glyph glyph-name="uni0306" unicode="&#x306;" horiz-adv-x="605" 
d="M302 606q-31 0 -55 10.5t-41.5 29.5t-27 44t-11.5 54h57q4 -37 22 -59.5t56 -22.5t57 22.5t22 59.5h56q-1 -29 -10.5 -54t-27 -44t-42 -29.5t-55.5 -10.5z" />
    <glyph glyph-name="uni0307" unicode="&#x307;" horiz-adv-x="600" 
d="M259 713h81v-89h-81v89z" />
    <glyph glyph-name="uni0308" unicode="&#x308;" horiz-adv-x="600" 
d="M171 712h81v-89h-81v89zM347 712h81v-89h-81v89z" />
    <glyph glyph-name="hookabovecomb" unicode="&#x309;" horiz-adv-x="600" 
d="M268 594v21q0 13 1.5 21t7 15t14.5 13t24 15q22 13 29 19.5t7 22.5q0 15 -12 21t-44 6q-17 0 -39.5 -4t-40.5 -11v49q16 7 37 11.5t45 4.5q58 0 84.5 -19.5t26.5 -55.5q0 -17 -5 -28t-12 -19t-15.5 -13.5t-15.5 -9.5q-12 -8 -20 -12.5t-12 -8t-5.5 -8.5t-1.5 -12v-18h-53
z" />
    <glyph glyph-name="uni030A" unicode="&#x30a;" horiz-adv-x="600" 
d="M299 639q24 0 39 14.5t15 40.5q0 24 -15 39.5t-39 15.5t-39 -15.5t-15 -39.5q0 -26 15 -40.5t39 -14.5zM299 595q-22 0 -41 8t-32.5 21.5t-21 31.5t-7.5 38q0 41 28.5 70t73.5 29q22 0 41 -8t33 -21.5t21.5 -31.5t7.5 -38t-7.5 -38t-21.5 -31.5t-33 -21.5t-41 -8z" />
    <glyph glyph-name="uni030B" unicode="&#x30b;" horiz-adv-x="600" 
d="M362 740h79l-70 -134h-58zM207 740h80l-70 -134h-60z" />
    <glyph glyph-name="uni030C" unicode="&#x30c;" horiz-adv-x="610" 
d="M165 744h64l71 -95l71 95h63l-100 -148h-69z" />
    <glyph glyph-name="uni030F" unicode="&#x30f;" horiz-adv-x="600" 
d="M296 606h-62l-73 134h80zM438 606h-61l-70 134h81z" />
    <glyph glyph-name="uni0310" unicode="&#x310;" horiz-adv-x="600" 
d="M260 831h80v-86h-80v86zM300 606q-31 0 -55 10.5t-41.5 29.5t-27 44t-11.5 54h56q4 -37 22.5 -59.5t56.5 -22.5t56.5 22.5t21.5 59.5h57q-1 -29 -10.5 -54t-27 -44t-42 -29.5t-55.5 -10.5z" />
    <glyph glyph-name="uni0311" unicode="&#x311;" horiz-adv-x="600" 
d="M300 744q31 0 55.5 -10.5t42 -29.5t27 -44t10.5 -54h-57q-3 37 -21.5 59.5t-56.5 22.5t-56.5 -22.5t-22.5 -59.5h-56q2 29 11.5 54t27 44t41.5 29.5t55 10.5z" />
    <glyph glyph-name="uni0316" unicode="&#x316;" horiz-adv-x="600" 
d="M396 -208h-81l-111 134h101z" />
    <glyph glyph-name="uni0317" unicode="&#x317;" horiz-adv-x="600" 
d="M293 -74h100l-110 -134h-81z" />
    <glyph glyph-name="dotbelowcomb" unicode="&#x323;" horiz-adv-x="600" 
d="M259 -90h81v-89h-81v89z" />
    <glyph glyph-name="uni0324" unicode="&#x324;" horiz-adv-x="600" 
d="M170 -90h82v-91h-82v91zM347 -90h82v-91h-82v91z" />
    <glyph glyph-name="uni0325" unicode="&#x325;" horiz-adv-x="600" 
d="M299 -196q25 0 40 14.5t15 40.5q0 25 -15 40.5t-40 15.5q-24 0 -39 -15.5t-15 -40.5q0 -26 15 -40.5t39 -14.5zM299 -240q-22 0 -41 8t-32.5 21.5t-21 31.5t-7.5 38q0 41 28.5 70t73.5 29q22 0 41 -8t33 -21.5t21.5 -31.5t7.5 -38t-7.5 -38t-21.5 -31.5t-33 -21.5t-41 -8
z" />
    <glyph glyph-name="uni0326" unicode="&#x326;" horiz-adv-x="600" 
d="M277 -56h88l-63 -177h-67z" />
    <glyph glyph-name="uni0327" unicode="&#x327;" horiz-adv-x="600" 
d="M298 -263q-40 0 -81 7v56q15 -2 33.5 -3.5t37.5 -1.5q27 0 43.5 4t25 11t11.5 15.5t3 17.5v8q0 11 -3.5 20t-14 15t-29.5 9t-49 3h-16v128h68v-83q69 -5 94.5 -27.5t25.5 -64.5v-7q0 -31 -11.5 -51.5t-32 -33t-47.5 -17.5t-58 -5z" />
    <glyph glyph-name="uni0328" unicode="&#x328;" horiz-adv-x="600" 
d="M327 -223q-63 0 -97 27t-34 69v9q0 20 10 39t26 34.5t34.5 27.5t35.5 17h72q-20 -10 -38 -22.5t-31.5 -26.5t-21.5 -29t-8 -30v-8q0 -23 16 -34.5t55 -11.5q15 0 33 2t29 5v-57q-13 -4 -33 -7.5t-48 -3.5z" />
    <glyph glyph-name="uni032C" unicode="&#x32c;" horiz-adv-x="600" 
d="M165 -67h60l74 -96l73 96h62l-100 -148h-69z" />
    <glyph glyph-name="uni032D" unicode="&#x32d;" horiz-adv-x="600" 
d="M265 -70h69l100 -148h-62l-73 96l-74 -96h-60z" />
    <glyph glyph-name="uni032E" unicode="&#x32e;" horiz-adv-x="600" 
d="M300 -210q-31 0 -55 10.5t-41.5 29.5t-27 44t-11.5 54h55q4 -37 23 -60t57 -23t57 23t22 60h56q-1 -29 -10.5 -54t-27 -44t-42 -29.5t-55.5 -10.5z" />
    <glyph glyph-name="uni032F" unicode="&#x32f;" horiz-adv-x="600" 
d="M300 -75q31 0 55.5 -10.5t42 -29.5t27 -44t10.5 -54h-56q-3 37 -22 60t-57 23t-57 -23t-23 -60h-55q2 29 11.5 54t27 44t41.5 29.5t55 10.5z" />
    <glyph glyph-name="uni0330" unicode="&#x330;" horiz-adv-x="600" 
d="M363 -206q-24 0 -41 11t-30.5 24.5t-25 24.5t-26.5 11q-18 0 -30 -17t-15 -52h-55q2 24 8.5 46.5t17.5 40t28 28t41 10.5q25 0 42 -11t31 -24.5t26 -24.5t27 -11q23 0 32 20t11 51h55q-2 -22 -7 -44.5t-16 -41t-28.5 -30t-44.5 -11.5z" />
    <glyph glyph-name="uni0331" unicode="&#x331;" horiz-adv-x="600" 
d="M150 -107h299v-60h-299v60z" />
    <glyph glyph-name="uni0340" unicode="&#x340;" horiz-adv-x="600" 
d="M299 606h-77l-110 134h96z" />
    <glyph glyph-name="uni0341" unicode="&#x341;" horiz-adv-x="600" 
d="M289 740h96l-110 -134h-77z" />
    <glyph glyph-name="uni0342" unicode="&#x342;" horiz-adv-x="600" 
d="M362 613q-24 0 -40.5 10t-29 22.5t-24.5 22.5t-27 10q-17 0 -28.5 -17t-13.5 -47h-58q2 24 8.5 46t18 39.5t28.5 27.5t41 10t41 -10t30 -22.5t24.5 -22.5t26.5 -10q22 0 30.5 17t10.5 48h58q-2 -22 -6.5 -44t-15.5 -40t-29 -29t-45 -11z" />
    <glyph glyph-name="uni0400" unicode="&#x400;" 
d="M543 750v-70h-385v-256h352v-69h-352v-285h399v-70h-477v750h463zM381 806h-77l-108 134h97z" />
    <glyph glyph-name="uni0401" unicode="&#x401;" 
d="M543 750v-70h-385v-256h352v-69h-352v-285h399v-70h-477v750h463zM192 912h81v-89h-81v89zM368 912h81v-89h-81v89z" />
    <glyph glyph-name="uni0402" unicode="&#x402;" horiz-adv-x="781" 
d="M635 261q0 27 -3.5 50t-15 39.5t-31.5 26t-53 9.5q-41 0 -91 -17.5t-95 -48.5v-320h-77v681h-233v69h578v-69h-268v-299q39 26 92.5 47.5t106.5 21.5q90 0 128 -43.5t38 -119.5v-314q0 -49 -3.5 -85t-16.5 -60t-38.5 -36t-69.5 -12q-50 0 -96 11v63q19 -4 38.5 -6.5
t42.5 -2.5q38 0 52.5 17t14.5 60v338z" />
    <glyph glyph-name="uni0403" unicode="&#x403;" horiz-adv-x="570" 
d="M348 941h88l-109 -137h-73zM156 0h-76v750h462v-70h-386v-680z" />
    <glyph glyph-name="uni0404" unicode="&#x404;" horiz-adv-x="623" 
d="M559 669q-34 11 -84.5 16.5t-101.5 5.5q-69 0 -115 -15.5t-74.5 -46.5t-40.5 -78t-12 -110v-29h354v-68h-354v-43q0 -61 11 -106t39 -75t74.5 -45t118.5 -15q45 0 95.5 5.5t100.5 21.5v-66q-40 -17 -96 -24t-105 -7q-90 0 -150.5 19t-97 58.5t-52 99.5t-15.5 143v123
q0 92 21 154.5t61.5 101t99 55t133.5 16.5q54 0 104 -5.5t86 -19.5v-66z" />
    <glyph glyph-name="uni0405" unicode="&#x405;" horiz-adv-x="592" 
d="M550 207q0 -46 -11.5 -85.5t-41 -69t-79.5 -46t-127 -16.5q-57 0 -118 9t-121 32v73q77 -28 134.5 -36.5t103.5 -8.5q98 0 140 34.5t42 106.5q0 30 -6 50.5t-21 35.5t-41.5 26t-68.5 22l-108 28q-90 23 -130.5 68t-40.5 129q0 103 59 152t188 49q57 0 108 -7t88 -20v-64
q-43 12 -86 17.5t-91 5.5q-52 0 -88.5 -6.5t-59 -22t-32.5 -41t-10 -63.5q0 -28 6 -48t20 -35t37 -25.5t56 -19.5l106 -28q60 -16 97.5 -33.5t59 -40.5t29 -52.5t7.5 -69.5z" />
    <glyph glyph-name="uni0406" unicode="&#x406;" horiz-adv-x="238" 
d="M158 0h-78v750h78v-750z" />
    <glyph glyph-name="uni0407" unicode="&#x407;" horiz-adv-x="238" 
d="M158 0h-78v750h78v-750zM-9 912h81v-89h-81v89zM167 912h81v-89h-81v89z" />
    <glyph glyph-name="uni0408" unicode="&#x408;" horiz-adv-x="388" 
d="M314 750v-571q0 -48 -8.5 -83.5t-29.5 -59t-56 -35t-88 -11.5q-14 0 -30.5 1t-33 3.5t-31 5t-24.5 5.5v73q29 -8 58.5 -11t57.5 -3q62 0 84.5 29t22.5 94v563h78z" />
    <glyph glyph-name="uni0409" unicode="&#x409;" horiz-adv-x="1073" 
d="M553 682h-284v-309q0 -92 -9 -161.5t-33.5 -116.5t-69 -71t-114.5 -24h-15v65h13q80 0 115.5 55.5t35.5 171.5v458h436v-259h128q68 0 118 -7.5t83 -28t49 -56.5t16 -93v-113q0 -63 -17.5 -101t-49.5 -58.5t-76.5 -27t-98.5 -6.5h-227v682zM776 62q45 0 77.5 6t53 20.5
t30 39.5t9.5 63v114q0 39 -9.5 63.5t-31.5 38t-58.5 18.5t-91.5 5h-127v-368h148z" />
    <glyph glyph-name="uni040A" unicode="&#x40a;" horiz-adv-x="1068" 
d="M624 750v-307h127q68 0 118 -7.5t83 -28t49 -56.5t16 -93v-65q0 -63 -17.5 -101t-49.5 -58.5t-76.5 -27t-98.5 -6.5h-226v374h-391v-374h-76v750h76v-307h391v307h75zM771 62q46 0 78 6t52.5 20.5t30 39.5t9.5 63v65q0 39 -9.5 63t-32 38t-59 19t-90.5 5h-126v-319h147z
" />
    <glyph glyph-name="uni040B" unicode="&#x40b;" horiz-adv-x="781" 
d="M711 0h-76v261q0 27 -3.5 50t-15 39.5t-31.5 26t-53 9.5q-41 0 -91 -17.5t-95 -48.5v-320h-77v681h-233v69h578v-69h-268v-299q39 26 92.5 47.5t106.5 21.5q90 0 128 -43.5t38 -119.5v-288z" />
    <glyph glyph-name="uni040C" unicode="&#x40c;" horiz-adv-x="655" 
d="M366 964h89l-110 -137h-72zM336 379l296 -379h-96l-266 344h-112v-344h-78v750h78v-337h117l238 337h90z" />
    <glyph glyph-name="uni040D" unicode="&#x40d;" horiz-adv-x="724" 
d="M430 827h-72l-110 137h89zM638 0h-76v644q-8 -18 -15 -33t-15 -30t-17 -30.5t-21 -34.5l-328 -516h-86v750h76v-646q17 37 33 68t36 62l327 516h86v-750z" />
    <glyph glyph-name="uni040E" unicode="&#x40e;" horiz-adv-x="561" 
d="M166 0l77 195l-223 555h84l127 -329q7 -20 13.5 -37l13 -34t13.5 -37t15 -46q13 38 26.5 77t27.5 77l123 329h81l-293 -750h-85zM286 804q-31 0 -55 11t-41.5 30t-27 45t-11.5 55h52q2 -42 23 -66.5t60 -24.5q40 0 60.5 24.5t22.5 66.5h52q-1 -29 -10.5 -55t-27 -45
t-42 -30t-55.5 -11z" />
    <glyph glyph-name="uni040F" unicode="&#x40f;" horiz-adv-x="706" 
d="M546 750h77v-750h-234v-154h-73v154h-234v750h77v-681h387v681z" />
    <glyph glyph-name="uni0410" unicode="&#x410;" horiz-adv-x="669" 
d="M663 0h-85l-84 221h-327l-81 -221h-80l283 750h76zM469 290l-97 259q-12 32 -22 58t-22 63q-10 -33 -20.5 -64t-21.5 -62l-94 -254h277z" />
    <glyph glyph-name="uni0411" unicode="&#x411;" horiz-adv-x="645" 
d="M588 196q0 -59 -16 -97t-46.5 -60t-74.5 -30.5t-100 -8.5h-271v750h462v-70h-385v-223h178q65 0 113 -9t79 -31t46 -59t15 -93v-69zM346 68q88 0 126.5 26t38.5 94v82q0 36 -9.5 59t-31 36.5t-57.5 19t-90 5.5h-166v-322h189z" />
    <glyph glyph-name="uni0412" unicode="&#x412;" horiz-adv-x="646" 
d="M80 750h242q55 0 100 -6.5t77 -24.5t49 -51t17 -85v-46q0 -24 -5 -46.5t-17.5 -41.5t-34.5 -33.5t-56 -22.5q74 -10 107 -48t33 -93v-74q0 -54 -15 -88.5t-47 -54.5t-82.5 -27.5t-121.5 -7.5h-246v750zM158 358v-291h170q54 0 90 5t57.5 18.5t30.5 37t9 60.5v55
q0 29 -8 50.5t-28 36t-54 21.5t-85 7h-182zM158 683v-262h177q34 0 62 5t48 17t31.5 33.5t11.5 54.5v51q0 31 -8 50.5t-27.5 30.5t-51.5 15.5t-81 4.5h-162z" />
    <glyph glyph-name="uni0413" unicode="&#x413;" horiz-adv-x="570" 
d="M156 0h-76v750h462v-70h-386v-680z" />
    <glyph glyph-name="uni0414" unicode="&#x414;" horiz-adv-x="721" 
d="M711 -154h-76v154h-547v-154h-78v224h23q72 0 107 60t35 172v448h440v-680h96v-224zM250 334q0 -62 -4.5 -104.5t-14.5 -72.5t-25.5 -50t-36.5 -37h369v610h-288v-346z" />
    <glyph glyph-name="uni0415" unicode="&#x415;" 
d="M543 750v-70h-385v-256h352v-69h-352v-285h399v-70h-477v750h463z" />
    <glyph glyph-name="uni0416" unicode="&#x416;" horiz-adv-x="913" 
d="M495 0h-77v343h-59l-248 -343h-96l279 379l-245 371h88l217 -336h64v336h77v-336h65l217 336h87l-245 -371l279 -379h-95l-249 343h-59v-343z" />
    <glyph glyph-name="uni0417" unicode="&#x417;" horiz-adv-x="587" 
d="M180 419h101q78 0 115.5 37t37.5 103q0 33 -8 58t-27 41.5t-51 24.5t-81 8q-51 0 -102.5 -10.5t-95.5 -26.5v70q37 14 90.5 26t110.5 12q68 0 114.5 -13.5t75 -39t40.5 -63t12 -86.5q0 -26 -6 -52.5t-20.5 -50t-39 -42.5t-62.5 -29q78 -14 113.5 -58.5t35.5 -119.5
q0 -107 -61.5 -162.5t-200.5 -55.5q-66 0 -126 11.5t-97 25.5v72q21 -8 48 -15t56 -12t58 -8t56 -3q53 0 89 9.5t58.5 28.5t32 46.5t9.5 62.5q0 42 -12.5 70t-35.5 44t-55.5 22.5t-72.5 6.5h-99v68z" />
    <glyph glyph-name="uni0418" unicode="&#x418;" horiz-adv-x="718" 
d="M638 0h-76v644q-8 -18 -15 -33t-15 -30t-17 -30.5t-21 -34.5l-328 -516h-86v750h76v-646q17 37 33 68t36 62l327 516h86v-750z" />
    <glyph glyph-name="uni0419" unicode="&#x419;" horiz-adv-x="718" 
d="M638 0h-76v644q-8 -18 -15 -33t-15 -30t-17 -30.5t-21 -34.5l-328 -516h-86v750h76v-646q17 37 33 68t36 62l327 516h86v-750zM372 806q-31 0 -55 10.5t-41.5 29.5t-27 44t-11.5 54h57q4 -37 22 -59.5t56 -22.5t57 22.5t22 59.5h56q-1 -29 -10.5 -54t-27 -44t-42 -29.5
t-55.5 -10.5z" />
    <glyph glyph-name="uni041A" unicode="&#x41a;" horiz-adv-x="647" 
d="M336 379l296 -379h-96l-266 344h-112v-344h-78v750h78v-337h117l238 337h90z" />
    <glyph glyph-name="uni041B" unicode="&#x41b;" horiz-adv-x="708" 
d="M264 357q0 -93 -11 -160.5t-37 -111t-70.5 -64.5t-110.5 -21h-11v71h11q38 0 67 12t48 40.5t28.5 75.5t9.5 117v434h440v-750h-77v680h-287v-323z" />
    <glyph glyph-name="uni041C" unicode="&#x41c;" horiz-adv-x="851" 
d="M771 0h-75v500q0 36 1 81t4 85q-14 -49 -25 -89.5t-24 -76.5l-180 -500h-84l-188 501l-12 34t-12 35t-12.5 39.5t-13.5 47.5q2 -24 3 -43.5t2 -37.5t1 -36.5v-40.5v-499h-76v750h98l198 -527q15 -39 28 -77.5t26 -83.5q12 45 23.5 83t25.5 78l187 527h105v-750z" />
    <glyph glyph-name="uni041D" unicode="&#x41d;" horiz-adv-x="716" 
d="M636 0h-78v357h-400v-357h-78v750h78v-323h400v323h78v-750z" />
    <glyph glyph-name="uni041E" unicode="&#x41e;" horiz-adv-x="740" 
d="M688 321q0 -163 -82 -248t-236 -85t-236 85t-82 248v108q0 162 82 247.5t236 85.5t236 -85.5t82 -247.5v-108zM609 422q0 139 -62.5 204t-176.5 65t-176.5 -65t-62.5 -204v-94q0 -140 62.5 -204.5t176.5 -64.5t176.5 64.5t62.5 204.5v94z" />
    <glyph glyph-name="uni041F" unicode="&#x41f;" horiz-adv-x="708" 
d="M628 0h-78v680h-392v-680h-78v750h548v-750z" />
    <glyph glyph-name="uni0420" unicode="&#x420;" horiz-adv-x="633" 
d="M80 750h271q55 0 101 -7t78 -28t50 -60.5t18 -103.5v-51q0 -60 -16 -98t-49 -59.5t-83 -29.5t-117 -8h-175v-305h-78v750zM158 681v-308h170q54 0 91 5t59.5 18.5t32.5 37t10 61.5v67q0 34 -9 57t-29 37t-51.5 19.5t-76.5 5.5h-197z" />
    <glyph glyph-name="uni0421" unicode="&#x421;" horiz-adv-x="618" 
d="M559 669q-34 11 -84.5 16.5t-101.5 5.5q-69 0 -115 -15.5t-74.5 -46.5t-40.5 -78t-12 -110v-140q0 -61 11 -106t39 -75t74.5 -45t118.5 -15q45 0 95.5 5.5t100.5 21.5v-66q-40 -17 -96 -24t-105 -7q-90 0 -150.5 19t-97 58.5t-52 99.5t-15.5 143v123q0 92 21 154.5
t61.5 101t99 55t133.5 16.5q54 0 104 -5.5t86 -19.5v-66z" />
    <glyph glyph-name="uni0422" unicode="&#x422;" horiz-adv-x="607" 
d="M18 750h571v-71h-247v-679h-78v679h-246v71z" />
    <glyph glyph-name="uni0423" unicode="&#x423;" horiz-adv-x="555" 
d="M243 0h-82l79 203l-216 547h86l129 -345q12 -32 21.5 -59.5t22.5 -67.5q13 40 22 68t20 59l127 345h83z" />
    <glyph glyph-name="uni0424" unicode="&#x424;" horiz-adv-x="774" 
d="M425 696q68 -3 124 -17.5t95.5 -46.5t61.5 -84.5t22 -130.5v-53q0 -134 -72.5 -204t-230.5 -78v-88h-76v88q-154 6 -228.5 72.5t-74.5 209.5v50q0 80 21.5 133.5t61.5 85.5t95.5 46.5t124.5 17.5v65h76v-66zM118 372q0 -64 15.5 -106.5t44.5 -68t72 -37t99 -13.5v484
q-56 -2 -99.5 -13.5t-72.5 -37t-44 -67.5t-15 -106v-35zM655 407q0 63 -15.5 105.5t-44.5 68t-72 37t-98 13.5v-484q55 2 97.5 13.5t72 37.5t45 68t15.5 106v35z" />
    <glyph glyph-name="uni0425" unicode="&#x425;" horiz-adv-x="652" 
d="M399 219q-18 29 -35.5 57t-38.5 68q-23 -41 -40 -70t-34 -55l-134 -219h-89l247 385l-237 365h92l122 -200q16 -26 33 -55.5t41 -71.5q24 38 40.5 65.5t36.5 60.5l123 201h87l-236 -365l247 -385h-92z" />
    <glyph glyph-name="uni0426" unicode="&#x426;" horiz-adv-x="713" 
d="M703 -154h-76v154h-547v750h78v-680h371v680h78v-680h96v-224z" />
    <glyph glyph-name="uni0427" unicode="&#x427;" horiz-adv-x="679" 
d="M599 0h-77v367q-28 -21 -61.5 -39t-70.5 -31.5t-76.5 -21t-78.5 -7.5q-85 0 -135 40.5t-50 119.5v322h76v-300q0 -61 30.5 -87t90.5 -26q63 0 134.5 26t140.5 76v311h77v-750z" />
    <glyph glyph-name="uni0428" unicode="&#x428;" horiz-adv-x="903" 
d="M823 0h-743v750h77v-680h256v680h77v-680h256v680h77v-750z" />
    <glyph glyph-name="uni0429" unicode="&#x429;" horiz-adv-x="925" 
d="M915 -154h-76v154h-759v750h77v-680h254v680h77v-680h254v680h77v-680h96v-224z" />
    <glyph glyph-name="uni042A" unicode="&#x42a;" horiz-adv-x="741" 
d="M18 750h277v-256h153q66 0 113.5 -9t78.5 -31t46 -59t15 -94v-105q0 -59 -16 -97t-46 -60t-74 -30.5t-100 -8.5h-246v680h-201v70zM460 68q89 0 127 26t38 94v119q0 36 -9.5 59t-31 36.5t-57.5 19t-90 5.5h-142v-359h165z" />
    <glyph glyph-name="uni042B" unicode="&#x42b;" horiz-adv-x="814" 
d="M528 196q0 -59 -16 -97t-46.5 -60t-74.5 -30.5t-100 -8.5h-211v750h76v-261h119q65 0 113 -9t79 -31t46 -59t15 -94v-100zM287 68q88 0 126.5 26t38.5 94v114q0 36 -9.5 59t-31 36.5t-57.5 19t-90 5.5h-108v-354h131zM734 0h-77v750h77v-750z" />
    <glyph glyph-name="uni042C" unicode="&#x42c;" horiz-adv-x="605" 
d="M565 196q0 -59 -16 -97t-46.5 -60t-74.5 -30.5t-100 -8.5h-248v750h76v-259h156q65 0 113 -9t79 -31t46 -59t15 -93v-103zM324 68q88 0 126.5 26t38.5 94v116q0 36 -9.5 59t-31 36.5t-57.5 19t-90 5.5h-145v-356h168z" />
    <glyph glyph-name="uni042D" unicode="&#x42d;" horiz-adv-x="618" 
d="M486 412v38q0 65 -14.5 110.5t-45 74.5t-77.5 42.5t-111 13.5q-55 0 -99.5 -5.5t-79.5 -15.5v65q39 14 88 19.5t95 5.5q81 0 141.5 -17.5t100.5 -56t60 -100t20 -149.5v-128q0 -77 -15 -136.5t-51.5 -100t-98 -61.5t-154.5 -21q-53 0 -106 7.5t-91 22.5v66
q81 -27 188 -27q69 0 116.5 14.5t77 44t43 74t13.5 104.5v48h-349v68h349z" />
    <glyph glyph-name="uni042E" unicode="&#x42e;" horiz-adv-x="951" 
d="M156 750v-343h146v22q0 162 74.5 247.5t224.5 85.5t224 -85.5t74 -247.5v-109q0 -162 -74 -247t-224 -85t-224.5 85t-74.5 247v18h-146v-338h-76v750h76zM822 423q0 141 -54.5 205t-166.5 64t-166.5 -64t-54.5 -205v-97q0 -141 55 -204.5t166 -63.5t166 63.5t55 204.5v97
z" />
    <glyph glyph-name="uni042F" unicode="&#x42f;" horiz-adv-x="657" 
d="M577 0h-77v315h-217l-174 -315h-82l179 322q-75 13 -111 55t-36 130v46q0 60 16 98t46 60t74 30.5t100 8.5h282v-750zM301 681q-89 0 -127 -26t-38 -93v-60q0 -36 10 -59t32 -36.5t58 -19t88 -5.5h176v299h-199z" />
    <glyph glyph-name="uni0430" unicode="&#x430;" horiz-adv-x="535" 
d="M402 0l-6 56q-16 -10 -38.5 -21.5t-49 -21.5t-56 -16.5t-59.5 -6.5q-78 0 -115.5 38t-37.5 122v17q0 89 58 124.5t182 35.5h112v40q0 31 -4 55.5t-17 41.5t-38.5 26t-67.5 9q-37 0 -80 -8t-83 -23v63q44 16 87 23.5t85 7.5q64 0 102 -16t58 -43.5t25.5 -63.5t5.5 -76
v-363h-63zM392 269h-111q-48 0 -80 -5.5t-51 -18t-27 -34t-8 -53.5v-8q0 -54 20.5 -76t65.5 -22q22 0 48 4.5t51.5 13t49.5 19t42 22.5v158z" />
    <glyph glyph-name="uni0431" unicode="&#x431;" horiz-adv-x="634" 
d="M584 246q0 -61 -13.5 -109t-44 -81t-81 -50t-123.5 -17q-75 0 -126 16.5t-82 53t-44.5 94.5t-13.5 140v141q0 99 27 163t84 100.5t145.5 51t212.5 14.5v-65q-107 0 -181.5 -11t-121.5 -39.5t-68.5 -76.5t-21.5 -122v-27q56 37 110 53.5t117 16.5q49 0 90.5 -12
t71.5 -38.5t46.5 -69t16.5 -102.5v-24zM323 53q52 0 87.5 13t57.5 38t31 62.5t9 85.5v7q0 91 -38.5 131t-116.5 40q-108 0 -221 -67v-75q0 -62 9.5 -106t31.5 -73t58.5 -42.5t91.5 -13.5z" />
    <glyph glyph-name="uni0432" unicode="&#x432;" horiz-adv-x="551" 
d="M78 548h220q43 0 76 -5t55.5 -19t34.5 -38.5t12 -62.5v-33q0 -35 -15.5 -65t-57.5 -40q43 -5 67.5 -31t24.5 -76v-40q0 -40 -10.5 -66.5t-32.5 -42.5t-56.5 -22.5t-82.5 -6.5h-235v548zM151 252v-189h146q35 0 59 3t38.5 12t21 25t6.5 41v27q0 19 -4.5 34.5t-17 25.5
t-34 15.5t-55.5 5.5h-160zM151 486v-178h138q58 0 85.5 17t27.5 60v15q0 26 -4.5 43t-18 26.5t-38 13t-64.5 3.5h-126z" />
    <glyph glyph-name="uni0433" unicode="&#x433;" horiz-adv-x="465" 
d="M445 548v-68h-294v-480h-73v548h367z" />
    <glyph glyph-name="uni0434" unicode="&#x434;" horiz-adv-x="622" 
d="M82 -154h-72v218h38q29 0 48.5 14.5t31 38t16.5 54t5 62.5v315h374v-484h89v-218h-72v154h-458v-154zM450 64v421h-228v-223q0 -43 -2.5 -74t-8 -54t-15.5 -40t-25 -30h279z" />
    <glyph glyph-name="uni0435" unicode="&#x435;" horiz-adv-x="553" 
d="M123 255v-24q0 -51 10 -85t33.5 -54.5t62.5 -29.5t97 -9q14 0 32.5 2t37 5t35.5 7.5t29 9.5v-61q-35 -14 -77 -20t-77 -6q-68 0 -116.5 15.5t-79.5 46.5t-45.5 78.5t-14.5 110.5v60q0 69 17.5 118.5t48.5 81t73.5 46.5t91.5 15q53 0 95 -13t71.5 -44t45 -83t15.5 -129
v-38h-385zM436 318q0 42 -7.5 76t-25.5 57.5t-47.5 36t-73.5 12.5q-80 0 -119.5 -48.5t-39.5 -133.5v-5h313v5z" />
    <glyph glyph-name="uni0436" unicode="&#x436;" horiz-adv-x="735" 
d="M333 0v254h-37l-194 -254h-87l222 282l-216 266h85l182 -233h45v233h72v-233h42l183 233h84l-215 -266l221 -282h-86l-194 254h-35v-254h-72z" />
    <glyph glyph-name="uni0437" unicode="&#x437;" horiz-adv-x="467" 
d="M134 321h79q57 0 86.5 24t29.5 69q0 19 -5.5 34.5t-20 27t-39 18t-61.5 6.5q-41 0 -79.5 -7t-70.5 -18v60q27 11 68.5 19t83.5 8q101 0 148.5 -35t47.5 -104q0 -44 -24.5 -80t-78.5 -49q60 -12 89.5 -45t29.5 -90q0 -77 -50 -123t-161 -46q-49 0 -94 7.5t-72 18.5v61
q32 -11 77 -17.5t85 -6.5q75 0 109 30t34 78q0 56 -37.5 79t-96.5 23h-77v58z" />
    <glyph glyph-name="uni0438" unicode="&#x438;" horiz-adv-x="596" 
d="M427 548h91v-548h-71v467q-10 -23 -21 -44t-25 -43l-234 -380h-89v548h72v-456q14 27 25.5 49t26.5 46z" />
    <glyph glyph-name="uni0439" unicode="&#x439;" horiz-adv-x="596" 
d="M427 548h91v-548h-71v467q-10 -23 -21 -44t-25 -43l-234 -380h-89v548h72v-456q14 27 25.5 49t26.5 46zM305 606q-31 0 -55 10.5t-41.5 29.5t-27 44t-11.5 54h57q4 -37 22 -59.5t56 -22.5t57 22.5t22 59.5h56q-1 -29 -10.5 -54t-27 -44t-42 -29.5t-55.5 -10.5z" />
    <glyph glyph-name="uni043A" unicode="&#x43a;" horiz-adv-x="528" 
d="M150 318h90l182 230h85l-216 -264l222 -284h-87l-194 255h-82v-255h-72v548h72v-230z" />
    <glyph glyph-name="uni043B" unicode="&#x43b;" horiz-adv-x="590" 
d="M237 348q0 -93 -11.5 -158.5t-37.5 -107.5t-68 -61t-102 -19h-13v66h14q34 0 61 11.5t46 39t28.5 74.5t9.5 118v237h348v-548h-74v485h-201v-137z" />
    <glyph glyph-name="uni043C" unicode="&#x43c;" horiz-adv-x="711" 
d="M633 0h-73v366q0 12 0.5 27.5t1.5 32.5l2 34t2 32q-10 -35 -18 -66t-19 -60l-131 -366h-81l-135 367q-11 29 -19.5 56.5t-18.5 71.5q2 -36 3.5 -67t1.5 -63v-365h-71v548h108l136 -366q11 -30 19 -54t18 -58q11 34 18.5 58t18.5 53l131 367h106v-548z" />
    <glyph glyph-name="uni043D" unicode="&#x43d;" horiz-adv-x="597" 
d="M519 0h-75v257h-292v-257h-74v548h74v-227h292v227h75v-548z" />
    <glyph glyph-name="uni043E" unicode="&#x43e;" horiz-adv-x="583" 
d="M533 242q0 -121 -62 -186.5t-180 -65.5q-117 0 -179 65.5t-62 186.5v68q0 121 62 186.5t179 65.5q118 0 180 -65.5t62 -186.5v-68zM458 311q0 96 -43 142t-124 46q-80 0 -123 -46t-43 -142v-70q0 -94 42.5 -141t123.5 -47q82 0 124.5 47t42.5 141v70z" />
    <glyph glyph-name="uni043F" unicode="&#x43f;" horiz-adv-x="602" 
d="M524 0h-75v484h-297v-484h-74v548h446v-548z" />
    <glyph glyph-name="uni0440" unicode="&#x440;" horiz-adv-x="602" 
d="M358 562q50 0 85.5 -15t58.5 -41t33.5 -61t10.5 -75v-155q0 -63 -18.5 -106t-51 -69.5t-77 -38t-97.5 -11.5q-18 0 -38.5 2t-40.5 5t-38.5 8t-32.5 11v-232h-74v764h65l9 -50q16 9 38.5 20.5t48.5 21t56 16t63 6.5zM152 79q30 -11 69 -17t72 -6q92 0 135 37.5t43 131.5
v122q0 82 -32 114.5t-98 32.5q-24 0 -49.5 -5.5t-50.5 -14t-47.5 -19.5t-41.5 -23v-353z" />
    <glyph glyph-name="uni0441" unicode="&#x441;" horiz-adv-x="489" 
d="M439 481q-35 11 -69.5 14t-69.5 3q-50 0 -83.5 -13t-53.5 -36.5t-29 -56t-9 -72.5v-86q0 -41 8 -74.5t28 -57t54 -36.5t87 -13q32 0 70 5t77 19v-62q-34 -15 -76 -20t-78 -5q-123 0 -184 56.5t-61 188.5v75q0 69 17.5 117t49.5 78t77 43.5t100 13.5q38 0 75 -4.5
t70 -16.5v-60z" />
    <glyph glyph-name="uni0442" unicode="&#x442;" horiz-adv-x="486" 
d="M466 548v-64h-187v-484h-74v484h-185v64h446z" />
    <glyph glyph-name="uni0443" unicode="&#x443;" horiz-adv-x="533" 
d="M225 -213h-75l82 213l-218 548h81l131 -345q13 -33 23 -64t22 -74q13 45 23.5 77.5t21.5 63.5l128 342h75z" />
    <glyph glyph-name="uni0444" unicode="&#x444;" horiz-adv-x="733" 
d="M403 -219h-73v211q-76 4 -130 24t-88.5 54.5t-50.5 81.5t-16 106v44q0 135 74 199.5t211 70.5v177h73v-176q136 -6 210.5 -70.5t74.5 -199.5v-44q0 -59 -16 -106t-50.5 -81.5t-88.5 -54.5t-130 -24v-212zM403 56q110 6 160.5 54.5t50.5 152.5v38q0 103 -50.5 153
t-160.5 56v-454zM119 262q0 -104 50.5 -152.5t160.5 -54.5v454q-110 -6 -160.5 -56t-50.5 -153v-38z" />
    <glyph glyph-name="uni0445" unicode="&#x445;" horiz-adv-x="538" 
d="M274 322q18 31 35.5 59.5t35.5 56.5l71 110h88l-186 -269l196 -279h-86l-84 123q-23 34 -40 59.5t-32 48.5h-1q-17 -27 -35.5 -53.5t-37.5 -53.5l-86 -124h-88l201 279l-191 269h87l75 -110l77 -116h1z" />
    <glyph glyph-name="uni0446" unicode="&#x446;" horiz-adv-x="611" 
d="M512 65h89v-219h-72v154h-451v548h74v-483h285v483h75v-483z" />
    <glyph glyph-name="uni0447" unicode="&#x447;" horiz-adv-x="569" 
d="M135 548v-170q0 -27 3 -49.5t13.5 -38t30 -24.5t52.5 -9q42 0 89 16.5t93 47.5v227h75v-548h-74v257q-41 -25 -91.5 -45t-100.5 -20q-89 0 -127 41.5t-38 118.5v196h75z" />
    <glyph glyph-name="uni0448" unicode="&#x448;" horiz-adv-x="895" 
d="M817 0h-739v548h75v-484h257v484h75v-484h257v484h75v-548z" />
    <glyph glyph-name="uni0449" unicode="&#x449;" horiz-adv-x="910" 
d="M811 64h89v-218h-72v154h-750v548h75v-484h254v484h75v-484h254v484h75v-484z" />
    <glyph glyph-name="uni044A" unicode="&#x44a;" horiz-adv-x="562" 
d="M235 548v-176h117q44 0 77 -7t54.5 -23.5t32.5 -44t11 -69.5v-85q0 -43 -11.5 -71t-33.5 -44t-54.5 -22t-73.5 -6h-193v484h-156v64h230zM337 64q33 0 55 3.5t35.5 12.5t19.5 25t6 41v79q0 26 -6.5 42.5t-21 25.5t-38 12t-58.5 3h-94v-244h102z" />
    <glyph glyph-name="uni044B" unicode="&#x44b;" horiz-adv-x="699" 
d="M269 368q43 0 76 -6.5t55 -23t33 -44t11 -69.5v-82q0 -43 -11.5 -71t-34 -44t-54.5 -22t-73 -6h-193v548h74v-180h117zM254 64q32 0 54 3.5t35.5 12.5t19.5 25t6 41v76q0 26 -6.5 42t-20.5 25t-38 12t-58 3h-94v-240h102zM546 1v547h75v-547h-75z" />
    <glyph glyph-name="uni044C" unicode="&#x44c;" horiz-adv-x="481" 
d="M271 368q44 0 77 -6.5t54.5 -23t32.5 -44t11 -69.5v-82q0 -43 -11.5 -71t-33.5 -44t-54.5 -22t-73.5 -6h-195v548h75v-180h118zM256 64q33 0 55 3.5t35.5 12.5t19.5 25t6 41v76q0 26 -6.5 42t-21 25t-38 12t-58.5 3h-95v-240h103z" />
    <glyph glyph-name="uni044D" unicode="&#x44d;" horiz-adv-x="493" 
d="M368 309q0 91 -40.5 139.5t-139.5 48.5q-44 0 -79 -5.5t-59 -13.5v61q28 11 64.5 17t78.5 6q58 0 104.5 -14t79 -44.5t49.5 -79t17 -117.5v-69q0 -132 -61.5 -190t-189.5 -58q-35 0 -76.5 5.5t-75.5 20.5v64q39 -15 76.5 -20t69.5 -5q52 0 87 11.5t56 35t30 59.5t9 84
h-276v64h276z" />
    <glyph glyph-name="uni044E" unicode="&#x44e;" horiz-adv-x="803" 
d="M519 561q116 0 175 -65.5t59 -186.5v-68q0 -121 -59 -186.5t-175 -65.5q-115 0 -174.5 65.5t-59.5 186.5h-133v-241h-74v548h74v-243h133q0 123 59.5 189.5t174.5 66.5zM519 53q81 0 120 46.5t39 140.5v70q0 96 -39.5 141.5t-119.5 45.5t-119.5 -45.5t-39.5 -141.5v-70
q0 -94 39 -140.5t120 -46.5z" />
    <glyph glyph-name="uni044F" unicode="&#x44f;" horiz-adv-x="562" 
d="M225 225l-106 -225h-79l111 232q-48 11 -71.5 41.5t-23.5 92.5v36q0 43 11.5 71.5t33.5 45t54.5 23t73.5 6.5h255v-548h-75v225h-184zM246 484q-65 0 -90.5 -16.5t-25.5 -66.5v-30q0 -26 7 -42t22 -25t38.5 -12t56.5 -3h155v195h-163z" />
    <glyph glyph-name="uni0450" unicode="&#x450;" horiz-adv-x="553" 
d="M123 255v-24q0 -51 10 -85t33.5 -54.5t62.5 -29.5t97 -9q14 0 32.5 2t37 5t35.5 7.5t29 9.5v-61q-35 -14 -77 -20t-77 -6q-68 0 -116.5 15.5t-79.5 46.5t-45.5 78.5t-14.5 110.5v60q0 69 17.5 118.5t48.5 81t73.5 46.5t91.5 15q53 0 95 -13t71.5 -44t45 -83t15.5 -129
v-38h-385zM436 318q0 42 -7.5 76t-25.5 57.5t-47.5 36t-73.5 12.5q-80 0 -119.5 -48.5t-39.5 -133.5v-5h313v5zM344 606h-77l-108 134h97z" />
    <glyph glyph-name="uni0451" unicode="&#x451;" horiz-adv-x="553" 
d="M123 255v-24q0 -51 10 -85t33.5 -54.5t62.5 -29.5t97 -9q14 0 32.5 2t37 5t35.5 7.5t29 9.5v-61q-35 -14 -77 -20t-77 -6q-68 0 -116.5 15.5t-79.5 46.5t-45.5 78.5t-14.5 110.5v60q0 69 17.5 118.5t48.5 81t73.5 46.5t91.5 15q53 0 95 -13t71.5 -44t45 -83t15.5 -129
v-38h-385zM436 318q0 42 -7.5 76t-25.5 57.5t-47.5 36t-73.5 12.5q-80 0 -119.5 -48.5t-39.5 -133.5v-5h313v5zM163 712h81v-89h-81v89zM339 712h81v-89h-81v89z" />
    <glyph glyph-name="uni0452" unicode="&#x452;" horiz-adv-x="626" 
d="M190 774v-170h175v-59h-175v-189q19 12 43 24.5t50.5 22t54 15.5t53.5 6q89 0 127 -43t38 -120v-301q0 -49 -4.5 -83t-19 -55.5t-41 -31t-70.5 -9.5q-23 0 -47 3t-42 8v62q19 -4 38.5 -6.5t42.5 -2.5q38 0 53 17.5t15 59.5v315q0 27 -4 50t-15 39t-31.5 25t-53.5 9
q-42 0 -92 -17.5t-95 -48.5v-294h-75v545h-98v59h98v150z" />
    <glyph glyph-name="uni0453" unicode="&#x453;" horiz-adv-x="463" 
d="M73 547h362v-61h-287v-486h-75v547zM245 741h89l-110 -137h-73z" />
    <glyph glyph-name="uni0454" unicode="&#x454;" horiz-adv-x="501" 
d="M439 481q-35 11 -69.5 14t-69.5 3q-50 0 -83.5 -13t-53.5 -36.5t-29 -56t-9 -72.5v-11h278v-64h-278v-11q0 -41 8 -74.5t28 -57t54 -36.5t87 -13q32 0 70 5t77 19v-62q-34 -15 -76 -20t-78 -5q-123 0 -184 56.5t-61 188.5v75q0 69 17.5 117t49.5 78t77 43.5t100 13.5
q38 0 75 -4.5t70 -16.5v-60z" />
    </font>
</defs>
</svg>
