<?xml version="1.0" standalone="no"?>
<!DOCTYPE svg PUBLIC "-//W3C//DTD SVG 1.1//EN" "http://www.w3.org/Graphics/SVG/1.1/DTD/svg11.dtd" >
<svg xmlns="http://www.w3.org/2000/svg" xmlns:xlink="http://www.w3.org/1999/xlink" version="1.1">
<metadata>
Created by FontForge 20170731 at Thu Jul 27 12:31:50 2017
 By Aleksey,,,
Copyright c 2017 Hankook Tire Co.,Ltd. all rights reserved. Font designed by Sandoll Communications Inc.
</metadata>
<defs>
<font id="HankookTTFSemibold" horiz-adv-x="600" >
  <font-face 
    font-family="Hankook TTF Semibold"
    font-weight="600"
    font-stretch="normal"
    units-per-em="1000"
    panose-1="2 11 6 0 0 1 1 1 1 1"
    ascent="800"
    descent="-200"
    x-height="552"
    cap-height="750"
    bbox="-110 -301 1599 1151"
    underline-thickness="50"
    underline-position="-150"
    unicode-range="U+000D-206F"
  />
<missing-glyph horiz-adv-x="280" 
 />
    <glyph glyph-name=".notdef" horiz-adv-x="280" 
 />
    <glyph glyph-name=".null" horiz-adv-x="0" 
 />
    <glyph glyph-name="nonmarkingreturn" unicode="&#xd;" horiz-adv-x="280" 
 />
    <glyph glyph-name="NULL" horiz-adv-x="0" 
 />
    <glyph glyph-name="NULL" horiz-adv-x="0" 
 />
    <glyph glyph-name="space" unicode=" " horiz-adv-x="270" 
 />
    <glyph glyph-name="exclam" unicode="!" horiz-adv-x="288" 
d="M224 750l-20 -519h-120l-20 519h160zM70 144h147v-144h-147v144z" />
    <glyph glyph-name="quotedbl" unicode="&#x22;" horiz-adv-x="425" 
d="M181 750l-13 -247h-104l-14 247h131zM375 750l-13 -247h-104l-14 247h131z" />
    <glyph glyph-name="numbersign" unicode="#" horiz-adv-x="734" 
d="M489 197l-41 -197h-104l41 197h-133l-42 -197h-104l41 197h-117v106h140l34 161h-118v106h140l38 180h105l-38 -180h133l38 180h104l-38 -180h121v-106h-143l-34 -161h121v-106h-144zM274 303h134l34 161h-134z" />
    <glyph glyph-name="dollar" unicode="$" horiz-adv-x="665" 
d="M371 735q53 -2 101 -8.5t79 -15.5v-106q-19 5 -41.5 8.5t-46.5 6t-47.5 4t-44.5 1.5v-190l36 -9q58 -15 95.5 -33.5t59 -42t30 -53.5t8.5 -68q0 -46 -11 -83t-37.5 -64.5t-70.5 -44t-110 -21.5v-87h-67v85q-60 1 -123 10t-120 26v112q75 -20 134.5 -28.5t108.5 -8.5v194
l-59 15q-44 11 -77 26t-55.5 38.5t-34 56.5t-11.5 79q0 99 59 147.5t178 53.5v75h67v-75zM203 541q0 -20 5 -33.5t16.5 -23t31 -17t48.5 -15.5v171q-32 -3 -52 -9.5t-31 -16.5t-14.5 -24t-3.5 -32zM463 215q0 18 -4 31t-14.5 22.5t-28.5 17.5t-45 16v-173q53 8 72.5 29.5
t19.5 56.5z" />
    <glyph glyph-name="percent" unicode="%" horiz-adv-x="859" 
d="M126 0l488 736h121l-488 -736h-121zM389 517q0 -72 -47 -112t-128 -40t-127.5 40t-46.5 112v66q0 72 46.5 113t127.5 41t128 -41t47 -113v-66zM284 575q0 41 -17.5 56.5t-51.5 15.5t-52 -15.5t-18 -56.5v-49q0 -40 18 -56t52 -16t51.5 16t17.5 56v49zM819 140
q0 -72 -47 -112t-128 -40t-127.5 40t-46.5 112v66q0 72 46.5 113t127.5 41t128 -41t47 -113v-66zM714 198q0 41 -17.5 56.5t-51.5 15.5t-52 -15.5t-18 -56.5v-49q0 -40 18 -56t52 -16t51.5 16t17.5 56v49z" />
    <glyph glyph-name="ampersand" unicode="&#x26;" horiz-adv-x="705" 
d="M215 533q0 -48 25.5 -69.5t82.5 -21.5h357v-111h-79v-304q-60 -21 -128.5 -29.5t-144.5 -8.5q-73 0 -125 13t-85.5 40.5t-49 69.5t-15.5 100q0 24 5.5 50t18 49.5t33 43t49.5 31.5q-29 12 -47.5 29t-29 37.5t-15 43t-4.5 45.5q0 51 15 89t48 64t85 39t127 13
q26 0 54.5 -2t54.5 -5.5t49 -8t39 -10.5v-108q-40 10 -83.5 15t-83.5 5q-48 0 -77.5 -5.5t-46.5 -17.5t-23 -30.5t-6 -45.5zM459 331h-137q-24 0 -45.5 -4.5t-37 -17.5t-25 -35t-9.5 -56q0 -27 6.5 -48t22.5 -35.5t44 -22t70 -7.5t68 3.5t43 8.5v214z" />
    <glyph glyph-name="quotesingle" unicode="'" horiz-adv-x="231" 
d="M181 750l-13 -247h-104l-14 247h131z" />
    <glyph glyph-name="parenleft" unicode="(" horiz-adv-x="380" 
d="M61 409q0 58 9.5 118t29 115.5t47.5 104t66 84.5h147q-44 -44 -73 -94.5t-47 -104.5t-25.5 -110.5t-7.5 -111.5v-147q0 -56 7.5 -113t25 -112t47 -106.5t73.5 -95.5h-147q-38 36 -66 85t-47.5 106t-29 117.5t-9.5 119.5v145z" />
    <glyph glyph-name="parenright" unicode=")" horiz-adv-x="380" 
d="M319 264q0 -59 -9.5 -119.5t-29 -117.5t-48 -106t-65.5 -85h-147q44 44 73.5 95.5t47 106.5t25 112t7.5 113v147q0 55 -7.5 111.5t-25.5 110.5t-47.5 104.5t-72.5 94.5h147q37 -36 65.5 -84.5t48 -104t29 -115.5t9.5 -118v-145z" />
    <glyph glyph-name="asterisk" unicode="*" horiz-adv-x="469" 
d="M193 478l-113 -78l-48 89l130 56l-130 56l48 89l111 -79l-12 138h110l-14 -138l113 79l48 -89l-131 -56l131 -56l-48 -89l-113 78l14 -138h-110z" />
    <glyph glyph-name="plus" unicode="+" horiz-adv-x="588" 
d="M358 605v-199h190v-118h-190v-210h-128v210h-190v118h190v199h128z" />
    <glyph glyph-name="comma" unicode="," horiz-adv-x="285" 
d="M75 144h146l-77 -289h-109z" />
    <glyph glyph-name="hyphen" unicode="-" horiz-adv-x="310" 
d="M26 226v129h258v-129h-258z" />
    <glyph glyph-name="period" unicode="." horiz-adv-x="282" 
d="M67 144h147v-144h-147v144z" />
    <glyph glyph-name="slash" unicode="/" horiz-adv-x="551" 
d="M20 -164l374 995h137l-374 -995h-137z" />
    <glyph glyph-name="zero" unicode="0" horiz-adv-x="630" 
d="M595 311q0 -160 -68.5 -240.5t-212.5 -80.5q-142 0 -210.5 81.5t-68.5 239.5v123q0 158 68.5 239.5t210.5 81.5q144 0 212.5 -81.5t68.5 -239.5v-123zM436 428q0 55 -6 93.5t-20.5 61.5t-38 33.5t-57.5 10.5q-32 0 -55 -10.5t-37.5 -34t-21.5 -61.5t-7 -93v-112
q0 -56 7 -94t21.5 -61t37.5 -33t55 -10q34 0 57.5 10t37.5 33t20.5 61t6.5 94v112z" />
    <glyph glyph-name="one" unicode="1" horiz-adv-x="630" 
d="M112 0v116h166v472l-171 -83v129l224 111h102v-629h150v-116h-471z" />
    <glyph glyph-name="two" unicode="2" horiz-adv-x="630" 
d="M54 0v106l288 280q25 23 41 41t25 34t12 32.5t3 37.5v15q0 45 -31 62.5t-108 17.5q-24 0 -51 -3t-54 -8t-52 -12t-46 -15v125q20 8 46.5 15.5t55.5 13.5t58.5 9.5t56.5 3.5q74 0 126 -14t85 -40t48 -63t15 -83v-25q0 -33 -4.5 -59.5t-17 -51.5t-34.5 -50.5t-56 -58.5
l-197 -187h330v-123h-539z" />
    <glyph glyph-name="three" unicode="3" horiz-adv-x="630" 
d="M198 322v117h99q61 0 87 23.5t26 76.5q0 49 -29 70.5t-100 21.5q-48 0 -100 -10t-97 -26v122q37 14 96.5 26t122.5 12q70 0 118.5 -13t79 -39t44 -64t13.5 -87q0 -25 -5 -50.5t-18 -48t-35.5 -41t-58.5 -28.5q77 -16 108 -59t31 -114q0 -111 -66 -166t-217 -55
q-33 0 -66.5 3t-64.5 8.5t-57.5 12t-45.5 14.5v123q22 -8 49 -15t56.5 -12t59.5 -8t57 -3q82 0 113.5 27t31.5 78q0 33 -8 53t-24.5 31.5t-41 15.5t-57.5 4h-101z" />
    <glyph glyph-name="four" unicode="4" horiz-adv-x="630" 
d="M17 149v111l330 485h161v-481h99v-115h-99v-149h-143v149h-348zM365 264v312l-212 -312h212z" />
    <glyph glyph-name="five" unicode="5" horiz-adv-x="630" 
d="M101 745h443v-122h-309l-3 -163q25 4 45 5.5t47 1.5q76 0 126 -16t79.5 -44t41.5 -65.5t12 -79.5v-56q0 -99 -72.5 -157.5t-214.5 -58.5q-36 0 -71.5 3t-67 8.5t-58 12t-44.5 14.5v121q45 -16 103 -26t124 -10q78 0 113.5 26.5t35.5 75.5v30q0 61 -38.5 82.5t-121.5 21.5
q-45 0 -92.5 -5t-89.5 -12z" />
    <glyph glyph-name="six" unicode="6" horiz-adv-x="630" 
d="M48 425q0 102 27 166t71 100.5t100 50t115 13.5q56 0 103.5 -8.5t85.5 -20.5v-121q-18 7 -40 12t-45 8t-46 4.5t-43 1.5q-37 0 -69.5 -6t-57 -26t-39 -59t-15.5 -105q31 19 68.5 30.5t84.5 11.5q128 0 190.5 -53.5t62.5 -158.5v-45q0 -47 -16 -88.5t-49 -73t-84.5 -50
t-122.5 -18.5q-149 0 -215 83.5t-66 250.5v101zM333 360q-74 0 -138 -42q0 -55 7 -94t22.5 -63.5t41 -35.5t63.5 -11q37 0 61 9t38.5 25t20 37t5.5 45v29q0 56 -29 78.5t-92 22.5z" />
    <glyph glyph-name="seven" unicode="7" horiz-adv-x="630" 
d="M604 635l-300 -635h-163l306 619h-394v126h551v-110z" />
    <glyph glyph-name="eight" unicode="8" horiz-adv-x="630" 
d="M38 198q0 59 29.5 103.5t103.5 70.5q-63 24 -89 69t-26 107q0 100 66.5 153.5t199.5 53.5q138 0 203 -54.5t65 -151.5q0 -60 -28 -99.5t-88 -65.5q38 -13 63.5 -31t40.5 -41t21.5 -49.5t6.5 -56.5q0 -46 -15 -85.5t-48.5 -68.5t-86 -45.5t-127.5 -16.5q-81 0 -137 15.5
t-90 43.5t-49 66t-15 83zM293 323l-18 -9q-24 -12 -41 -23t-27.5 -23.5t-15.5 -27.5t-5 -35q0 -46 31.5 -70.5t100.5 -24.5q68 0 99.5 25t31.5 71q0 21 -5 37.5t-18 29.5t-35 23t-55 18zM208 549q0 -43 20.5 -64t67.5 -32l54 -12l32 15q32 14 48 33t16 61t-26 67t-93 25
q-66 0 -92.5 -24.5t-26.5 -68.5z" />
    <glyph glyph-name="nine" unicode="9" horiz-adv-x="630" 
d="M582 320q0 -102 -27 -166t-71 -100.5t-100 -50t-115 -13.5q-56 0 -103.5 8.5t-85.5 20.5v121q18 -7 40 -12t45 -8t46 -4.5t43 -1.5q37 0 69 6t56.5 26t39 59t16.5 105q-31 -20 -69 -31t-84 -11q-128 0 -190.5 53.5t-62.5 158.5v45q0 46 16 88t49 73.5t84.5 50t122.5 18.5
q149 0 215 -83.5t66 -250.5v-101zM297 385q35 0 70 10t68 31q-1 55 -7.5 94t-22 63.5t-41 36t-63.5 11.5q-37 0 -61 -9t-38.5 -25t-20 -37t-5.5 -45v-29q0 -56 29 -78.5t92 -22.5z" />
    <glyph glyph-name="colon" unicode=":" horiz-adv-x="282" 
d="M67 522h147v-144h-147v144zM67 144h147v-144h-147v144z" />
    <glyph glyph-name="semicolon" unicode=";" horiz-adv-x="282" 
d="M75 144h146l-77 -289h-109zM67 522h147v-144h-147v144z" />
    <glyph glyph-name="less" unicode="&#x3c;" horiz-adv-x="613" 
d="M229 371v-9l320 -146v-139l-479 232v114l479 232v-138z" />
    <glyph glyph-name="equal" unicode="=" horiz-adv-x="605" 
d="M48 407v122h508v-122h-508zM48 171v122h508v-122h-508z" />
    <glyph glyph-name="greater" unicode="&#x3e;" horiz-adv-x="613" 
d="M64 517v138l479 -232v-114l-479 -232v139l320 146v9z" />
    <glyph glyph-name="question" unicode="?" horiz-adv-x="509" 
d="M156 225v45q0 30 4.5 51t16.5 39t33.5 35.5t55.5 40.5q21 14 34.5 25.5t22 23.5t11.5 27t3 38q0 25 -5.5 42t-20 27.5t-38.5 15t-60 4.5q-46 0 -92.5 -10t-86.5 -26v114q35 16 88 28t109 12q73 0 121 -13.5t76 -39.5t39.5 -63.5t11.5 -84.5q0 -45 -10 -75.5t-25.5 -51.5
t-34 -35.5t-35.5 -26.5q-28 -20 -45 -32.5t-26.5 -23t-12.5 -21.5t-3 -27v-38h-131zM148 144h147v-144h-147v144z" />
    <glyph glyph-name="at" unicode="@" horiz-adv-x="998" 
d="M866 -130q-66 -21 -149.5 -34t-186.5 -13q-239 0 -358.5 98.5t-119.5 292.5v128q0 94 30.5 167.5t89 124t142.5 77t191 26.5q222 0 341.5 -99t119.5 -292v-64q0 -39 -5.5 -81.5t-26 -78t-60.5 -58t-108 -22.5q-38 0 -74.5 13t-58.5 42q-29 -23 -73.5 -39t-101.5 -16
q-90 0 -132 43.5t-42 126.5v123q0 50 13 85t35.5 57t54 32t69.5 10t75.5 -10t58.5 -27v18l135 19v-321q0 -28 13.5 -45.5t43.5 -17.5q44 0 62 37t18 109v71q0 78 -24.5 133t-71 90.5t-112.5 52t-148 16.5q-75 0 -139 -18t-111 -54.5t-73.5 -93t-26.5 -133.5v-123
q0 -158 91 -232t279 -74q99 0 186 13t154 36v-95zM585 387q-15 11 -39 19t-52 8q-33 0 -49 -20t-16 -70v-81q0 -48 13.5 -70t45.5 -22q26 0 50 6.5t47 23.5v206z" />
    <glyph glyph-name="A" unicode="A" horiz-adv-x="726" 
d="M444 750l274 -750h-171l-60 180h-260l-60 -180h-159l264 750h172zM265 309h182l-57 173q-11 35 -17.5 64t-15.5 69q-9 -40 -16.5 -69t-18.5 -64z" />
    <glyph glyph-name="B" unicode="B" horiz-adv-x="676" 
d="M68 750h294q55 0 100.5 -6.5t78 -25t50 -51t17.5 -83.5v-50q0 -22 -4.5 -43t-15 -39.5t-29 -33t-46.5 -23.5q65 -14 93 -50t28 -89v-78q0 -54 -16.5 -88.5t-50 -54.5t-85.5 -27.5t-123 -7.5h-291v750zM222 333v-217h121q40 0 65.5 4t40.5 14.5t20.5 27.5t5.5 44v35
q0 25 -6 43t-20 28.5t-37 15.5t-58 5h-132zM222 634v-193h126q23 0 41.5 3t32 12.5t21 27t7.5 45.5v30q0 46 -24.5 60.5t-86.5 14.5h-117z" />
    <glyph glyph-name="C" unicode="C" horiz-adv-x="630" 
d="M583 608q-35 9 -83.5 13.5t-97.5 4.5q-56 0 -94 -10t-61.5 -32t-33.5 -57t-10 -85v-127q0 -53 9.5 -89t32.5 -59t61 -33t95 -10q43 0 94 5t99 19v-127q-45 -18 -101.5 -24.5t-107.5 -6.5q-92 0 -156 17t-104.5 55t-59 99t-18.5 150v118q0 94 21 157.5t63 102t105 55
t148 16.5q27 0 55 -1.5t54 -4.5t49 -7.5t41 -11.5v-127z" />
    <glyph glyph-name="D" unicode="D" horiz-adv-x="734" 
d="M68 0v750h297q86 0 147 -16.5t99.5 -53t56.5 -94.5t18 -142v-156q0 -80 -18.5 -135t-57.5 -89t-100.5 -49t-148.5 -15h-293zM222 621v-492h128q57 0 92.5 11.5t55.5 33.5t27 55t7 76v139q0 41 -7 74t-26.5 56t-54.5 35t-90 12h-132z" />
    <glyph glyph-name="E" unicode="E" horiz-adv-x="618" 
d="M561 750v-125h-339v-179h307v-124h-307v-197h354v-125h-508v750h493z" />
    <glyph glyph-name="F" unicode="F" horiz-adv-x="589" 
d="M553 750v-130h-331v-200h299v-130h-299v-290h-154v750h485z" />
    <glyph glyph-name="G" unicode="G" horiz-adv-x="698" 
d="M593 611q-18 4 -41 8t-48.5 6t-52 3.5t-50.5 1.5q-60 0 -98.5 -12t-60.5 -35.5t-30.5 -58t-8.5 -80.5v-132q0 -45 7.5 -80.5t30 -60t63.5 -37.5t107 -13q21 0 44 1.5t47 6.5v176h-131v117h277v-398q-26 -9 -57.5 -15.5t-65 -10.5t-67 -6t-63.5 -2q-95 0 -161 17
t-107.5 55t-60.5 99t-19 150v117q0 94 20.5 157.5t62.5 102.5t105 55.5t148 16.5q27 0 55.5 -1.5t56.5 -4.5t53 -7.5t45 -11.5v-124z" />
    <glyph glyph-name="H" unicode="H" horiz-adv-x="739" 
d="M671 750v-750h-154v317h-295v-317h-154v750h154v-295h295v295h154z" />
    <glyph glyph-name="I" unicode="I" horiz-adv-x="290" 
d="M222 0h-154v750h154v-750z" />
    <glyph glyph-name="J" unicode="J" horiz-adv-x="450" 
d="M384 750v-541q0 -53 -10 -93.5t-35.5 -68.5t-68 -42.5t-106.5 -14.5q-30 0 -68.5 6t-67.5 20v130q31 -11 61 -16t54 -5q50 0 68.5 21t18.5 77v527h154z" />
    <glyph glyph-name="K" unicode="K" horiz-adv-x="720" 
d="M430 380l274 -380h-181l-217 316h-84v-316h-154v750h154v-309h80l194 309h179z" />
    <glyph glyph-name="L" unicode="L" horiz-adv-x="585" 
d="M222 750v-616h343v-134h-497v750h154z" />
    <glyph glyph-name="M" unicode="M" horiz-adv-x="891" 
d="M823 0h-140v493q0 29 2.5 61t5.5 64q-4 -20 -7.5 -40.5t-7 -39.5t-7 -34.5t-6.5 -25.5l-131 -478h-169l-136 484q-6 17 -14 49.5t-15 67.5q4 -29 5.5 -53t1.5 -51v-497h-137v750h203l153 -522q7 -23 13 -47t11 -50q5 25 10.5 49t12.5 47l144 523h208v-750z" />
    <glyph glyph-name="N" unicode="N" horiz-adv-x="730" 
d="M662 0h-160l-257 457q-10 17 -19 38t-17 44v-539h-141v750h159l262 -475q20 -37 32 -70v545h141v-750z" />
    <glyph glyph-name="O" unicode="O" horiz-adv-x="758" 
d="M713 315q0 -163 -86.5 -245.5t-247.5 -82.5t-247.5 82.5t-86.5 245.5v120q0 81 23 142t66.5 102.5t105 62.5t139.5 21t139.5 -21t105 -62.5t66.5 -102.5t23 -142v-120zM558 426q0 110 -45 158.5t-134 48.5t-134 -48.5t-45 -158.5v-102q0 -111 45 -159t134 -48t134 48
t45 159v102z" />
    <glyph glyph-name="P" unicode="P" horiz-adv-x="656" 
d="M68 750h296q61 0 109.5 -8t82.5 -30t52 -61t18 -101v-71q0 -58 -16.5 -96t-50.5 -60t-86 -31t-123 -9h-128v-283h-154v750zM222 635v-239h106q41 0 68.5 4t44.5 14.5t24 29t7 47.5v55q0 49 -29 69t-98 20h-123z" />
    <glyph glyph-name="Q" unicode="Q" horiz-adv-x="756" 
d="M711 315q0 -91 -27.5 -156.5t-81.5 -107.5l103 -154h-155l-67 101q-25 -5 -51 -8t-55 -3q-161 0 -247.5 82.5t-86.5 245.5v120q0 81 23 142t66.5 102.5t105 62.5t139.5 21t139.5 -21t105 -62.5t66.5 -102.5t23 -142v-120zM466 256l53 -81q18 26 27.5 62t9.5 87v102
q0 110 -45 158.5t-134 48.5t-134 -48.5t-45 -158.5v-102q0 -111 45 -159t134 -48h13t13 1l-92 138h155z" />
    <glyph glyph-name="R" unicode="R" horiz-adv-x="685" 
d="M68 750h300q61 0 109.5 -8t82 -30t51.5 -61t18 -101v-61q0 -75 -26.5 -116t-82.5 -60l147 -313h-163l-135 293h-147v-293h-154v750zM222 635v-230h109q41 0 68.5 4t44.5 14.5t24 29.5t7 48v46q0 48 -29 68t-98 20h-126z" />
    <glyph glyph-name="S" unicode="S" horiz-adv-x="619" 
d="M583 215q0 -51 -14.5 -92.5t-47.5 -71t-87 -45.5t-133 -16q-27 0 -59 2t-65.5 6t-67 11t-63.5 17v126q74 -23 133.5 -30t101.5 -7q80 0 113 22.5t33 68.5q0 20 -4.5 34.5t-18 25.5t-38.5 20.5t-65 20.5l-80 21q-83 22 -128 72t-45 143q0 108 63 162.5t209 54.5
q31 0 62 -1.5t59.5 -5t52.5 -8t42 -10.5v-117q-40 11 -90.5 15.5t-92.5 4.5q-46 0 -75.5 -5.5t-46 -16.5t-23 -27.5t-6.5 -39.5q0 -22 6.5 -36.5t20.5 -24t35 -17t51 -14.5l81 -21q54 -14 90 -33t57.5 -45t30.5 -61t9 -82z" />
    <glyph glyph-name="T" unicode="T" horiz-adv-x="642" 
d="M20 616v134h602v-134h-224v-616h-154v616h-224z" />
    <glyph glyph-name="U" unicode="U" horiz-adv-x="752" 
d="M217 750v-440q0 -53 9 -88t28.5 -56t50 -29.5t72.5 -8.5q43 0 73.5 8.5t49.5 29.5t27.5 56t8.5 88v440h154v-473q0 -152 -78 -221t-235 -69q-161 0 -238 68.5t-77 221.5v473h155z" />
    <glyph glyph-name="V" unicode="V" horiz-adv-x="716" 
d="M174 750l147 -446q13 -38 22 -73.5t19 -85.5q4 25 8.5 46t9.5 40t11 36.5t12 36.5l149 446h158l-263 -750h-172l-269 750h168z" />
    <glyph glyph-name="W" unicode="W" horiz-adv-x="1005" 
d="M529 416q-8 31 -15 77.5t-12 92.5q-7 -46 -15.5 -92.5t-15.5 -77.5l-96 -416h-180l-184 750h158l90 -425q8 -37 15.5 -78t13.5 -87q8 46 17 87t17 78l96 425h164l104 -425q9 -36 14.5 -76t11.5 -83q8 43 15 83t15 76l97 425h154l-195 -750h-171z" />
    <glyph glyph-name="X" unicode="X" horiz-adv-x="740" 
d="M426 184q-18 31 -31 56.5t-29 60.5q-11 -29 -27.5 -60.5t-30.5 -56.5l-106 -184h-177l234 388l-219 362h181l93 -164q15 -27 31 -56.5t35 -68.5q13 35 28 66.5t32 60.5l92 162h172l-220 -367l231 -383h-181z" />
    <glyph glyph-name="Y" unicode="Y" horiz-adv-x="680" 
d="M419 296v-296h-154v294l-251 456h166l102 -205q17 -35 32 -68.5t29 -71.5q14 39 28 73.5t30 66.5l102 205h163z" />
    <glyph glyph-name="Z" unicode="Z" horiz-adv-x="630" 
d="M253 198q-13 -17 -27.5 -34.5t-29.5 -34.5h408v-129h-580v120l333 433q12 16 27 34t30 35h-375v128h553v-119z" />
    <glyph glyph-name="bracketleft" unicode="[" horiz-adv-x="434" 
d="M80 831h334v-116h-189v-763h189v-116h-334v995z" />
    <glyph glyph-name="backslash" unicode="\" horiz-adv-x="551" 
d="M394 -164l-374 995h137l374 -995h-137z" />
    <glyph glyph-name="bracketright" unicode="]" horiz-adv-x="434" 
d="M354 -164h-334v116h189v763h-189v116h334v-995z" />
    <glyph glyph-name="asciicircum" unicode="^" horiz-adv-x="575" 
d="M233 747h110l190 -305h-137l-105 165h-7l-105 -165h-137z" />
    <glyph glyph-name="underscore" unicode="_" horiz-adv-x="439" 
d="M0 -28h439v-116h-439v116z" />
    <glyph glyph-name="grave" unicode="`" horiz-adv-x="599" 
d="M418 613h-143l-131 138h168z" />
    <glyph glyph-name="a" unicode="a" horiz-adv-x="557" 
d="M503 0h-114l-14 48q-29 -22 -77.5 -40t-106.5 -18q-159 0 -159 162v29q0 89 64 124.5t192 35.5h70v29q0 25 -4 42t-14.5 27t-29 14t-47.5 4q-16 0 -36.5 -2t-43 -6t-45 -9.5t-42.5 -12.5v108q20 7 44.5 12.5t50 9.5t50.5 6.5t46 2.5q69 0 111.5 -16t66 -43.5t31 -64
t7.5 -76.5v-366zM358 244h-72q-60 0 -84 -15t-24 -55v-10q0 -35 14.5 -50t45.5 -15q29 0 61 9.5t59 26.5v109z" />
    <glyph glyph-name="b" unicode="b" horiz-adv-x="623" 
d="M385 566q95 0 141.5 -50t46.5 -132v-175q0 -61 -16.5 -103t-45 -67.5t-68 -37t-84.5 -11.5q-19 0 -41 3t-44.5 9t-44 15.5t-39.5 23.5l-9 -41h-121v744l150 30v-256q35 20 80.5 34t94.5 14zM210 141q29 -19 59.5 -25t50.5 -6q61 0 82 27.5t21 86.5v121q0 52 -18.5 76
t-66.5 24q-33 0 -67.5 -12t-60.5 -29v-263z" />
    <glyph glyph-name="c" unicode="c" horiz-adv-x="527" 
d="M477 433q-24 8 -61 13t-78 5q-43 0 -71 -9t-44.5 -27t-23 -44.5t-6.5 -60.5v-68q0 -36 6.5 -62t23 -42.5t44.5 -24.5t72 -8q33 0 70.5 5t77.5 19v-114q-17 -7 -39 -12t-45 -8.5t-45 -5t-40 -1.5q-140 0 -206.5 59.5t-66.5 191.5v66q0 139 69.5 200t202.5 61
q42 0 86.5 -5.5t73.5 -17.5v-110z" />
    <glyph glyph-name="d" unicode="d" horiz-adv-x="623" 
d="M237 -10q-50 0 -85 14.5t-58 40t-33.5 60.5t-10.5 76v160q0 60 16 102.5t45.5 70t71 40t93.5 12.5q38 0 75 -7.5t62 -20.5v206l150 30v-774h-123l-13 47q-38 -28 -85 -42.5t-105 -14.5zM413 426q-20 14 -48.5 20.5t-51.5 6.5q-27 0 -48 -5.5t-35.5 -18.5t-22 -35
t-7.5 -56v-134q0 -46 18.5 -71.5t62.5 -25.5q32 0 66 9t66 30v280z" />
    <glyph glyph-name="e" unicode="e" horiz-adv-x="586" 
d="M548 225h-357v-11q0 -64 34 -90t114 -26q33 0 78.5 5t84.5 19v-105q-18 -7 -40 -12.5t-46 -9t-48 -5t-45 -1.5q-141 0 -209.5 60t-68.5 192v67q0 69 19.5 118t54 80t80 45.5t98.5 14.5q57 0 103.5 -13.5t79 -45t50.5 -83.5t18 -129v-70zM406 320v19q0 52 -24.5 84.5
t-82.5 32.5q-55 0 -81.5 -32.5t-26.5 -85.5v-18h215z" />
    <glyph glyph-name="f" unicode="f" horiz-adv-x="420" 
d="M257 552h139v-112h-139v-440h-150v440h-90v112h90v77q0 71 43 109t131 38q35 0 69.5 -4.5t54.5 -9.5v-100q-17 3 -35.5 5t-37.5 2q-48 0 -61.5 -16t-13.5 -55v-46z" />
    <glyph glyph-name="g" unicode="g" horiz-adv-x="623" 
d="M236 -6q-96 0 -141 49.5t-45 131.5v166q0 60 16 102.5t45.5 70t71 40t93.5 12.5q40 0 85 -9.5t81 -35.5l9 31h112v-555q0 -52 -12.5 -93t-42 -69t-79 -43t-124.5 -15q-42 0 -82 5t-72 13v108q35 -8 70.5 -11.5t74.5 -3.5q68 0 96 23.5t28 77.5v57q-41 -26 -88.5 -39
t-95.5 -13zM413 426q-20 14 -48.5 20.5t-51.5 6.5q-27 0 -48 -5.5t-35.5 -18.5t-22 -35t-7.5 -56v-130q0 -46 18.5 -71.5t62.5 -25.5q32 0 66 9t66 30v276z" />
    <glyph glyph-name="h" unicode="h" horiz-adv-x="603" 
d="M547 0h-150v359q0 40 -11 60t-51 20q-29 0 -62 -10t-63 -27v-402h-150v744l150 30v-255q36 20 81 33.5t84 13.5q48 0 80.5 -12t53 -34t29.5 -53t9 -68v-399z" />
    <glyph glyph-name="i" unicode="i" horiz-adv-x="280" 
d="M215 0h-150v552h150v-552zM215 633h-150v141h150v-141z" />
    <glyph glyph-name="j" unicode="j" horiz-adv-x="307" 
d="M234 552v-596q0 -53 -10.5 -87.5t-31.5 -54.5t-53.5 -28.5t-76.5 -8.5q-32 0 -65 3t-59 10v118q21 -4 40 -5.5t38 -1.5q20 0 33.5 2.5t21 10.5t10.5 23t3 39v576h150zM234 633h-150v141h150v-141z" />
    <glyph glyph-name="k" unicode="k" horiz-adv-x="587" 
d="M209 774v-416h58l141 194h166l-187 -253l195 -299h-177l-145 236h-51v-236h-149v744z" />
    <glyph glyph-name="l" unicode="l" horiz-adv-x="270" 
d="M60 0v744l150 30v-774h-150z" />
    <glyph glyph-name="m" unicode="m" horiz-adv-x="899" 
d="M377 0v358q0 40 -10.5 60t-48.5 20q-25 0 -54 -10t-55 -27v-401h-149v552h117l11 -45q80 59 168 59q55 0 89.5 -15.5t53.5 -43.5q44 30 89 44.5t85 14.5q48 0 81 -12t52.5 -34t28 -53t8.5 -68v-399h-149v360q0 40 -11 59t-49 19q-24 0 -53 -10t-55 -27v-401h-149z" />
    <glyph glyph-name="n" unicode="n" horiz-adv-x="603" 
d="M547 0h-150v359q0 40 -11.5 60t-50.5 20q-29 0 -62.5 -9.5t-62.5 -29.5v-400h-150v552h117l11 -45q42 28 92 43.5t92 15.5q49 0 82.5 -12t54 -34t29.5 -53t9 -68v-399z" />
    <glyph glyph-name="o" unicode="o" horiz-adv-x="609" 
d="M564 239q0 -124 -66 -187.5t-194 -63.5q-127 0 -193 63.5t-66 187.5v76q0 121 66 186t193 65q128 0 194 -65t66 -186v-76zM414 308q0 79 -28 111t-81 32q-54 0 -82 -32t-28 -111v-62q0 -79 28 -110.5t82 -31.5q53 0 81 31.5t28 110.5v62z" />
    <glyph glyph-name="p" unicode="p" horiz-adv-x="623" 
d="M60 -216v768h117l14 -43q45 27 95 42t97 15q49 0 85 -13.5t59.5 -37.5t34.5 -57.5t11 -73.5v-176q0 -59 -15.5 -100.5t-45 -67.5t-71 -38.5t-92.5 -12.5q-32 0 -68 5t-71 16v-226h-150zM210 121q23 -8 50 -12t50 -4q34 0 56 8t35 24t17.5 40.5t4.5 58.5v108
q0 52 -18.5 76.5t-66.5 24.5q-34 0 -68 -12.5t-60 -28.5v-283z" />
    <glyph glyph-name="q" unicode="q" horiz-adv-x="623" 
d="M242 -10q-97 0 -144.5 49.5t-47.5 131.5v170q0 61 16.5 103.5t46 69.5t70 39.5t89.5 12.5q51 0 94.5 -13t69.5 -36l11 35h116v-768h-150v245q-68 -39 -171 -39zM413 417q-19 17 -49 26.5t-59 9.5q-23 0 -42 -5.5t-33 -18.5t-22 -35t-8 -56v-134q0 -52 19 -74.5t67 -22.5
q67 0 127 26v284z" />
    <glyph glyph-name="r" unicode="r" horiz-adv-x="400" 
d="M386 429q-52 -3 -99.5 -18.5t-77.5 -38.5v-372h-149v552h116l12 -71q13 13 33.5 27.5t46 26.5t55.5 20.5t63 10.5v-137z" />
    <glyph glyph-name="s" unicode="s" horiz-adv-x="494" 
d="M464 162q0 -37 -10.5 -68.5t-35.5 -54.5t-66.5 -36t-102.5 -13q-21 0 -47 1.5t-53.5 5t-55.5 9.5t-53 15v111q66 -20 113 -25t80 -5q55 0 75 12.5t20 40.5q0 16 -2.5 25.5t-11 15.5t-23.5 10.5t-40 10.5l-54 13q-44 10 -73.5 26t-47.5 37t-25.5 48t-7.5 60q0 41 12 72
t38.5 51.5t68.5 31t101 10.5q51 0 93 -6t68 -14v-107q-30 8 -69.5 13.5t-73.5 5.5q-32 0 -52 -2.5t-31.5 -8.5t-16 -15.5t-4.5 -23.5t3 -22.5t12 -15t25 -11.5t41 -11l55 -14q47 -12 76.5 -26.5t46 -34.5t22.5 -47t6 -64z" />
    <glyph glyph-name="t" unicode="t" horiz-adv-x="436" 
d="M406 442h-147v-266q0 -39 11 -54.5t44 -15.5q24 0 48 4t44 14v-104q-27 -16 -65.5 -23t-76.5 -7q-82 0 -118.5 35.5t-36.5 109.5v307h-89v110h89v115l150 33v-148h147v-110z" />
    <glyph glyph-name="u" unicode="u" 
d="M56 552h150v-357q0 -40 11 -60.5t49 -20.5q29 0 62 10t62 30v398h150v-552h-117l-12 46q-41 -29 -91 -43t-92 -14q-49 0 -82 11.5t-53 33.5t-28.5 52.5t-8.5 68.5v397z" />
    <glyph glyph-name="v" unicode="v" horiz-adv-x="556" 
d="M365 0h-175l-182 552h155l92 -327q7 -24 13 -48.5t12 -50.5q8 28 14 52t13 47l90 327h151z" />
    <glyph glyph-name="w" unicode="w" horiz-adv-x="855" 
d="M156 552l83 -308q6 -21 9.5 -44t7.5 -50h2q3 28 7 50.5t10 43.5l84 308h142l84 -308q10 -38 18 -94h1q8 56 18 94l87 308h130l-160 -552h-150l-83 299q-7 24 -10 53.5t-6 59.5h-1q-3 -30 -7 -59.5t-10 -53.5l-83 -299h-149l-164 552h140z" />
    <glyph glyph-name="x" unicode="x" horiz-adv-x="585" 
d="M185 552l54 -87q14 -23 28 -47.5t28 -53.5q13 26 26 51.5t26 48.5l50 88h158l-173 -270l185 -282h-163l-65 103q-14 22 -25.5 44.5t-22.5 45.5q-21 -47 -51 -93l-63 -100h-159l185 279l-180 273h162z" />
    <glyph glyph-name="y" unicode="y" horiz-adv-x="579" 
d="M571 552l-276 -765h-157l76 214l-206 551h153l103 -310q8 -23 15.5 -51.5t14.5 -66.5q3 13 7.5 30t9 33.5t8.5 31t7 22.5l98 311h147z" />
    <glyph glyph-name="z" unicode="z" horiz-adv-x="510" 
d="M472 457l-204 -278q-13 -17 -28 -34t-32 -37h278v-108h-457v95l204 277q12 16 27.5 35.5t30.5 36.5h-251v108h432v-95z" />
    <glyph glyph-name="braceleft" unicode="{" horiz-adv-x="470" 
d="M30 406q105 0 105 77v182q0 81 43 123.5t137 42.5h137v-116h-98q-38 0 -57 -15t-19 -53v-165q0 -20 -4 -41.5t-14.5 -40t-28.5 -33t-46 -20.5q28 -6 46 -20.5t28.5 -33t14.5 -40t4 -41.5v-192q0 -38 19 -53t57 -15h98v-116h-137q-92 0 -136 42.5t-44 123.5v209
q0 77 -105 77v118z" />
    <glyph glyph-name="bar" unicode="|" horiz-adv-x="326" 
d="M225 -164h-124v995h124v-995z" />
    <glyph glyph-name="braceright" unicode="}" horiz-adv-x="470" 
d="M440 288q-105 0 -105 -77v-209q0 -81 -44 -123.5t-136 -42.5h-137v116h98q38 0 57 15t19 53v192q0 20 4 41.5t14.5 40t28.5 33t46 20.5q-28 6 -46 20.5t-28.5 33t-14.5 40t-4 41.5v165q0 38 -19 53t-57 15h-98v116h137q94 0 137 -42.5t43 -123.5v-182q0 -77 105 -77v-118
z" />
    <glyph glyph-name="asciitilde" unicode="~" horiz-adv-x="587" 
d="M386 249q-35 0 -58.5 10t-42.5 21.5t-35.5 21.5t-37.5 10q-26 0 -37.5 -19.5t-16.5 -46.5h-123q4 34 14 68t29 61.5t49 44.5t74 17q34 0 58.5 -10t44 -21.5t36.5 -21.5t37 -10q31 0 40.5 19.5t13.5 46.5h121q-4 -35 -12.5 -69t-27 -61t-49 -44t-77.5 -17z" />
    <glyph glyph-name="uni00A0" unicode="&#xa0;" horiz-adv-x="0" 
 />
    <glyph glyph-name="exclamdown" unicode="&#xa1;" horiz-adv-x="289" 
d="M64 -165l20 519h120l20 -519h-160zM218 441h-147v144h147v-144z" />
    <glyph glyph-name="cent" unicode="&#xa2;" horiz-adv-x="532" 
d="M373 0h-82v92q-125 6 -186.5 66t-61.5 184v68q0 128 66 189.5t182 67.5v83h82v-83q32 -3 61.5 -8.5t50.5 -13.5v-103q-20 6 -49.5 10t-62.5 6v-355q28 2 59.5 7.5t62.5 16.5v-108q-23 -11 -56.5 -17t-65.5 -8v-94zM184 345q0 -62 22.5 -96t84.5 -42v348
q-60 -10 -83.5 -46t-23.5 -94v-70z" />
    <glyph glyph-name="sterling" unicode="&#xa3;" horiz-adv-x="583" 
d="M43 423h72v64q0 139 64.5 207.5t203.5 68.5q25 0 58.5 -4t62.5 -13v-128q-18 8 -45.5 12.5t-60.5 4.5q-28 0 -52.5 -6.5t-42.5 -23t-28 -44t-10 -69.5v-69h207v-98h-207q0 -36 -3 -64t-9.5 -51t-18 -42t-29.5 -37h355v-131h-525v99q24 17 39.5 35.5t24.5 42t12.5 53.5
t3.5 71v24h-72v98z" />
    <glyph glyph-name="currency" unicode="&#xa4;" horiz-adv-x="710" 
d="M555 502q18 -29 28 -63.5t10 -73.5t-10 -74t-29 -64l86 -85l-76 -76l-87 87q-54 -31 -122 -31t-122 31l-87 -87l-76 76l86 86q-18 29 -28 63.5t-10 73.5q0 77 37 136l-85 86l76 76l87 -88q26 15 56.5 23.5t65.5 8.5q68 0 122 -31l87 87l76 -76zM355 225q60 0 95 39.5
t35 100.5q0 62 -35 100.5t-95 38.5t-94.5 -38.5t-34.5 -100.5q0 -61 34.5 -100.5t94.5 -39.5z" />
    <glyph glyph-name="yen" unicode="&#xa5;" horiz-adv-x="663" 
d="M409 166v-166h-152v166h-185v97h185v32l-12 35h-173v97h120l-179 323h160l100 -204q16 -32 32.5 -67.5t30.5 -74.5q13 39 28.5 75t30.5 67l99 204h154l-177 -323h121v-97h-172l-11 -34v-33h183v-97h-183z" />
    <glyph glyph-name="brokenbar" unicode="&#xa6;" horiz-adv-x="327" 
d="M225 216v-380h-123v380h123zM102 451v380h123v-380h-123z" />
    <glyph glyph-name="section" unicode="&#xa7;" horiz-adv-x="563" 
d="M48 304q0 42 21 82.5t72 66.5q-23 23 -32 52.5t-9 64.5q0 79 51.5 124.5t167.5 45.5q51 0 93.5 -6.5t68.5 -14.5v-104q-30 8 -70 14t-78 6q-60 0 -81 -15.5t-21 -44.5q0 -16 3.5 -27t12.5 -19.5t25 -15t41 -13.5l36 -10q53 -15 87.5 -32t54 -38.5t27 -48.5t7.5 -61
q0 -43 -21.5 -83.5t-71.5 -66.5q22 -23 31.5 -52t9.5 -64q0 -79 -51.5 -124t-167.5 -45q-51 0 -93.5 6t-68.5 14v105q30 -9 70 -14.5t78 -5.5q60 0 81 15t21 44q0 19 -4.5 31t-17.5 20t-36 15.5t-60 17.5l-43 12q-41 11 -66.5 28.5t-40.5 39t-20.5 47.5t-5.5 54zM392 302
q0 14 -2.5 25t-11.5 20.5t-26 17.5t-45 15l-53 13q-44 -9 -59 -32t-15 -49q0 -15 3 -26.5t12 -20t25.5 -16t44.5 -15.5l53 -15q45 10 59.5 33.5t14.5 49.5z" />
    <glyph glyph-name="dieresis" unicode="&#xa8;" 
d="M150 730h108v-118h-108v118zM341 730h108v-118h-108v118z" />
    <glyph glyph-name="copyright" unicode="&#xa9;" horiz-adv-x="824" 
d="M419 27q66 0 121.5 23t95.5 63.5t62.5 97t22.5 124.5t-22.5 124.5t-63 97t-95.5 63t-121 22.5q-65 0 -120 -22.5t-95 -63t-62.5 -97t-22.5 -124.5t22.5 -124.5t62.5 -97t95 -63.5t120 -23zM419 -37q-81 0 -149 29.5t-117 80t-76 118t-27 144.5t27 144.5t76 118t117 79.5
t149 29q82 0 150.5 -29t117.5 -79.5t76 -118t27 -144.5t-27 -144.5t-76 -118t-117.5 -80t-150.5 -29.5zM564 442q-17 5 -44 9.5t-59 4.5q-56 0 -77 -24t-21 -74v-49q0 -26 5 -44t16 -29t30 -16t48 -5q25 0 52.5 3.5t56.5 14.5v-90q-12 -6 -28 -10t-33 -6.5t-33.5 -3.5
t-29.5 -1q-100 0 -150 44t-50 142v46q0 101 52.5 146.5t146.5 45.5q32 0 64 -4.5t54 -13.5v-86z" />
    <glyph glyph-name="ordfeminine" unicode="&#xaa;" horiz-adv-x="471" 
d="M433 289h-105l-12 40q-23 -18 -63.5 -33.5t-91.5 -15.5q-67 0 -102 32t-35 105v25q0 41 15 68.5t43.5 44t70 23.5t94.5 7h55v20q0 40 -15 54t-61 14q-27 0 -68.5 -7t-77.5 -21v102q38 13 81.5 20t81.5 7q57 0 94 -12.5t58 -35t29.5 -54t8.5 -69.5v-314zM302 496h-57
q-46 0 -67.5 -11.5t-21.5 -47.5v-11q0 -28 13.5 -37.5t37.5 -9.5q20 0 48 6t47 20v91z" />
    <glyph glyph-name="guillemotleft" unicode="&#xab;" horiz-adv-x="594" 
d="M38 245v60l173 194h128l-182 -220v-5l182 -226h-128zM265 245v60l170 194h129l-180 -220v-5l180 -226h-129z" />
    <glyph glyph-name="logicalnot" unicode="&#xac;" 
d="M55 394h481v-282h-101v189h-380v93z" />
    <glyph glyph-name="uni00AD" unicode="&#xad;" horiz-adv-x="833" 
 />
    <glyph glyph-name="registered" unicode="&#xae;" horiz-adv-x="630" 
d="M314 230q45 0 82.5 16t64.5 44t42 66.5t15 83.5q0 46 -15.5 84t-42.5 66t-64.5 43.5t-81.5 15.5t-81 -15.5t-64 -43.5t-42 -66t-15 -84q0 -45 15 -83.5t42 -66.5t64 -44t81 -16zM313 173q-59 0 -107.5 21t-83 57.5t-54 85t-19.5 103.5t19.5 103.5t54 85t83 57.5t107.5 21
q60 0 109 -21t84 -57.5t54.5 -85t19.5 -103.5t-19.5 -103.5t-55 -85t-84.5 -57.5t-108 -21zM213 584h108q23 0 42.5 -3.5t34 -12t22.5 -23t8 -37.5v-21q0 -56 -43 -74l57 -113h-75l-47 101h-38v-101h-69v284zM282 533v-79h27q26 0 37 6.5t11 27.5v13q0 19 -9.5 25.5
t-31.5 6.5h-34z" />
    <glyph glyph-name="macron" unicode="&#xaf;" 
d="M150 729h300v-98h-300v98z" />
    <glyph glyph-name="degree" unicode="&#xb0;" horiz-adv-x="413" 
d="M206 502q34 0 54 19.5t20 54.5q0 34 -20 54.5t-54 20.5q-33 0 -53 -20.5t-20 -54.5q0 -35 20 -54.5t53 -19.5zM206 420q-35 0 -64.5 13t-51 34.5t-33.5 49.5t-12 59t12 59.5t33.5 49.5t51 33.5t64.5 12.5t65 -12.5t51.5 -33.5t33.5 -49.5t12 -59.5t-12 -59t-33.5 -49.5
t-51.5 -34.5t-65 -13z" />
    <glyph glyph-name="plusminus" unicode="&#xb1;" horiz-adv-x="586" 
d="M357 605v-181h190v-117h-190v-178h190v-117h-508v117h190v178h-190v117h190v181h128z" />
    <glyph glyph-name="twosuperior" unicode="&#xb2;" horiz-adv-x="412" 
d="M30 289v84l169 163q14 13 22 22.5t12.5 18.5t6.5 18.5t2 22.5v8q0 25 -15 37.5t-59 12.5q-30 0 -62 -6.5t-59 -17.5v97q13 5 30 9.5t35.5 8t37.5 5.5t36 2q96 0 138 -33t42 -92v-14q0 -23 -3.5 -42.5t-12.5 -37.5t-24.5 -37t-39.5 -41l-98 -91h191v-97h-349z" />
    <glyph glyph-name="threesuperior" unicode="&#xb3;" horiz-adv-x="405" 
d="M117 487v91h61q41 0 53 11t12 40q0 28 -14 38.5t-55 10.5q-31 0 -65 -6t-63 -16v94q24 10 63 17t78 7q97 0 137.5 -32.5t40.5 -100.5q0 -14 -2.5 -29.5t-10 -30.5t-21.5 -27.5t-37 -19.5q47 -11 66 -38.5t19 -74.5q0 -72 -44 -106.5t-151 -34.5q-42 0 -84.5 7.5
t-66.5 16.5v95q29 -11 68.5 -16.5t73.5 -5.5q48 0 65 12.5t17 44.5q0 18 -4 28.5t-13 16t-24.5 7t-38.5 1.5h-60z" />
    <glyph glyph-name="acute" unicode="&#xb4;" 
d="M275 745h160l-115 -142h-135z" />
    <glyph glyph-name="mu" unicode="&#xb5;" horiz-adv-x="595" 
d="M203 -216h-147v768h147v-361q0 -42 21 -63t59 -21q31 0 57.5 11.5t51.5 29.5v404h147v-552h-115l-12 46q-19 -20 -51.5 -38.5t-76.5 -18.5q-23 0 -47 10t-34 31v-246z" />
    <glyph glyph-name="paragraph" unicode="&#xb6;" horiz-adv-x="582" 
d="M513 750v-872h-107v774h-64v-774h-106v456q-103 2 -153.5 54t-50.5 138v38q0 88 56 137t161 49h264z" />
    <glyph glyph-name="periodcentered" unicode="&#xb7;" horiz-adv-x="282" 
d="M65 425h152v-147h-152v147z" />
    <glyph glyph-name="cedilla" unicode="&#xb8;" 
d="M295 -269q-20 0 -44 2t-46 6v78q15 -2 33 -3.5t41 -1.5q37 0 52 11.5t15 25.5v8q0 18 -16 27.5t-62 9.5h-22v137h100v-81q33 -3 54.5 -11t34 -20.5t17.5 -29.5t5 -37v-8q0 -62 -44.5 -87.5t-117.5 -25.5z" />
    <glyph glyph-name="onesuperior" unicode="&#xb9;" horiz-adv-x="386" 
d="M34 289v92h105v264l-108 -49v99l140 71h92v-385h94v-92h-323z" />
    <glyph glyph-name="ordmasculine" unicode="&#xba;" horiz-adv-x="510" 
d="M480 494q0 -106 -58.5 -160t-167.5 -54q-108 0 -166 54t-58 160v65q0 104 58 159.5t166 55.5q109 0 167.5 -55.5t58.5 -159.5v-65zM344 555q0 65 -23 89.5t-67 24.5q-43 0 -66.5 -24.5t-23.5 -89.5v-57q0 -64 23.5 -89t66.5 -25q44 0 67 25t23 89v57z" />
    <glyph glyph-name="guillemotright" unicode="&#xbb;" horiz-adv-x="594" 
d="M383 48h-128l182 226v5l-182 220h128l173 -194v-60zM159 48h-129l180 226v5l-180 220h129l170 -194v-60z" />
    <glyph glyph-name="onequarter" unicode="&#xbc;" horiz-adv-x="965" 
d="M522 8v87l212 305h137v-304h61v-88h-61v-85h-115v85h-234zM756 96v183l-128 -183h128zM46 289v92h105v264l-108 -49v99l140 71h92v-385h94v-92h-323zM174 -80l559 853h123l-559 -853h-123z" />
    <glyph glyph-name="onehalf" unicode="&#xbd;" horiz-adv-x="999" 
d="M46 289v92h105v264l-108 -49v99l140 71h92v-385h94v-92h-323zM174 -80l559 853h123l-559 -853h-123zM618 -77v84l168 163q13 13 21.5 22.5t13.5 18.5t6.5 18.5t1.5 22.5v8q0 25 -14.5 37.5t-58.5 12.5q-30 0 -62 -6.5t-59 -17.5v97q13 5 30 9.5t35.5 8t37.5 5.5t36 2
q96 0 138 -33t42 -92v-14q0 -24 -3.5 -43t-13 -37t-25 -37t-39.5 -41l-97 -91h191v-97h-349z" />
    <glyph glyph-name="threequarters" unicode="&#xbe;" horiz-adv-x="965" 
d="M522 8v87l212 304h137v-303h61v-88h-61v-85h-115v85h-234zM178 -80l559 853h123l-559 -853h-123zM121 487v91h61q41 0 53 11t12 40q0 28 -14 38.5t-55 10.5q-31 0 -65 -6t-63 -16v94q24 10 63 17t78 7q97 0 137.5 -32.5t40.5 -100.5q0 -14 -2.5 -29.5t-10 -30.5
t-21.5 -27.5t-37 -19.5q47 -11 66 -38.5t19 -74.5q0 -72 -44 -106.5t-151 -34.5q-42 0 -84.5 7.5t-66.5 16.5v95q29 -11 68.5 -16.5t73.5 -5.5q48 0 65 12.5t17 44.5q0 18 -4 28.5t-13 16t-24.5 7t-38.5 1.5h-60zM756 96v182l-128 -182h128z" />
    <glyph glyph-name="questiondown" unicode="&#xbf;" horiz-adv-x="509" 
d="M357 360v-45q0 -30 -4.5 -51t-16.5 -39t-33.5 -36t-55.5 -40q-21 -14 -34.5 -25.5t-22 -23.5t-11.5 -27.5t-3 -37.5q0 -25 5.5 -42t20 -27.5t38.5 -15t60 -4.5q46 0 92.5 10t86.5 26v-114q-35 -16 -88 -28t-109 -12q-73 0 -121 13.5t-76 39.5t-39.5 63.5t-11.5 84.5
q0 45 10 75.5t25.5 51.5t34 35.5t35.5 26.5q28 20 45 32.5t26.5 23t12.5 21.5t3 27v38h131zM365 441h-147v144h147v-144z" />
    <glyph glyph-name="Agrave" unicode="&#xc0;" horiz-adv-x="726" 
d="M444 750l274 -750h-171l-60 180h-260l-60 -180h-159l264 750h172zM265 309h182l-57 173q-11 35 -17.5 64t-15.5 69q-9 -40 -16.5 -69t-18.5 -64zM427 803h-135l-115 142h160z" />
    <glyph glyph-name="Aacute" unicode="&#xc1;" horiz-adv-x="726" 
d="M444 750l274 -750h-171l-60 180h-260l-60 -180h-159l264 750h172zM265 309h182l-57 173q-11 35 -17.5 64t-15.5 69q-9 -40 -16.5 -69t-18.5 -64zM384 945h160l-115 -142h-135z" />
    <glyph glyph-name="Acircumflex" unicode="&#xc2;" horiz-adv-x="726" 
d="M444 750l274 -750h-171l-60 180h-260l-60 -180h-159l264 750h172zM265 309h182l-57 173q-11 35 -17.5 64t-15.5 69q-9 -40 -16.5 -69t-18.5 -64zM303 962h109l106 -161h-100l-61 77l-62 -77h-98z" />
    <glyph glyph-name="Atilde" unicode="&#xc3;" horiz-adv-x="726" 
d="M444 750l274 -750h-171l-60 180h-260l-60 -180h-159l264 750h172zM265 309h182l-57 173q-11 35 -17.5 64t-15.5 69q-9 -40 -16.5 -69t-18.5 -64zM418 803q-25 0 -41 7.5t-28 17t-22 17t-23 7.5q-16 0 -24 -14.5t-11 -34.5h-85q3 24 10 49t20 46t32.5 34t48.5 13
q26 0 43 -7.5t29.5 -17t22.5 -17t22 -7.5q19 0 25 15.5t8 35.5h85q-2 -23 -8 -48t-19 -46.5t-33.5 -35.5t-51.5 -14z" />
    <glyph glyph-name="Adieresis" unicode="&#xc4;" horiz-adv-x="726" 
d="M444 750l274 -750h-171l-60 180h-260l-60 -180h-159l264 750h172zM265 309h182l-57 173q-11 35 -17.5 64t-15.5 69q-9 -40 -16.5 -69t-18.5 -64zM208 930h108v-118h-108v118zM399 930h108v-118h-108v118z" />
    <glyph glyph-name="Aring" unicode="&#xc5;" horiz-adv-x="726" 
d="M444 750l274 -750h-171l-60 180h-260l-60 -180h-159l264 750h172zM265 309h182l-57 173q-11 35 -17.5 64t-15.5 69q-9 -40 -16.5 -69t-18.5 -64zM357 848q21 0 33.5 12t12.5 34q0 21 -12.5 33.5t-33.5 12.5q-20 0 -32.5 -12.5t-12.5 -33.5q0 -22 12.5 -34t32.5 -12z
M357 785q-24 0 -44.5 9t-36 24t-24 34.5t-8.5 41.5t8.5 41.5t24 34.5t36 23.5t44.5 8.5t45 -8.5t36.5 -23.5t24 -34.5t8.5 -41.5t-8.5 -41.5t-24 -34.5t-36.5 -24t-45 -9z" />
    <glyph glyph-name="AE" unicode="&#xc6;" horiz-adv-x="1072" 
d="M1016 750v-125h-339v-179h307v-124h-307v-197h354v-125h-510v180h-228l-109 -180h-176l460 750h548zM361 309h160v287q-29 -66 -54 -108z" />
    <glyph glyph-name="Ccedilla" unicode="&#xc7;" horiz-adv-x="630" 
d="M334 -269q-20 0 -44 2t-46 6v78q15 -2 33 -3.5t41 -1.5q37 0 52 11.5t15 25.5v8q0 18 -16 27.5t-62 9.5h-22v102q-64 9 -109.5 31t-74 60t-41.5 93.5t-13 130.5v118q0 94 21 157.5t63 102t105 55t148 16.5q27 0 55 -1.5t54 -4.5t49 -7.5t41 -11.5v-127q-35 9 -83.5 13.5
t-97.5 4.5q-56 0 -94 -10t-61.5 -32t-33.5 -57t-10 -85v-127q0 -53 9.5 -89t32.5 -59t61 -33t95 -10q43 0 94 5t99 19v-127q-45 -18 -101.5 -24.5t-107.5 -6.5v-40q33 -3 54.5 -11t34 -20.5t17.5 -29.5t5 -37v-8q0 -62 -44.5 -87.5t-117.5 -25.5z" />
    <glyph glyph-name="Egrave" unicode="&#xc8;" horiz-adv-x="618" 
d="M561 750v-125h-339v-179h307v-124h-307v-197h354v-125h-508v750h493zM411 803h-135l-115 142h160z" />
    <glyph glyph-name="Eacute" unicode="&#xc9;" horiz-adv-x="618" 
d="M561 750v-125h-339v-179h307v-124h-307v-197h354v-125h-508v750h493zM326 945h160l-115 -142h-135z" />
    <glyph glyph-name="Ecircumflex" unicode="&#xca;" horiz-adv-x="618" 
d="M561 750v-125h-339v-179h307v-124h-307v-197h354v-125h-508v750h493zM267 962h109l106 -161h-100l-61 77l-62 -77h-98z" />
    <glyph glyph-name="Edieresis" unicode="&#xcb;" horiz-adv-x="618" 
d="M561 750v-125h-339v-179h307v-124h-307v-197h354v-125h-508v750h493zM177 930h108v-118h-108v118zM368 930h108v-118h-108v118z" />
    <glyph glyph-name="Igrave" unicode="&#xcc;" horiz-adv-x="290" 
d="M222 0h-154v750h154v-750zM215 803h-135l-115 142h160z" />
    <glyph glyph-name="Iacute" unicode="&#xcd;" horiz-adv-x="290" 
d="M222 0h-154v750h154v-750zM168 945h160l-115 -142h-135z" />
    <glyph glyph-name="Icircumflex" unicode="&#xce;" horiz-adv-x="290" 
d="M222 0h-154v750h154v-750zM91 962h109l106 -161h-100l-61 77l-62 -77h-98z" />
    <glyph glyph-name="Idieresis" unicode="&#xcf;" horiz-adv-x="290" 
d="M222 0h-154v750h154v-750zM-4 930h108v-118h-108v118zM187 930h108v-118h-108v118z" />
    <glyph glyph-name="Eth" unicode="&#xd0;" horiz-adv-x="734" 
d="M-8 440h76v310h297q86 0 147 -16.5t99.5 -53t56.5 -94.5t18 -142v-156q0 -80 -18.5 -135t-57.5 -89t-100.5 -49t-148.5 -15h-293v329h-76v111zM222 621v-181h189v-111h-189v-200h128q57 0 92.5 11.5t55.5 33.5t27 55t7 76v139q0 41 -7 74t-26.5 56t-54.5 35t-90 12h-132z
" />
    <glyph glyph-name="Ntilde" unicode="&#xd1;" horiz-adv-x="730" 
d="M662 0h-160l-257 457q-10 17 -19 38t-17 44v-539h-141v750h159l262 -475q20 -37 32 -70v545h141v-750zM426 803q-25 0 -41 7.5t-28 17t-22 17t-23 7.5q-16 0 -24 -14.5t-11 -34.5h-85q3 24 10 49t20 46t32.5 34t48.5 13q26 0 43 -7.5t29.5 -17t22.5 -17t22 -7.5
q19 0 25 15.5t8 35.5h85q-2 -23 -8 -48t-19 -46.5t-33.5 -35.5t-51.5 -14z" />
    <glyph glyph-name="Ograve" unicode="&#xd2;" horiz-adv-x="758" 
d="M713 315q0 -163 -86.5 -245.5t-247.5 -82.5t-247.5 82.5t-86.5 245.5v120q0 81 23 142t66.5 102.5t105 62.5t139.5 21t139.5 -21t105 -62.5t66.5 -102.5t23 -142v-120zM558 426q0 110 -45 158.5t-134 48.5t-134 -48.5t-45 -158.5v-102q0 -111 45 -159t134 -48t134 48
t45 159v102zM451 803h-135l-115 142h160z" />
    <glyph glyph-name="Oacute" unicode="&#xd3;" horiz-adv-x="758" 
d="M713 315q0 -163 -86.5 -245.5t-247.5 -82.5t-247.5 82.5t-86.5 245.5v120q0 81 23 142t66.5 102.5t105 62.5t139.5 21t139.5 -21t105 -62.5t66.5 -102.5t23 -142v-120zM558 426q0 110 -45 158.5t-134 48.5t-134 -48.5t-45 -158.5v-102q0 -111 45 -159t134 -48t134 48
t45 159v102zM392 945h160l-115 -142h-135z" />
    <glyph glyph-name="Ocircumflex" unicode="&#xd4;" horiz-adv-x="758" 
d="M713 315q0 -163 -86.5 -245.5t-247.5 -82.5t-247.5 82.5t-86.5 245.5v120q0 81 23 142t66.5 102.5t105 62.5t139.5 21t139.5 -21t105 -62.5t66.5 -102.5t23 -142v-120zM558 426q0 110 -45 158.5t-134 48.5t-134 -48.5t-45 -158.5v-102q0 -111 45 -159t134 -48t134 48
t45 159v102zM325 962h109l106 -161h-100l-61 77l-62 -77h-98z" />
    <glyph glyph-name="Otilde" unicode="&#xd5;" horiz-adv-x="758" 
d="M713 315q0 -163 -86.5 -245.5t-247.5 -82.5t-247.5 82.5t-86.5 245.5v120q0 81 23 142t66.5 102.5t105 62.5t139.5 21t139.5 -21t105 -62.5t66.5 -102.5t23 -142v-120zM558 426q0 110 -45 158.5t-134 48.5t-134 -48.5t-45 -158.5v-102q0 -111 45 -159t134 -48t134 48
t45 159v102zM440 803q-25 0 -41 7.5t-28 17t-22 17t-23 7.5q-16 0 -24 -14.5t-11 -34.5h-85q3 24 10 49t20 46t32.5 34t48.5 13q26 0 43 -7.5t29.5 -17t22.5 -17t22 -7.5q19 0 25 15.5t8 35.5h85q-2 -23 -8 -48t-19 -46.5t-33.5 -35.5t-51.5 -14z" />
    <glyph glyph-name="Odieresis" unicode="&#xd6;" horiz-adv-x="758" 
d="M713 315q0 -163 -86.5 -245.5t-247.5 -82.5t-247.5 82.5t-86.5 245.5v120q0 81 23 142t66.5 102.5t105 62.5t139.5 21t139.5 -21t105 -62.5t66.5 -102.5t23 -142v-120zM558 426q0 110 -45 158.5t-134 48.5t-134 -48.5t-45 -158.5v-102q0 -111 45 -159t134 -48t134 48
t45 159v102zM229 930h108v-118h-108v118zM420 930h108v-118h-108v118z" />
    <glyph glyph-name="multiply" unicode="&#xd7;" horiz-adv-x="602" 
d="M527 496l-150 -150l150 -150l-81 -80l-150 149l-149 -149l-81 80l150 150l-150 150l81 81l149 -150l150 150z" />
    <glyph glyph-name="Oslash" unicode="&#xd8;" horiz-adv-x="758" 
d="M31 -43l87 128q-73 82 -73 230v120q0 81 23 142t66.5 102.5t105 62.5t139.5 21q102 0 176 -36l44 65h128l-88 -129q36 -42 55 -98.5t19 -129.5v-120q0 -163 -86.5 -245.5t-247.5 -82.5q-102 0 -176 34l-44 -64h-128zM200 324q0 -60 12 -100l265 388q-41 21 -98 21
q-89 0 -134 -48.5t-45 -158.5v-102zM558 426q0 60 -13 99l-264 -389q38 -19 98 -19q89 0 134 48t45 159v102z" />
    <glyph glyph-name="Ugrave" unicode="&#xd9;" horiz-adv-x="752" 
d="M217 750v-440q0 -53 9 -88t28.5 -56t50 -29.5t72.5 -8.5q43 0 73.5 8.5t49.5 29.5t27.5 56t8.5 88v440h154v-473q0 -152 -78 -221t-235 -69q-161 0 -238 68.5t-77 221.5v473h155zM470 803h-135l-115 142h160z" />
    <glyph glyph-name="Uacute" unicode="&#xda;" horiz-adv-x="752" 
d="M217 750v-440q0 -53 9 -88t28.5 -56t50 -29.5t72.5 -8.5q43 0 73.5 8.5t49.5 29.5t27.5 56t8.5 88v440h154v-473q0 -152 -78 -221t-235 -69q-161 0 -238 68.5t-77 221.5v473h155zM392 945h160l-115 -142h-135z" />
    <glyph glyph-name="Ucircumflex" unicode="&#xdb;" horiz-adv-x="752" 
d="M217 750v-440q0 -53 9 -88t28.5 -56t50 -29.5t72.5 -8.5q43 0 73.5 8.5t49.5 29.5t27.5 56t8.5 88v440h154v-473q0 -152 -78 -221t-235 -69q-161 0 -238 68.5t-77 221.5v473h155zM322 962h109l106 -161h-100l-61 77l-62 -77h-98z" />
    <glyph glyph-name="Udieresis" unicode="&#xdc;" horiz-adv-x="752" 
d="M217 750v-440q0 -53 9 -88t28.5 -56t50 -29.5t72.5 -8.5q43 0 73.5 8.5t49.5 29.5t27.5 56t8.5 88v440h154v-473q0 -152 -78 -221t-235 -69q-161 0 -238 68.5t-77 221.5v473h155zM226 930h108v-118h-108v118zM417 930h108v-118h-108v118z" />
    <glyph glyph-name="Yacute" unicode="&#xdd;" horiz-adv-x="680" 
d="M419 296v-296h-154v294l-251 456h166l102 -205q17 -35 32 -68.5t29 -71.5q14 39 28 73.5t30 66.5l102 205h163zM358 945h160l-115 -142h-135z" />
    <glyph glyph-name="Thorn" unicode="&#xde;" horiz-adv-x="656" 
d="M68 750h154v-139h142q61 0 109.5 -8t82.5 -30t52 -61t18 -101v-71q0 -58 -16.5 -96t-50.5 -60t-86 -31t-123 -9h-128v-144h-154v750zM222 496v-239h106q41 0 68.5 4t44.5 14.5t24 29t7 47.5v55q0 49 -29 69t-98 20h-123z" />
    <glyph glyph-name="germandbls" unicode="&#xdf;" horiz-adv-x="612" 
d="M260 111h63q54 0 75.5 26.5t21.5 77.5v22q0 29 -5 49.5t-18.5 33.5t-36 19t-56.5 6h-34v106h30q49 0 67 28t18 74v23q0 42 -20 62.5t-65 20.5q-42 0 -65 -21.5t-23 -70.5v-567h-148v569q0 97 60 151t175 54q63 0 107.5 -15.5t72.5 -41t40.5 -59.5t12.5 -70v-24
q0 -23 -6 -47t-18 -45t-30.5 -38t-44.5 -26q37 -7 63.5 -22t43 -37t24 -48.5t7.5 -55.5v-44q0 -45 -12.5 -82t-41 -63.5t-74 -41t-110.5 -14.5h-73v111z" />
    <glyph glyph-name="agrave" unicode="&#xe0;" horiz-adv-x="557" 
d="M503 0h-114l-14 48q-29 -22 -77.5 -40t-106.5 -18q-159 0 -159 162v29q0 89 64 124.5t192 35.5h70v29q0 25 -4 42t-14.5 27t-29 14t-47.5 4q-16 0 -36.5 -2t-43 -6t-45 -9.5t-42.5 -12.5v108q20 7 44.5 12.5t50 9.5t50.5 6.5t46 2.5q69 0 111.5 -16t66 -43.5t31 -64
t7.5 -76.5v-366zM358 244h-72q-60 0 -84 -15t-24 -55v-10q0 -35 14.5 -50t45.5 -15q29 0 61 9.5t59 26.5v109zM378 603h-135l-115 142h160z" />
    <glyph glyph-name="aacute" unicode="&#xe1;" horiz-adv-x="557" 
d="M503 0h-114l-14 48q-29 -22 -77.5 -40t-106.5 -18q-159 0 -159 162v29q0 89 64 124.5t192 35.5h70v29q0 25 -4 42t-14.5 27t-29 14t-47.5 4q-16 0 -36.5 -2t-43 -6t-45 -9.5t-42.5 -12.5v108q20 7 44.5 12.5t50 9.5t50.5 6.5t46 2.5q69 0 111.5 -16t66 -43.5t31 -64
t7.5 -76.5v-366zM358 244h-72q-60 0 -84 -15t-24 -55v-10q0 -35 14.5 -50t45.5 -15q29 0 61 9.5t59 26.5v109zM300 745h160l-115 -142h-135z" />
    <glyph glyph-name="acircumflex" unicode="&#xe2;" horiz-adv-x="557" 
d="M503 0h-114l-14 48q-29 -22 -77.5 -40t-106.5 -18q-159 0 -159 162v29q0 89 64 124.5t192 35.5h70v29q0 25 -4 42t-14.5 27t-29 14t-47.5 4q-16 0 -36.5 -2t-43 -6t-45 -9.5t-42.5 -12.5v108q20 7 44.5 12.5t50 9.5t50.5 6.5t46 2.5q69 0 111.5 -16t66 -43.5t31 -64
t7.5 -76.5v-366zM358 244h-72q-60 0 -84 -15t-24 -55v-10q0 -35 14.5 -50t45.5 -15q29 0 61 9.5t59 26.5v109zM230 762h109l106 -161h-100l-61 77l-62 -77h-98z" />
    <glyph glyph-name="atilde" unicode="&#xe3;" horiz-adv-x="557" 
d="M503 0h-114l-14 48q-29 -22 -77.5 -40t-106.5 -18q-159 0 -159 162v29q0 89 64 124.5t192 35.5h70v29q0 25 -4 42t-14.5 27t-29 14t-47.5 4q-16 0 -36.5 -2t-43 -6t-45 -9.5t-42.5 -12.5v108q20 7 44.5 12.5t50 9.5t50.5 6.5t46 2.5q69 0 111.5 -16t66 -43.5t31 -64
t7.5 -76.5v-366zM358 244h-72q-60 0 -84 -15t-24 -55v-10q0 -35 14.5 -50t45.5 -15q29 0 61 9.5t59 26.5v109zM343 603q-25 0 -41 7.5t-28 17t-22 17t-23 7.5q-16 0 -24 -14.5t-11 -34.5h-85q3 24 10 49t20 46t32.5 34t48.5 13q26 0 43 -7.5t29.5 -17t22.5 -17t22 -7.5
q19 0 25 15.5t8 35.5h85q-2 -23 -8 -48t-19 -46.5t-33.5 -35.5t-51.5 -14z" />
    <glyph glyph-name="adieresis" unicode="&#xe4;" horiz-adv-x="557" 
d="M503 0h-114l-14 48q-29 -22 -77.5 -40t-106.5 -18q-159 0 -159 162v29q0 89 64 124.5t192 35.5h70v29q0 25 -4 42t-14.5 27t-29 14t-47.5 4q-16 0 -36.5 -2t-43 -6t-45 -9.5t-42.5 -12.5v108q20 7 44.5 12.5t50 9.5t50.5 6.5t46 2.5q69 0 111.5 -16t66 -43.5t31 -64
t7.5 -76.5v-366zM358 244h-72q-60 0 -84 -15t-24 -55v-10q0 -35 14.5 -50t45.5 -15q29 0 61 9.5t59 26.5v109zM130 730h108v-118h-108v118zM321 730h108v-118h-108v118z" />
    <glyph glyph-name="aring" unicode="&#xe5;" horiz-adv-x="557" 
d="M503 0h-114l-14 48q-29 -22 -77.5 -40t-106.5 -18q-159 0 -159 162v29q0 89 64 124.5t192 35.5h70v29q0 25 -4 42t-14.5 27t-29 14t-47.5 4q-16 0 -36.5 -2t-43 -6t-45 -9.5t-42.5 -12.5v108q20 7 44.5 12.5t50 9.5t50.5 6.5t46 2.5q69 0 111.5 -16t66 -43.5t31 -64
t7.5 -76.5v-366zM358 244h-72q-60 0 -84 -15t-24 -55v-10q0 -35 14.5 -50t45.5 -15q29 0 61 9.5t59 26.5v109zM279 648q21 0 33.5 12t12.5 34q0 21 -12.5 33.5t-33.5 12.5q-20 0 -32.5 -12.5t-12.5 -33.5q0 -22 12.5 -34t32.5 -12zM279 585q-24 0 -44.5 9t-36 24t-24 34.5
t-8.5 41.5t8.5 41.5t24 34.5t36 23.5t44.5 8.5t45 -8.5t36.5 -23.5t24 -34.5t8.5 -41.5t-8.5 -41.5t-24 -34.5t-36.5 -24t-45 -9z" />
    <glyph glyph-name="ae" unicode="&#xe6;" horiz-adv-x="888" 
d="M858 235h-357v-21q0 -64 34 -90t114 -26q33 0 78.5 5t84.5 19v-105q-18 -7 -40 -12.5t-46 -9t-48 -5t-45 -1.5q-72 0 -121.5 16.5t-85.5 51.5q-50 -31 -105 -49t-130 -18q-79 0 -119 35.5t-40 116.5v20q0 88 55.5 128t180.5 40h90v40q0 25 -4 42t-14.5 27t-29 14t-47.5 4
q-16 0 -36.5 -2t-43 -6t-45 -9.5t-42.5 -12.5v108q20 7 44.5 12.5t50 9.5t50.5 6.5t46 2.5q65 0 103.5 -14.5t60.5 -37.5q34 26 76.5 39t86.5 13q56 0 101 -13.5t77 -45t49 -83.5t17 -129v-60zM716 330v9q0 52 -24.5 84.5t-82.5 32.5q-55 0 -81.5 -32.5t-26.5 -85.5v-8h215z
M358 233h-72q-30 0 -50.5 -2t-33.5 -8t-18.5 -17.5t-5.5 -31.5v-10q0 -35 14.5 -50t45.5 -15q29 0 61 9.5t59 26.5v98z" />
    <glyph glyph-name="ccedilla" unicode="&#xe7;" horiz-adv-x="527" 
d="M276 -269q-20 0 -44 2t-46 6v78q15 -2 33 -3.5t41 -1.5q37 0 52 11.5t15 25.5v8q0 18 -16 27.5t-62 9.5h-22v102q-94 17 -138 75.5t-44 167.5v66q0 139 69.5 200t202.5 61q42 0 86.5 -5.5t73.5 -17.5v-110q-24 8 -61 13t-78 5q-43 0 -71 -9t-44.5 -27t-23 -44.5
t-6.5 -60.5v-68q0 -36 6.5 -62t23 -42.5t44.5 -24.5t72 -8q33 0 70.5 5t77.5 19v-114q-16 -7 -36.5 -12t-42 -8t-42.5 -5t-39 -2v-38q33 -3 54.5 -11t34 -20.5t17.5 -29.5t5 -37v-8q0 -62 -44.5 -87.5t-117.5 -25.5z" />
    <glyph glyph-name="egrave" unicode="&#xe8;" horiz-adv-x="586" 
d="M548 225h-357v-11q0 -64 34 -90t114 -26q33 0 78.5 5t84.5 19v-105q-18 -7 -40 -12.5t-46 -9t-48 -5t-45 -1.5q-141 0 -209.5 60t-68.5 192v67q0 69 19.5 118t54 80t80 45.5t98.5 14.5q57 0 103.5 -13.5t79 -45t50.5 -83.5t18 -129v-70zM406 320v19q0 52 -24.5 84.5
t-82.5 32.5q-55 0 -81.5 -32.5t-26.5 -85.5v-18h215zM390 603h-135l-115 142h160z" />
    <glyph glyph-name="eacute" unicode="&#xe9;" horiz-adv-x="586" 
d="M548 225h-357v-11q0 -64 34 -90t114 -26q33 0 78.5 5t84.5 19v-105q-18 -7 -40 -12.5t-46 -9t-48 -5t-45 -1.5q-141 0 -209.5 60t-68.5 192v67q0 69 19.5 118t54 80t80 45.5t98.5 14.5q57 0 103.5 -13.5t79 -45t50.5 -83.5t18 -129v-70zM406 320v19q0 52 -24.5 84.5
t-82.5 32.5q-55 0 -81.5 -32.5t-26.5 -85.5v-18h215zM323 745h160l-115 -142h-135z" />
    <glyph glyph-name="ecircumflex" unicode="&#xea;" horiz-adv-x="586" 
d="M548 225h-357v-11q0 -64 34 -90t114 -26q33 0 78.5 5t84.5 19v-105q-18 -7 -40 -12.5t-46 -9t-48 -5t-45 -1.5q-141 0 -209.5 60t-68.5 192v67q0 69 19.5 118t54 80t80 45.5t98.5 14.5q57 0 103.5 -13.5t79 -45t50.5 -83.5t18 -129v-70zM406 320v19q0 52 -24.5 84.5
t-82.5 32.5q-55 0 -81.5 -32.5t-26.5 -85.5v-18h215zM238 762h109l106 -161h-100l-61 77l-62 -77h-98z" />
    <glyph glyph-name="edieresis" unicode="&#xeb;" horiz-adv-x="586" 
d="M548 225h-357v-11q0 -64 34 -90t114 -26q33 0 78.5 5t84.5 19v-105q-18 -7 -40 -12.5t-46 -9t-48 -5t-45 -1.5q-141 0 -209.5 60t-68.5 192v67q0 69 19.5 118t54 80t80 45.5t98.5 14.5q57 0 103.5 -13.5t79 -45t50.5 -83.5t18 -129v-70zM406 320v19q0 52 -24.5 84.5
t-82.5 32.5q-55 0 -81.5 -32.5t-26.5 -85.5v-18h215zM147 730h108v-118h-108v118zM338 730h108v-118h-108v118z" />
    <glyph glyph-name="igrave" unicode="&#xec;" horiz-adv-x="280" 
d="M215 0h-150v552h150v-552zM205 603h-135l-115 142h160z" />
    <glyph glyph-name="iacute" unicode="&#xed;" horiz-adv-x="280" 
d="M215 0h-150v552h150v-552zM166 745h160l-115 -142h-135z" />
    <glyph glyph-name="icircumflex" unicode="&#xee;" horiz-adv-x="280" 
d="M215 0h-150v552h150v-552zM86 762h109l106 -161h-100l-61 77l-62 -77h-98z" />
    <glyph glyph-name="idieresis" unicode="&#xef;" horiz-adv-x="280" 
d="M215 0h-150v552h150v-552zM-9 730h108v-118h-108v118zM182 730h108v-118h-108v118z" />
    <glyph glyph-name="eth" unicode="&#xf0;" horiz-adv-x="609" 
d="M131 627l68 29q-15 8 -29.5 15t-29.5 15l45 92q38 -17 71.5 -34.5t62.5 -36.5l121 51l27 -71l-75 -32q94 -79 133 -173.5t39 -206.5v-36q0 -124 -66 -187.5t-194 -63.5q-127 0 -193 63.5t-66 187.5v51q0 121 63 186t171 65q23 0 49.5 -4.5t43.5 -16.5q-24 28 -47 49
t-47 38l-120 -51zM416 283q0 79 -29 111.5t-82 32.5q-54 0 -83 -32.5t-29 -111.5v-37q0 -79 29 -111.5t83 -32.5q53 0 82 32.5t29 111.5v37z" />
    <glyph glyph-name="ntilde" unicode="&#xf1;" horiz-adv-x="603" 
d="M547 0h-150v359q0 40 -11.5 60t-50.5 20q-29 0 -62.5 -9.5t-62.5 -29.5v-400h-150v552h117l11 -45q42 28 92 43.5t92 15.5q49 0 82.5 -12t54 -34t29.5 -53t9 -68v-399zM362 603q-25 0 -41 7.5t-28 17t-22 17t-23 7.5q-16 0 -24 -14.5t-11 -34.5h-85q3 24 10 49t20 46
t32.5 34t48.5 13q26 0 43 -7.5t29.5 -17t22.5 -17t22 -7.5q19 0 25 15.5t8 35.5h85q-2 -23 -8 -48t-19 -46.5t-33.5 -35.5t-51.5 -14z" />
    <glyph glyph-name="ograve" unicode="&#xf2;" horiz-adv-x="609" 
d="M564 239q0 -124 -66 -187.5t-194 -63.5q-127 0 -193 63.5t-66 187.5v76q0 121 66 186t193 65q128 0 194 -65t66 -186v-76zM414 308q0 79 -28 111t-81 32q-54 0 -82 -32t-28 -111v-62q0 -79 28 -110.5t82 -31.5q53 0 81 31.5t28 110.5v62zM375 603h-135l-115 142h160z" />
    <glyph glyph-name="oacute" unicode="&#xf3;" horiz-adv-x="609" 
d="M564 239q0 -124 -66 -187.5t-194 -63.5q-127 0 -193 63.5t-66 187.5v76q0 121 66 186t193 65q128 0 194 -65t66 -186v-76zM414 308q0 79 -28 111t-81 32q-54 0 -82 -32t-28 -111v-62q0 -79 28 -110.5t82 -31.5q53 0 81 31.5t28 110.5v62zM320 745h160l-115 -142h-135z
" />
    <glyph glyph-name="ocircumflex" unicode="&#xf4;" horiz-adv-x="609" 
d="M564 239q0 -124 -66 -187.5t-194 -63.5q-127 0 -193 63.5t-66 187.5v76q0 121 66 186t193 65q128 0 194 -65t66 -186v-76zM414 308q0 79 -28 111t-81 32q-54 0 -82 -32t-28 -111v-62q0 -79 28 -110.5t82 -31.5q53 0 81 31.5t28 110.5v62zM250 762h109l106 -161h-100
l-61 77l-62 -77h-98z" />
    <glyph glyph-name="otilde" unicode="&#xf5;" horiz-adv-x="609" 
d="M564 239q0 -124 -66 -187.5t-194 -63.5q-127 0 -193 63.5t-66 187.5v76q0 121 66 186t193 65q128 0 194 -65t66 -186v-76zM414 308q0 79 -28 111t-81 32q-54 0 -82 -32t-28 -111v-62q0 -79 28 -110.5t82 -31.5q53 0 81 31.5t28 110.5v62zM365 603q-25 0 -41 7.5t-28 17
t-22 17t-23 7.5q-16 0 -24 -14.5t-11 -34.5h-85q3 24 10 49t20 46t32.5 34t48.5 13q26 0 43 -7.5t29.5 -17t22.5 -17t22 -7.5q19 0 25 15.5t8 35.5h85q-2 -23 -8 -48t-19 -46.5t-33.5 -35.5t-51.5 -14z" />
    <glyph glyph-name="odieresis" unicode="&#xf6;" horiz-adv-x="609" 
d="M564 239q0 -124 -66 -187.5t-194 -63.5q-127 0 -193 63.5t-66 187.5v76q0 121 66 186t193 65q128 0 194 -65t66 -186v-76zM414 308q0 79 -28 111t-81 32q-54 0 -82 -32t-28 -111v-62q0 -79 28 -110.5t82 -31.5q53 0 81 31.5t28 110.5v62zM155 730h108v-118h-108v118z
M346 730h108v-118h-108v118z" />
    <glyph glyph-name="divide" unicode="&#xf7;" horiz-adv-x="588" 
d="M40 406h508v-118h-508v118zM225 618h141v-140h-141v140zM225 216h141v-140h-141v140z" />
    <glyph glyph-name="oslash" unicode="&#xf8;" horiz-adv-x="609" 
d="M35 -43l69 103q-59 64 -59 179v76q0 121 66 186t193 65q71 0 124 -21l26 39h120l-65 -96q55 -64 55 -173v-76q0 -124 -66 -187.5t-194 -63.5q-66 0 -117 18l-32 -49h-120zM195 246q0 -25 3 -46l160 240q-21 11 -53 11q-54 0 -82 -32t-28 -111v-62zM414 308q0 9 -0.5 17.5
t-1.5 16.5l-154 -231q18 -7 47 -7q53 0 81 31.5t28 110.5v62z" />
    <glyph glyph-name="ugrave" unicode="&#xf9;" 
d="M56 552h150v-357q0 -40 11 -60.5t49 -20.5q29 0 62 10t62 30v398h150v-552h-117l-12 46q-41 -29 -91 -43t-92 -14q-49 0 -82 11.5t-53 33.5t-28.5 52.5t-8.5 68.5v397zM385 603h-135l-115 142h160z" />
    <glyph glyph-name="uacute" unicode="&#xfa;" 
d="M56 552h150v-357q0 -40 11 -60.5t49 -20.5q29 0 62 10t62 30v398h150v-552h-117l-12 46q-41 -29 -91 -43t-92 -14q-49 0 -82 11.5t-53 33.5t-28.5 52.5t-8.5 68.5v397zM322 745h160l-115 -142h-135z" />
    <glyph glyph-name="ucircumflex" unicode="&#xfb;" 
d="M56 552h150v-357q0 -40 11 -60.5t49 -20.5q29 0 62 10t62 30v398h150v-552h-117l-12 46q-41 -29 -91 -43t-92 -14q-49 0 -82 11.5t-53 33.5t-28.5 52.5t-8.5 68.5v397zM246 762h109l106 -161h-100l-61 77l-62 -77h-98z" />
    <glyph glyph-name="udieresis" unicode="&#xfc;" 
d="M56 552h150v-357q0 -40 11 -60.5t49 -20.5q29 0 62 10t62 30v398h150v-552h-117l-12 46q-41 -29 -91 -43t-92 -14q-49 0 -82 11.5t-53 33.5t-28.5 52.5t-8.5 68.5v397zM150 730h108v-118h-108v118zM341 730h108v-118h-108v118z" />
    <glyph glyph-name="yacute" unicode="&#xfd;" horiz-adv-x="580" 
d="M571 552l-276 -765h-157l76 214l-206 551h153l103 -310q8 -23 15.5 -51.5t14.5 -66.5q3 13 7.5 30t9 33.5t8.5 31t7 22.5l98 311h147zM310 745h160l-115 -142h-135z" />
    <glyph glyph-name="thorn" unicode="&#xfe;" horiz-adv-x="623" 
d="M60 744l150 30v-256q35 20 80.5 34t94.5 14q95 0 141.5 -50t46.5 -132v-176q0 -59 -15.5 -100.5t-45 -67.5t-71 -38.5t-92.5 -12.5q-32 0 -68 5t-71 16v-226h-150v960zM423 345q0 52 -18.5 76t-66.5 24q-33 0 -67.5 -12t-60.5 -29v-283q23 -8 50 -12t50 -4q34 0 56 8
t35 24t17.5 40.5t4.5 58.5v109z" />
    <glyph glyph-name="ydieresis" unicode="&#xff;" horiz-adv-x="580" 
d="M571 552l-276 -765h-157l76 214l-206 551h153l103 -310q8 -23 15.5 -51.5t14.5 -66.5q3 13 7.5 30t9 33.5t8.5 31t7 22.5l98 311h147zM141 730h108v-118h-108v118zM332 730h108v-118h-108v118z" />
    <glyph glyph-name="Amacron" unicode="&#x100;" horiz-adv-x="726" 
d="M444 750l274 -750h-171l-60 180h-260l-60 -180h-159l264 750h172zM265 309h182l-57 173q-11 35 -17.5 64t-15.5 69q-9 -40 -16.5 -69t-18.5 -64zM213 927h300v-94h-300v94z" />
    <glyph glyph-name="amacron" unicode="&#x101;" horiz-adv-x="557" 
d="M503 0h-114l-14 48q-29 -22 -77.5 -40t-106.5 -18q-159 0 -159 162v29q0 89 64 124.5t192 35.5h70v29q0 25 -4 42t-14.5 27t-29 14t-47.5 4q-16 0 -36.5 -2t-43 -6t-45 -9.5t-42.5 -12.5v108q20 7 44.5 12.5t50 9.5t50.5 6.5t46 2.5q69 0 111.5 -16t66 -43.5t31 -64
t7.5 -76.5v-366zM358 244h-72q-60 0 -84 -15t-24 -55v-10q0 -35 14.5 -50t45.5 -15q29 0 61 9.5t59 26.5v109zM130 727h300v-94h-300v94z" />
    <glyph glyph-name="Abreve" unicode="&#x102;" horiz-adv-x="726" 
d="M444 750l274 -750h-171l-60 180h-260l-60 -180h-159l264 750h172zM265 309h182l-57 173q-11 35 -17.5 64t-15.5 69q-9 -40 -16.5 -69t-18.5 -64zM357 804q-34 0 -60.5 11.5t-45.5 31t-29.5 46.5t-11.5 57h85q4 -30 18.5 -45.5t43.5 -15.5t43.5 15.5t18.5 45.5h85
q-1 -30 -11.5 -57t-29 -46.5t-45.5 -31t-61 -11.5z" />
    <glyph glyph-name="abreve" unicode="&#x103;" horiz-adv-x="557" 
d="M503 0h-114l-14 48q-29 -22 -77.5 -40t-106.5 -18q-159 0 -159 162v29q0 89 64 124.5t192 35.5h70v29q0 25 -4 42t-14.5 27t-29 14t-47.5 4q-16 0 -36.5 -2t-43 -6t-45 -9.5t-42.5 -12.5v108q20 7 44.5 12.5t50 9.5t50.5 6.5t46 2.5q69 0 111.5 -16t66 -43.5t31 -64
t7.5 -76.5v-366zM358 244h-72q-60 0 -84 -15t-24 -55v-10q0 -35 14.5 -50t45.5 -15q29 0 61 9.5t59 26.5v109zM280 604q-34 0 -60.5 11.5t-45.5 31t-29.5 46.5t-11.5 57h85q4 -30 18.5 -45.5t43.5 -15.5t43.5 15.5t18.5 45.5h85q-1 -30 -11.5 -57t-29 -46.5t-45.5 -31
t-61 -11.5z" />
    <glyph glyph-name="Aogonek" unicode="&#x104;" horiz-adv-x="726" 
d="M655 -228q-73 0 -108 30t-35 72v9q0 19 9 37.5t23.5 34.5t33 27.5t37.5 17.5h-68l-60 180h-260l-60 -180h-159l264 750h172l274 -750q-39 -20 -64 -49t-25 -52v-8q0 -20 14.5 -26.5t37.5 -6.5q15 0 31.5 2t27.5 5v-82q-13 -4 -35 -7.5t-50 -3.5zM265 309h182l-57 173
q-11 35 -17.5 64t-15.5 69q-9 -40 -16.5 -69t-18.5 -64z" />
    <glyph glyph-name="aogonek" unicode="&#x105;" horiz-adv-x="559" 
d="M440 -228q-73 0 -108 30t-35 72v9q0 18 8 35.5t21 32.5t29.5 27t34.5 19l-15 51q-29 -22 -77.5 -40t-106.5 -18q-159 0 -159 162v29q0 89 64 124.5t192 35.5h70v29q0 25 -4 42t-14.5 27t-29 14t-47.5 4q-16 0 -36.5 -2t-43 -6t-45 -9.5t-42.5 -12.5v108q20 7 44.5 12.5
t50 9.5t50.5 6.5t46 2.5q69 0 111.5 -16t66 -43.5t31 -64t7.5 -76.5v-366q-39 -20 -64 -49t-25 -52v-8q0 -20 14.5 -26.5t37.5 -6.5q15 0 31.5 2t27.5 5v-82q-13 -4 -35 -7.5t-50 -3.5zM358 244h-72q-60 0 -84 -15t-24 -55v-10q0 -35 14.5 -50t45.5 -15q29 0 61 9.5t59 26.5
v109z" />
    <glyph glyph-name="Cacute" unicode="&#x106;" horiz-adv-x="630" 
d="M583 608q-35 9 -83.5 13.5t-97.5 4.5q-56 0 -94 -10t-61.5 -32t-33.5 -57t-10 -85v-127q0 -53 9.5 -89t32.5 -59t61 -33t95 -10q43 0 94 5t99 19v-127q-45 -18 -101.5 -24.5t-107.5 -6.5q-92 0 -156 17t-104.5 55t-59 99t-18.5 150v118q0 94 21 157.5t63 102t105 55
t148 16.5q27 0 55 -1.5t54 -4.5t49 -7.5t41 -11.5v-127zM367 945h160l-115 -142h-135z" />
    <glyph glyph-name="cacute" unicode="&#x107;" horiz-adv-x="527" 
d="M477 433q-24 8 -61 13t-78 5q-43 0 -71 -9t-44.5 -27t-23 -44.5t-6.5 -60.5v-68q0 -36 6.5 -62t23 -42.5t44.5 -24.5t72 -8q33 0 70.5 5t77.5 19v-114q-17 -7 -39 -12t-45 -8.5t-45 -5t-40 -1.5q-140 0 -206.5 59.5t-66.5 191.5v66q0 139 69.5 200t202.5 61
q42 0 86.5 -5.5t73.5 -17.5v-110zM303 745h160l-115 -142h-135z" />
    <glyph glyph-name="Ccircumflex" unicode="&#x108;" horiz-adv-x="630" 
d="M583 608q-35 9 -83.5 13.5t-97.5 4.5q-56 0 -94 -10t-61.5 -32t-33.5 -57t-10 -85v-127q0 -53 9.5 -89t32.5 -59t61 -33t95 -10q43 0 94 5t99 19v-127q-45 -18 -101.5 -24.5t-107.5 -6.5q-92 0 -156 17t-104.5 55t-59 99t-18.5 150v118q0 94 21 157.5t63 102t105 55
t148 16.5q27 0 55 -1.5t54 -4.5t49 -7.5t41 -11.5v-127zM303 962h109l106 -161h-100l-61 77l-62 -77h-98z" />
    <glyph glyph-name="ccircumflex" unicode="&#x109;" horiz-adv-x="527" 
d="M477 433q-24 8 -61 13t-78 5q-43 0 -71 -9t-44.5 -27t-23 -44.5t-6.5 -60.5v-68q0 -36 6.5 -62t23 -42.5t44.5 -24.5t72 -8q33 0 70.5 5t77.5 19v-114q-17 -7 -39 -12t-45 -8.5t-45 -5t-40 -1.5q-140 0 -206.5 59.5t-66.5 191.5v66q0 139 69.5 200t202.5 61
q42 0 86.5 -5.5t73.5 -17.5v-110zM242 762h109l106 -161h-100l-61 77l-62 -77h-98z" />
    <glyph glyph-name="Cdotaccent" unicode="&#x10a;" horiz-adv-x="630" 
d="M583 608q-35 9 -83.5 13.5t-97.5 4.5q-56 0 -94 -10t-61.5 -32t-33.5 -57t-10 -85v-127q0 -53 9.5 -89t32.5 -59t61 -33t95 -10q43 0 94 5t99 19v-127q-45 -18 -101.5 -24.5t-107.5 -6.5q-92 0 -156 17t-104.5 55t-59 99t-18.5 150v118q0 94 21 157.5t63 102t105 55
t148 16.5q27 0 55 -1.5t54 -4.5t49 -7.5t41 -11.5v-127zM302 930h110v-118h-110v118z" />
    <glyph glyph-name="cdotaccent" unicode="&#x10b;" horiz-adv-x="527" 
d="M477 433q-24 8 -61 13t-78 5q-43 0 -71 -9t-44.5 -27t-23 -44.5t-6.5 -60.5v-68q0 -36 6.5 -62t23 -42.5t44.5 -24.5t72 -8q33 0 70.5 5t77.5 19v-114q-17 -7 -39 -12t-45 -8.5t-45 -5t-40 -1.5q-140 0 -206.5 59.5t-66.5 191.5v66q0 139 69.5 200t202.5 61
q42 0 86.5 -5.5t73.5 -17.5v-110zM245 730h110v-118h-110v118z" />
    <glyph glyph-name="Ccaron" unicode="&#x10c;" horiz-adv-x="630" 
d="M583 608q-35 9 -83.5 13.5t-97.5 4.5q-56 0 -94 -10t-61.5 -32t-33.5 -57t-10 -85v-127q0 -53 9.5 -89t32.5 -59t61 -33t95 -10q43 0 94 5t99 19v-127q-45 -18 -101.5 -24.5t-107.5 -6.5q-92 0 -156 17t-104.5 55t-59 99t-18.5 150v118q0 94 21 157.5t63 102t105 55
t148 16.5q27 0 55 -1.5t54 -4.5t49 -7.5t41 -11.5v-127zM412 792h-108l-107 161h100l61 -77l61 77h100z" />
    <glyph glyph-name="ccaron" unicode="&#x10d;" horiz-adv-x="527" 
d="M477 433q-24 8 -61 13t-78 5q-43 0 -71 -9t-44.5 -27t-23 -44.5t-6.5 -60.5v-68q0 -36 6.5 -62t23 -42.5t44.5 -24.5t72 -8q33 0 70.5 5t77.5 19v-114q-17 -7 -39 -12t-45 -8.5t-45 -5t-40 -1.5q-140 0 -206.5 59.5t-66.5 191.5v66q0 139 69.5 200t202.5 61
q42 0 86.5 -5.5t73.5 -17.5v-110zM351 592h-108l-107 161h100l61 -77l61 77h100z" />
    <glyph glyph-name="Dcaron" unicode="&#x10e;" horiz-adv-x="734" 
d="M68 0v750h297q86 0 147 -16.5t99.5 -53t56.5 -94.5t18 -142v-156q0 -80 -18.5 -135t-57.5 -89t-100.5 -49t-148.5 -15h-293zM222 621v-492h128q57 0 92.5 11.5t55.5 33.5t27 55t7 76v139q0 41 -7 74t-26.5 56t-54.5 35t-90 12h-132zM427 792h-108l-107 161h100l61 -77
l61 77h100z" />
    <glyph glyph-name="dcaron" unicode="&#x10f;" horiz-adv-x="709" 
d="M739 761l-32 -178h-88l9 178h111zM237 -10q-50 0 -85 14.5t-58 40t-33.5 60.5t-10.5 76v160q0 60 16 102.5t45.5 70t71 40t93.5 12.5q38 0 75 -7.5t62 -20.5v206l150 30v-774h-123l-13 47q-38 -28 -85 -42.5t-105 -14.5zM413 426q-20 14 -48.5 20.5t-51.5 6.5
q-27 0 -48 -5.5t-35.5 -18.5t-22 -35t-7.5 -56v-134q0 -46 18.5 -71.5t62.5 -25.5q32 0 66 9t66 30v280z" />
    <glyph glyph-name="Dcroat" unicode="&#x110;" horiz-adv-x="734" 
d="M1 435h67v315h297q86 0 147 -16.5t99.5 -53t56.5 -94.5t18 -142v-156q0 -80 -18.5 -135t-57.5 -89t-100.5 -49t-148.5 -15h-293v334h-67v101zM222 621v-186h189v-101h-189v-205h128q57 0 92.5 11.5t55.5 33.5t27 55t7 76v139q0 41 -7 74t-26.5 56t-54.5 35t-90 12h-132z
" />
    <glyph glyph-name="dcroat" unicode="&#x111;" horiz-adv-x="636" 
d="M282 689h131v55l150 30v-85h61v-89h-61v-600h-123l-13 47q-38 -28 -85 -42.5t-105 -14.5q-50 0 -85 14.5t-58 40t-33.5 60.5t-10.5 76v146q0 60 16 102.5t45.5 70t71 40t93.5 12.5q38 0 75 -7.5t62 -20.5v76h-131v89zM413 412q-20 14 -48.5 20.5t-51.5 6.5
q-27 0 -48 -5.5t-35.5 -18.5t-22 -35t-7.5 -56v-120q0 -46 18.5 -71.5t62.5 -25.5q32 0 66 9t66 30v266z" />
    <glyph glyph-name="Emacron" unicode="&#x112;" horiz-adv-x="618" 
d="M561 750v-125h-339v-179h307v-124h-307v-197h354v-125h-508v750h493zM177 927h300v-94h-300v94z" />
    <glyph glyph-name="emacron" unicode="&#x113;" horiz-adv-x="586" 
d="M548 225h-357v-11q0 -64 34 -90t114 -26q33 0 78.5 5t84.5 19v-105q-18 -7 -40 -12.5t-46 -9t-48 -5t-45 -1.5q-141 0 -209.5 60t-68.5 192v67q0 69 19.5 118t54 80t80 45.5t98.5 14.5q57 0 103.5 -13.5t79 -45t50.5 -83.5t18 -129v-70zM406 320v19q0 52 -24.5 84.5
t-82.5 32.5q-55 0 -81.5 -32.5t-26.5 -85.5v-18h215zM143 727h300v-94h-300v94z" />
    <glyph glyph-name="Ebreve" unicode="&#x114;" horiz-adv-x="618" 
d="M561 750v-125h-339v-179h307v-124h-307v-197h354v-125h-508v750h493zM331 804q-34 0 -60.5 11.5t-45.5 31t-29.5 46.5t-11.5 57h85q4 -30 18.5 -45.5t43.5 -15.5t43.5 15.5t18.5 45.5h85q-1 -30 -11.5 -57t-29 -46.5t-45.5 -31t-61 -11.5z" />
    <glyph glyph-name="ebreve" unicode="&#x115;" horiz-adv-x="586" 
d="M548 225h-357v-11q0 -64 34 -90t114 -26q33 0 78.5 5t84.5 19v-105q-18 -7 -40 -12.5t-46 -9t-48 -5t-45 -1.5q-141 0 -209.5 60t-68.5 192v67q0 69 19.5 118t54 80t80 45.5t98.5 14.5q57 0 103.5 -13.5t79 -45t50.5 -83.5t18 -129v-70zM406 320v19q0 52 -24.5 84.5
t-82.5 32.5q-55 0 -81.5 -32.5t-26.5 -85.5v-18h215zM292 604q-34 0 -60.5 11.5t-45.5 31t-29.5 46.5t-11.5 57h85q4 -30 18.5 -45.5t43.5 -15.5t43.5 15.5t18.5 45.5h85q-1 -30 -11.5 -57t-29 -46.5t-45.5 -31t-61 -11.5z" />
    <glyph glyph-name="Edotaccent" unicode="&#x116;" horiz-adv-x="618" 
d="M561 750v-125h-339v-179h307v-124h-307v-197h354v-125h-508v750h493zM270 930h110v-118h-110v118z" />
    <glyph glyph-name="edotaccent" unicode="&#x117;" horiz-adv-x="586" 
d="M548 225h-357v-11q0 -64 34 -90t114 -26q33 0 78.5 5t84.5 19v-105q-18 -7 -40 -12.5t-46 -9t-48 -5t-45 -1.5q-141 0 -209.5 60t-68.5 192v67q0 69 19.5 118t54 80t80 45.5t98.5 14.5q57 0 103.5 -13.5t79 -45t50.5 -83.5t18 -129v-70zM406 320v19q0 52 -24.5 84.5
t-82.5 32.5q-55 0 -81.5 -32.5t-26.5 -85.5v-18h215zM237 730h110v-118h-110v118z" />
    <glyph glyph-name="Eogonek" unicode="&#x118;" horiz-adv-x="618" 
d="M454 -228q-73 0 -108 30t-35 72v9q0 19 9 37.5t23.5 34.5t33 27.5t37.5 17.5h-346v750h493v-125h-339v-179h307v-124h-307v-197h354v-125h-59q-39 -20 -64 -49t-25 -52v-8q0 -20 14.5 -26.5t37.5 -6.5q15 0 31.5 2t27.5 5v-82q-13 -4 -35 -7.5t-50 -3.5z" />
    <glyph glyph-name="eogonek" unicode="&#x119;" horiz-adv-x="586" 
d="M548 225h-357v-11q0 -64 34 -90t114 -26q33 0 78.5 5t84.5 19v-105q-9 -4 -19 -7t-21 -6q-45 -21 -70.5 -51.5t-25.5 -53.5v-8q0 -20 14.5 -26.5t37.5 -6.5q15 0 31.5 2t27.5 5v-82q-13 -4 -35 -7.5t-50 -3.5q-73 0 -108 30t-35 72v9q0 34 25 62.5t57 43.5h-8
q-141 0 -209.5 60t-68.5 192v67q0 69 19.5 118t54 80t80 45.5t98.5 14.5q57 0 103.5 -13.5t79 -45t50.5 -83.5t18 -129v-70zM406 320v19q0 52 -24.5 84.5t-82.5 32.5q-55 0 -81.5 -32.5t-26.5 -85.5v-18h215z" />
    <glyph glyph-name="Ecaron" unicode="&#x11a;" horiz-adv-x="618" 
d="M561 750v-125h-339v-179h307v-124h-307v-197h354v-125h-508v750h493zM386 792h-108l-107 161h100l61 -77l61 77h100z" />
    <glyph glyph-name="ecaron" unicode="&#x11b;" horiz-adv-x="586" 
d="M548 225h-357v-11q0 -64 34 -90t114 -26q33 0 78.5 5t84.5 19v-105q-18 -7 -40 -12.5t-46 -9t-48 -5t-45 -1.5q-141 0 -209.5 60t-68.5 192v67q0 69 19.5 118t54 80t80 45.5t98.5 14.5q57 0 103.5 -13.5t79 -45t50.5 -83.5t18 -129v-70zM406 320v19q0 52 -24.5 84.5
t-82.5 32.5q-55 0 -81.5 -32.5t-26.5 -85.5v-18h215zM357 592h-108l-107 161h100l61 -77l61 77h100z" />
    <glyph glyph-name="Gcircumflex" unicode="&#x11c;" horiz-adv-x="698" 
d="M593 611q-18 4 -41 8t-48.5 6t-52 3.5t-50.5 1.5q-60 0 -98.5 -12t-60.5 -35.5t-30.5 -58t-8.5 -80.5v-132q0 -45 7.5 -80.5t30 -60t63.5 -37.5t107 -13q21 0 44 1.5t47 6.5v176h-131v117h277v-398q-26 -9 -57.5 -15.5t-65 -10.5t-67 -6t-63.5 -2q-95 0 -161 17
t-107.5 55t-60.5 99t-19 150v117q0 94 20.5 157.5t62.5 102.5t105 55.5t148 16.5q27 0 55.5 -1.5t56.5 -4.5t53 -7.5t45 -11.5v-124zM306 962h109l106 -161h-100l-61 77l-62 -77h-98z" />
    <glyph glyph-name="gcircumflex" unicode="&#x11d;" horiz-adv-x="623" 
d="M236 -6q-96 0 -141 49.5t-45 131.5v166q0 60 16 102.5t45.5 70t71 40t93.5 12.5q40 0 85 -9.5t81 -35.5l9 31h112v-555q0 -52 -12.5 -93t-42 -69t-79 -43t-124.5 -15q-42 0 -82 5t-72 13v108q35 -8 70.5 -11.5t74.5 -3.5q68 0 96 23.5t28 77.5v57q-41 -26 -88.5 -39
t-95.5 -13zM413 426q-20 14 -48.5 20.5t-51.5 6.5q-27 0 -48 -5.5t-35.5 -18.5t-22 -35t-7.5 -56v-130q0 -46 18.5 -71.5t62.5 -25.5q32 0 66 9t66 30v276zM260 762h109l106 -161h-100l-61 77l-62 -77h-98z" />
    <glyph glyph-name="Gbreve" unicode="&#x11e;" horiz-adv-x="698" 
d="M593 611q-18 4 -41 8t-48.5 6t-52 3.5t-50.5 1.5q-60 0 -98.5 -12t-60.5 -35.5t-30.5 -58t-8.5 -80.5v-132q0 -45 7.5 -80.5t30 -60t63.5 -37.5t107 -13q21 0 44 1.5t47 6.5v176h-131v117h277v-398q-26 -9 -57.5 -15.5t-65 -10.5t-67 -6t-63.5 -2q-95 0 -161 17
t-107.5 55t-60.5 99t-19 150v117q0 94 20.5 157.5t62.5 102.5t105 55.5t148 16.5q27 0 55.5 -1.5t56.5 -4.5t53 -7.5t45 -11.5v-124zM365 804q-34 0 -60.5 11.5t-45.5 31t-29.5 46.5t-11.5 57h85q4 -30 18.5 -45.5t43.5 -15.5t43.5 15.5t18.5 45.5h85q-1 -30 -11.5 -57
t-29 -46.5t-45.5 -31t-61 -11.5z" />
    <glyph glyph-name="gbreve" unicode="&#x11f;" horiz-adv-x="623" 
d="M236 -6q-96 0 -141 49.5t-45 131.5v166q0 60 16 102.5t45.5 70t71 40t93.5 12.5q40 0 85 -9.5t81 -35.5l9 31h112v-555q0 -52 -12.5 -93t-42 -69t-79 -43t-124.5 -15q-42 0 -82 5t-72 13v108q35 -8 70.5 -11.5t74.5 -3.5q68 0 96 23.5t28 77.5v57q-41 -26 -88.5 -39
t-95.5 -13zM413 426q-20 14 -48.5 20.5t-51.5 6.5q-27 0 -48 -5.5t-35.5 -18.5t-22 -35t-7.5 -56v-130q0 -46 18.5 -71.5t62.5 -25.5q32 0 66 9t66 30v276zM314 604q-34 0 -60.5 11.5t-45.5 31t-29.5 46.5t-11.5 57h85q4 -30 18.5 -45.5t43.5 -15.5t43.5 15.5t18.5 45.5h85
q-1 -30 -11.5 -57t-29 -46.5t-45.5 -31t-61 -11.5z" />
    <glyph glyph-name="Gdotaccent" unicode="&#x120;" horiz-adv-x="698" 
d="M593 611q-18 4 -41 8t-48.5 6t-52 3.5t-50.5 1.5q-60 0 -98.5 -12t-60.5 -35.5t-30.5 -58t-8.5 -80.5v-132q0 -45 7.5 -80.5t30 -60t63.5 -37.5t107 -13q21 0 44 1.5t47 6.5v176h-131v117h277v-398q-26 -9 -57.5 -15.5t-65 -10.5t-67 -6t-63.5 -2q-95 0 -161 17
t-107.5 55t-60.5 99t-19 150v117q0 94 20.5 157.5t62.5 102.5t105 55.5t148 16.5q27 0 55.5 -1.5t56.5 -4.5t53 -7.5t45 -11.5v-124zM303 930h110v-118h-110v118z" />
    <glyph glyph-name="gdotaccent" unicode="&#x121;" horiz-adv-x="623" 
d="M236 -6q-96 0 -141 49.5t-45 131.5v166q0 60 16 102.5t45.5 70t71 40t93.5 12.5q40 0 85 -9.5t81 -35.5l9 31h112v-555q0 -52 -12.5 -93t-42 -69t-79 -43t-124.5 -15q-42 0 -82 5t-72 13v108q35 -8 70.5 -11.5t74.5 -3.5q68 0 96 23.5t28 77.5v57q-41 -26 -88.5 -39
t-95.5 -13zM413 426q-20 14 -48.5 20.5t-51.5 6.5q-27 0 -48 -5.5t-35.5 -18.5t-22 -35t-7.5 -56v-130q0 -46 18.5 -71.5t62.5 -25.5q32 0 66 9t66 30v276zM256 730h110v-118h-110v118z" />
    <glyph glyph-name="uni0122" unicode="&#x122;" horiz-adv-x="698" 
d="M593 611q-18 4 -41 8t-48.5 6t-52 3.5t-50.5 1.5q-60 0 -98.5 -12t-60.5 -35.5t-30.5 -58t-8.5 -80.5v-132q0 -45 7.5 -80.5t30 -60t63.5 -37.5t107 -13q21 0 44 1.5t47 6.5v176h-131v117h277v-398q-26 -9 -57.5 -15.5t-65 -10.5t-67 -6t-63.5 -2q-95 0 -161 17
t-107.5 55t-60.5 99t-19 150v117q0 94 20.5 157.5t62.5 102.5t105 55.5t148 16.5q27 0 55.5 -1.5t56.5 -4.5t53 -7.5t45 -11.5v-124zM320 -50h134l-66 -187h-109z" />
    <glyph glyph-name="uni0123" unicode="&#x123;" horiz-adv-x="623" 
d="M236 -6q-96 0 -141 49.5t-45 131.5v166q0 60 16 102.5t45.5 70t71 40t93.5 12.5q40 0 85 -9.5t81 -35.5l9 31h112v-555q0 -52 -12.5 -93t-42 -69t-79 -43t-124.5 -15q-42 0 -82 5t-72 13v108q35 -8 70.5 -11.5t74.5 -3.5q68 0 96 23.5t28 77.5v57q-41 -26 -88.5 -39
t-95.5 -13zM413 426q-20 14 -48.5 20.5t-51.5 6.5q-27 0 -48 -5.5t-35.5 -18.5t-22 -35t-7.5 -56v-130q0 -46 18.5 -71.5t62.5 -25.5q32 0 66 9t66 30v276zM374 608h-134l66 187h109z" />
    <glyph glyph-name="Hcircumflex" unicode="&#x124;" horiz-adv-x="739" 
d="M671 750v-750h-154v317h-295v-317h-154v750h154v-295h295v295h154zM315 962h109l106 -161h-100l-61 77l-62 -77h-98z" />
    <glyph glyph-name="hcircumflex" unicode="&#x125;" horiz-adv-x="603" 
d="M547 0h-150v359q0 40 -11 60t-51 20q-29 0 -62 -10t-63 -27v-402h-150v744l150 30v-255q36 20 81 33.5t84 13.5q48 0 80.5 -12t53 -34t29.5 -53t9 -68v-399zM267 962h109l106 -161h-100l-61 77l-62 -77h-98z" />
    <glyph glyph-name="Hbar" unicode="&#x126;" horiz-adv-x="739" 
d="M-8 611h76v139h154v-139h295v139h154v-139h75v-103h-75v-508h-154v274h-295v-274h-154v508h-76v103zM517 412v96h-295v-96h295z" />
    <glyph glyph-name="hbar" unicode="&#x127;" horiz-adv-x="603" 
d="M-8 683h68v61l150 30v-91h124v-89h-124v-89q36 20 81 33.5t84 13.5q48 0 80.5 -12t53 -34t29.5 -53t9 -68v-385h-150v345q0 40 -11 60t-51 20q-29 0 -62 -10t-63 -27v-388h-150v594h-68v89z" />
    <glyph glyph-name="Itilde" unicode="&#x128;" horiz-adv-x="290" 
d="M222 0h-154v750h154v-750zM206 803q-25 0 -41 7.5t-28 17t-22 17t-23 7.5q-16 0 -24 -14.5t-11 -34.5h-85q3 24 10 49t20 46t32.5 34t48.5 13q26 0 43 -7.5t29.5 -17t22.5 -17t22 -7.5q19 0 25 15.5t8 35.5h85q-2 -23 -8 -48t-19 -46.5t-33.5 -35.5t-51.5 -14z" />
    <glyph glyph-name="itilde" unicode="&#x129;" horiz-adv-x="280" 
d="M215 0h-150v552h150v-552zM201 603q-25 0 -41 7.5t-28 17t-22 17t-23 7.5q-16 0 -24 -14.5t-11 -34.5h-85q3 24 10 49t20 46t32.5 34t48.5 13q26 0 43 -7.5t29.5 -17t22.5 -17t22 -7.5q19 0 25 15.5t8 35.5h85q-2 -23 -8 -48t-19 -46.5t-33.5 -35.5t-51.5 -14z" />
    <glyph glyph-name="Imacron" unicode="&#x12a;" horiz-adv-x="290" 
d="M222 0h-154v750h154v-750zM-5 929h300v-98h-300v98z" />
    <glyph glyph-name="imacron" unicode="&#x12b;" horiz-adv-x="280" 
d="M215 0h-150v552h150v-552zM-10 727h300v-94h-300v94z" />
    <glyph glyph-name="Ibreve" unicode="&#x12c;" horiz-adv-x="290" 
d="M222 0h-154v750h154v-750zM146 804q-34 0 -60.5 11.5t-45.5 31t-29.5 46.5t-11.5 57h85q4 -30 18.5 -45.5t43.5 -15.5t43.5 15.5t18.5 45.5h85q-1 -30 -11.5 -57t-29 -46.5t-45.5 -31t-61 -11.5z" />
    <glyph glyph-name="ibreve" unicode="&#x12d;" horiz-adv-x="273" 
d="M215 0h-150v552h150v-552zM140 604q-34 0 -60.5 11.5t-45.5 31t-29.5 46.5t-11.5 57h85q4 -30 18.5 -45.5t43.5 -15.5t43.5 15.5t18.5 45.5h85q-1 -30 -11.5 -57t-29 -46.5t-45.5 -31t-61 -11.5z" />
    <glyph glyph-name="Iogonek" unicode="&#x12e;" horiz-adv-x="290" 
d="M159 -228q-73 0 -108 30t-35 72v9q0 19 9 37.5t23.5 34.5t33 27.5t37.5 17.5h-51v750h154v-750q-39 -20 -64 -49t-25 -52v-8q0 -20 14.5 -26.5t37.5 -6.5q15 0 31.5 2t27.5 5v-82q-13 -4 -35 -7.5t-50 -3.5z" />
    <glyph glyph-name="iogonek" unicode="&#x12f;" horiz-adv-x="280" 
d="M152 -228q-73 0 -108 30t-35 72v9q0 19 9 37.5t23.5 34.5t33 27.5t37.5 17.5h-47v552h150v-552q-39 -20 -64 -49t-25 -52v-8q0 -20 14.5 -26.5t37.5 -6.5q15 0 31.5 2t27.5 5v-82q-13 -4 -35 -7.5t-50 -3.5zM215 633h-150v141h150v-141z" />
    <glyph glyph-name="Idotaccent" unicode="&#x130;" horiz-adv-x="290" 
d="M222 0h-154v750h154v-750zM90 930h110v-118h-110v118z" />
    <glyph glyph-name="dotlessi" unicode="&#x131;" horiz-adv-x="280" 
d="M215 0h-150v552h150v-552z" />
    <glyph glyph-name="IJ" unicode="&#x132;" horiz-adv-x="740" 
d="M222 0h-154v750h154v-750zM674 750v-541q0 -53 -10 -93.5t-35.5 -68.5t-68 -42.5t-106.5 -14.5q-30 0 -68.5 6t-67.5 20v130q31 -11 61 -16t54 -5q50 0 68.5 21t18.5 77v527h154z" />
    <glyph glyph-name="ij" unicode="&#x133;" horiz-adv-x="587" 
d="M215 0h-150v552h150v-552zM215 633h-150v141h150v-141zM514 552v-596q0 -53 -10.5 -87.5t-31.5 -54.5t-53.5 -28.5t-76.5 -8.5q-32 0 -65 3t-59 10v118q21 -4 40 -5.5t38 -1.5q20 0 33.5 2.5t21 10.5t10.5 23t3 39v576h150zM514 633h-150v141h150v-141z" />
    <glyph glyph-name="Jcircumflex" unicode="&#x134;" horiz-adv-x="450" 
d="M384 750v-541q0 -53 -10 -93.5t-35.5 -68.5t-68 -42.5t-106.5 -14.5q-30 0 -68.5 6t-67.5 20v130q31 -11 61 -16t54 -5q50 0 68.5 21t18.5 77v527h154zM252 962h109l106 -161h-100l-61 77l-62 -77h-98z" />
    <glyph glyph-name="jcircumflex" unicode="&#x135;" horiz-adv-x="307" 
d="M234 552v-596q0 -53 -10.5 -87.5t-31.5 -54.5t-53.5 -28.5t-76.5 -8.5q-32 0 -65 3t-59 10v118q21 -4 40 -5.5t38 -1.5q20 0 33.5 2.5t21 10.5t10.5 23t3 39v576h150zM100 762h109l106 -161h-100l-61 77l-62 -77h-98z" />
    <glyph glyph-name="uni0136" unicode="&#x136;" horiz-adv-x="720" 
d="M430 380l274 -380h-181l-217 316h-84v-316h-154v750h154v-309h80l194 309h179zM314 -50h134l-66 -187h-109z" />
    <glyph glyph-name="uni0137" unicode="&#x137;" horiz-adv-x="587" 
d="M209 774v-416h58l141 194h166l-187 -253l195 -299h-177l-145 236h-51v-236h-149v744zM254 -50h134l-66 -187h-109z" />
    <glyph glyph-name="kgreenlandic" unicode="&#x138;" horiz-adv-x="587" 
d="M209 552v-210h60l139 210h166l-187 -269l195 -283h-177l-143 220h-53v-220h-149v552h149z" />
    <glyph glyph-name="Lacute" unicode="&#x139;" horiz-adv-x="585" 
d="M222 750v-616h343v-134h-497v750h154zM167 945h160l-115 -142h-135z" />
    <glyph glyph-name="lacute" unicode="&#x13a;" horiz-adv-x="270" 
d="M60 0v744l150 30v-774h-150zM153 945h160l-115 -142h-135z" />
    <glyph glyph-name="uni013B" unicode="&#x13b;" horiz-adv-x="585" 
d="M222 750v-616h343v-134h-497v750h154zM269 -50h134l-66 -187h-109z" />
    <glyph glyph-name="uni013C" unicode="&#x13c;" horiz-adv-x="270" 
d="M60 0v744l150 30v-774h-150zM69 -50h134l-66 -187h-109z" />
    <glyph glyph-name="Lcaron" unicode="&#x13d;" horiz-adv-x="585" 
d="M394 750l-35 -192h-88l12 192h111zM222 750v-616h343v-134h-497v750h154z" />
    <glyph glyph-name="lcaron" unicode="&#x13e;" horiz-adv-x="356" 
d="M386 761l-32 -178h-88l9 178h111zM60 0v744l150 30v-774h-150z" />
    <glyph glyph-name="Ldot" unicode="&#x13f;" horiz-adv-x="585" 
d="M222 750v-616h343v-134h-497v750h154zM405 482h110v-118h-110v118z" />
    <glyph glyph-name="ldot" unicode="&#x140;" horiz-adv-x="397" 
d="M60 0v744l150 30v-774h-150zM277 457h110v-118h-110v118z" />
    <glyph glyph-name="Lslash" unicode="&#x141;" horiz-adv-x="587" 
d="M224 750v-317l224 103v-104l-224 -103v-195h343v-134h-497v259l-65 -30v104l65 30v387h154z" />
    <glyph glyph-name="lslash" unicode="&#x142;" horiz-adv-x="332" 
d="M5 355l86 55v334l150 30v-267l86 56v-114l-86 -56v-393h-150v296l-86 -55v114z" />
    <glyph glyph-name="Nacute" unicode="&#x143;" horiz-adv-x="730" 
d="M662 0h-160l-257 457q-10 17 -19 38t-17 44v-539h-141v750h159l262 -475q20 -37 32 -70v545h141v-750zM392 945h160l-115 -142h-135z" />
    <glyph glyph-name="nacute" unicode="&#x144;" horiz-adv-x="603" 
d="M547 0h-150v359q0 40 -11.5 60t-50.5 20q-29 0 -62.5 -9.5t-62.5 -29.5v-400h-150v552h117l11 -45q42 28 92 43.5t92 15.5q49 0 82.5 -12t54 -34t29.5 -53t9 -68v-399zM336 745h160l-115 -142h-135z" />
    <glyph glyph-name="uni0145" unicode="&#x145;" horiz-adv-x="730" 
d="M662 0h-160l-257 457q-10 17 -19 38t-17 44v-539h-141v750h159l262 -475q20 -37 32 -70v545h141v-750zM318 -50h134l-66 -187h-109z" />
    <glyph glyph-name="uni0146" unicode="&#x146;" horiz-adv-x="603" 
d="M547 0h-150v359q0 40 -11.5 60t-50.5 20q-29 0 -62.5 -9.5t-62.5 -29.5v-400h-150v552h117l11 -45q42 28 92 43.5t92 15.5q49 0 82.5 -12t54 -34t29.5 -53t9 -68v-399zM246 -50h134l-66 -187h-109z" />
    <glyph glyph-name="Ncaron" unicode="&#x147;" horiz-adv-x="730" 
d="M662 0h-160l-257 457q-10 17 -19 38t-17 44v-539h-141v750h159l262 -475q20 -37 32 -70v545h141v-750zM438 792h-108l-107 161h100l61 -77l61 77h100z" />
    <glyph glyph-name="ncaron" unicode="&#x148;" horiz-adv-x="603" 
d="M547 0h-150v359q0 40 -11.5 60t-50.5 20q-29 0 -62.5 -9.5t-62.5 -29.5v-400h-150v552h117l11 -45q42 28 92 43.5t92 15.5q49 0 82.5 -12t54 -34t29.5 -53t9 -68v-399zM375 592h-108l-107 161h100l61 -77l61 77h100z" />
    <glyph glyph-name="napostrophe" unicode="&#x149;" horiz-adv-x="628" 
d="M87 700l-45 -207h-88l22 207h111zM572 0h-150v359q0 40 -11.5 60t-50.5 20q-29 0 -62.5 -9.5t-62.5 -29.5v-400h-150v552h117l11 -45q42 28 92 43.5t92 15.5q49 0 82.5 -12t54 -34t29.5 -53t9 -68v-399z" />
    <glyph glyph-name="Eng" unicode="&#x14a;" horiz-adv-x="730" 
d="M662 750v-794q0 -53 -10.5 -87.5t-31.5 -54.5t-53.5 -28.5t-76.5 -8.5q-32 0 -65 3t-59 10v118q21 -4 40 -5.5t38 -1.5q20 0 34.5 2.5t24 10.5t14 23t4.5 39v1l-276 480q-10 17 -19 38t-17 44v-539h-141v750h159l262 -475q20 -37 32 -70v545h141z" />
    <glyph glyph-name="eng" unicode="&#x14b;" horiz-adv-x="603" 
d="M397 359q0 40 -11.5 60t-50.5 20q-29 0 -62.5 -9.5t-62.5 -29.5v-400h-150v552h117l11 -45q42 28 92 43.5t92 15.5q49 0 82.5 -12t54 -34t29.5 -53t9 -68v-443q0 -53 -10.5 -87.5t-30.5 -54.5t-50.5 -28.5t-70.5 -8.5q-27 0 -56 3t-55 10v118q21 -4 36 -5.5t29 -1.5
q16 0 27.5 2.5t18 10.5t9.5 23t3 39v383z" />
    <glyph glyph-name="Omacron" unicode="&#x14c;" horiz-adv-x="758" 
d="M713 315q0 -163 -86.5 -245.5t-247.5 -82.5t-247.5 82.5t-86.5 245.5v120q0 81 23 142t66.5 102.5t105 62.5t139.5 21t139.5 -21t105 -62.5t66.5 -102.5t23 -142v-120zM558 426q0 110 -45 158.5t-134 48.5t-134 -48.5t-45 -158.5v-102q0 -111 45 -159t134 -48t134 48
t45 159v102zM229 927h300v-94h-300v94z" />
    <glyph glyph-name="omacron" unicode="&#x14d;" horiz-adv-x="609" 
d="M564 239q0 -124 -66 -187.5t-194 -63.5q-127 0 -193 63.5t-66 187.5v76q0 121 66 186t193 65q128 0 194 -65t66 -186v-76zM414 308q0 79 -28 111t-81 32q-54 0 -82 -32t-28 -111v-62q0 -79 28 -110.5t82 -31.5q53 0 81 31.5t28 110.5v62zM155 727h300v-94h-300v94z" />
    <glyph glyph-name="Obreve" unicode="&#x14e;" horiz-adv-x="758" 
d="M713 315q0 -163 -86.5 -245.5t-247.5 -82.5t-247.5 82.5t-86.5 245.5v120q0 81 23 142t66.5 102.5t105 62.5t139.5 21t139.5 -21t105 -62.5t66.5 -102.5t23 -142v-120zM558 426q0 110 -45 158.5t-134 48.5t-134 -48.5t-45 -158.5v-102q0 -111 45 -159t134 -48t134 48
t45 159v102zM379 804q-34 0 -60.5 11.5t-45.5 31t-29.5 46.5t-11.5 57h85q4 -30 18.5 -45.5t43.5 -15.5t43.5 15.5t18.5 45.5h85q-1 -30 -11.5 -57t-29 -46.5t-45.5 -31t-61 -11.5z" />
    <glyph glyph-name="obreve" unicode="&#x14f;" horiz-adv-x="609" 
d="M564 239q0 -124 -66 -187.5t-194 -63.5q-127 0 -193 63.5t-66 187.5v76q0 121 66 186t193 65q128 0 194 -65t66 -186v-76zM414 308q0 79 -28 111t-81 32q-54 0 -82 -32t-28 -111v-62q0 -79 28 -110.5t82 -31.5q53 0 81 31.5t28 110.5v62zM305 604q-34 0 -60.5 11.5
t-45.5 31t-29.5 46.5t-11.5 57h85q4 -30 18.5 -45.5t43.5 -15.5t43.5 15.5t18.5 45.5h85q-1 -30 -11.5 -57t-29 -46.5t-45.5 -31t-61 -11.5z" />
    <glyph glyph-name="Ohungarumlaut" unicode="&#x150;" horiz-adv-x="758" 
d="M713 315q0 -163 -86.5 -245.5t-247.5 -82.5t-247.5 82.5t-86.5 245.5v120q0 81 23 142t66.5 102.5t105 62.5t139.5 21t139.5 -21t105 -62.5t66.5 -102.5t23 -142v-120zM558 426q0 110 -45 158.5t-134 48.5t-134 -48.5t-45 -158.5v-102q0 -111 45 -159t134 -48t134 48
t45 159v102zM463 945h115l-71 -142h-93zM292 945h116l-71 -142h-95z" />
    <glyph glyph-name="ohungarumlaut" unicode="&#x151;" horiz-adv-x="609" 
d="M564 239q0 -124 -66 -187.5t-194 -63.5q-127 0 -193 63.5t-66 187.5v76q0 121 66 186t193 65q128 0 194 -65t66 -186v-76zM414 308q0 79 -28 111t-81 32q-54 0 -82 -32t-28 -111v-62q0 -79 28 -110.5t82 -31.5q53 0 81 31.5t28 110.5v62zM393 745h115l-71 -142h-93z
M222 745h116l-71 -142h-95z" />
    <glyph glyph-name="OE" unicode="&#x152;" horiz-adv-x="1039" 
d="M983 750v-125h-339v-179h307v-124h-307v-197h354v-125h-620q-160 0 -246.5 76.5t-86.5 238.5v120q0 81 23 140t66 98t104.5 58t139.5 19h605zM200 324q0 -56 14 -94t40 -61t62 -33.5t81 -10.5h93v500h-93q-45 0 -81 -10.5t-62 -34t-40 -61.5t-14 -93v-102z" />
    <glyph glyph-name="oe" unicode="&#x153;" horiz-adv-x="951" 
d="M921 225h-357v-11q0 -64 34 -90t114 -26q33 0 78.5 5t84.5 19v-105q-18 -7 -40 -12.5t-46 -9t-48 -5t-45 -1.5q-69 0 -122 18t-83 50q-29 -31 -76.5 -50t-110.5 -19q-127 0 -193 63.5t-66 187.5v76q0 121 66 186t193 65q63 0 111 -18.5t77 -53.5q30 36 77.5 54t100.5 18
q57 0 103.5 -13.5t79 -45t50.5 -83.5t18 -129v-70zM414 308q0 79 -28 111t-81 32q-54 0 -82 -32t-28 -111v-62q0 -79 28 -110.5t82 -31.5q53 0 81 31.5t28 110.5v62zM779 320v19q0 52 -24.5 84.5t-82.5 32.5q-55 0 -81.5 -32.5t-26.5 -85.5v-18h215z" />
    <glyph glyph-name="Racute" unicode="&#x154;" horiz-adv-x="685" 
d="M68 750h300q61 0 109.5 -8t82 -30t51.5 -61t18 -101v-61q0 -75 -26.5 -116t-82.5 -60l147 -313h-163l-135 293h-147v-293h-154v750zM222 635v-230h109q41 0 68.5 4t44.5 14.5t24 29.5t7 48v46q0 48 -29 68t-98 20h-126zM349 945h160l-115 -142h-135z" />
    <glyph glyph-name="racute" unicode="&#x155;" horiz-adv-x="400" 
d="M386 429q-52 -3 -99.5 -18.5t-77.5 -38.5v-372h-149v552h116l12 -71q13 13 33.5 27.5t46 26.5t55.5 20.5t63 10.5v-137zM229 745h160l-115 -142h-135z" />
    <glyph glyph-name="uni0156" unicode="&#x156;" horiz-adv-x="685" 
d="M68 750h300q61 0 109.5 -8t82 -30t51.5 -61t18 -101v-61q0 -75 -26.5 -116t-82.5 -60l147 -313h-163l-135 293h-147v-293h-154v750zM222 635v-230h109q41 0 68.5 4t44.5 14.5t24 29.5t7 48v46q0 48 -29 68t-98 20h-126zM309 -50h134l-66 -187h-109z" />
    <glyph glyph-name="uni0157" unicode="&#x157;" horiz-adv-x="400" 
d="M386 429q-52 -3 -99.5 -18.5t-77.5 -38.5v-372h-149v552h116l12 -71q13 13 33.5 27.5t46 26.5t55.5 20.5t63 10.5v-137zM71 -50h134l-66 -187h-109z" />
    <glyph glyph-name="Rcaron" unicode="&#x158;" horiz-adv-x="685" 
d="M68 750h300q61 0 109.5 -8t82 -30t51.5 -61t18 -101v-61q0 -75 -26.5 -116t-82.5 -60l147 -313h-163l-135 293h-147v-293h-154v750zM222 635v-230h109q41 0 68.5 4t44.5 14.5t24 29.5t7 48v46q0 48 -29 68t-98 20h-126zM404 792h-108l-107 161h100l61 -77l61 77h100z" />
    <glyph glyph-name="rcaron" unicode="&#x159;" horiz-adv-x="400" 
d="M386 429q-52 -3 -99.5 -18.5t-77.5 -38.5v-372h-149v552h116l12 -71q13 13 33.5 27.5t46 26.5t55.5 20.5t63 10.5v-137zM279 592h-108l-107 161h100l61 -77l61 77h100z" />
    <glyph glyph-name="Sacute" unicode="&#x15a;" horiz-adv-x="619" 
d="M583 215q0 -51 -14.5 -92.5t-47.5 -71t-87 -45.5t-133 -16q-27 0 -59 2t-65.5 6t-67 11t-63.5 17v126q74 -23 133.5 -30t101.5 -7q80 0 113 22.5t33 68.5q0 20 -4.5 34.5t-18 25.5t-38.5 20.5t-65 20.5l-80 21q-83 22 -128 72t-45 143q0 108 63 162.5t209 54.5
q31 0 62 -1.5t59.5 -5t52.5 -8t42 -10.5v-117q-40 11 -90.5 15.5t-92.5 4.5q-46 0 -75.5 -5.5t-46 -16.5t-23 -27.5t-6.5 -39.5q0 -22 6.5 -36.5t20.5 -24t35 -17t51 -14.5l81 -21q54 -14 90 -33t57.5 -45t30.5 -61t9 -82zM324 945h160l-115 -142h-135z" />
    <glyph glyph-name="sacute" unicode="&#x15b;" horiz-adv-x="494" 
d="M464 162q0 -37 -10.5 -68.5t-35.5 -54.5t-66.5 -36t-102.5 -13q-21 0 -47 1.5t-53.5 5t-55.5 9.5t-53 15v111q66 -20 113 -25t80 -5q55 0 75 12.5t20 40.5q0 16 -2.5 25.5t-11 15.5t-23.5 10.5t-40 10.5l-54 13q-44 10 -73.5 26t-47.5 37t-25.5 48t-7.5 60q0 41 12 72
t38.5 51.5t68.5 31t101 10.5q51 0 93 -6t68 -14v-107q-30 8 -69.5 13.5t-73.5 5.5q-32 0 -52 -2.5t-31.5 -8.5t-16 -15.5t-4.5 -23.5t3 -22.5t12 -15t25 -11.5t41 -11l55 -14q47 -12 76.5 -26.5t46 -34.5t22.5 -47t6 -64zM250 745h160l-115 -142h-135z" />
    <glyph glyph-name="Scircumflex" unicode="&#x15c;" horiz-adv-x="619" 
d="M583 215q0 -51 -14.5 -92.5t-47.5 -71t-87 -45.5t-133 -16q-27 0 -59 2t-65.5 6t-67 11t-63.5 17v126q74 -23 133.5 -30t101.5 -7q80 0 113 22.5t33 68.5q0 20 -4.5 34.5t-18 25.5t-38.5 20.5t-65 20.5l-80 21q-83 22 -128 72t-45 143q0 108 63 162.5t209 54.5
q31 0 62 -1.5t59.5 -5t52.5 -8t42 -10.5v-117q-40 11 -90.5 15.5t-92.5 4.5q-46 0 -75.5 -5.5t-46 -16.5t-23 -27.5t-6.5 -39.5q0 -22 6.5 -36.5t20.5 -24t35 -17t51 -14.5l81 -21q54 -14 90 -33t57.5 -45t30.5 -61t9 -82zM266 962h109l106 -161h-100l-61 77l-62 -77h-98z
" />
    <glyph glyph-name="scircumflex" unicode="&#x15d;" horiz-adv-x="494" 
d="M464 162q0 -37 -10.5 -68.5t-35.5 -54.5t-66.5 -36t-102.5 -13q-21 0 -47 1.5t-53.5 5t-55.5 9.5t-53 15v111q66 -20 113 -25t80 -5q55 0 75 12.5t20 40.5q0 16 -2.5 25.5t-11 15.5t-23.5 10.5t-40 10.5l-54 13q-44 10 -73.5 26t-47.5 37t-25.5 48t-7.5 60q0 41 12 72
t38.5 51.5t68.5 31t101 10.5q51 0 93 -6t68 -14v-107q-30 8 -69.5 13.5t-73.5 5.5q-32 0 -52 -2.5t-31.5 -8.5t-16 -15.5t-4.5 -23.5t3 -22.5t12 -15t25 -11.5t41 -11l55 -14q47 -12 76.5 -26.5t46 -34.5t22.5 -47t6 -64zM193 762h109l106 -161h-100l-61 77l-62 -77h-98z
" />
    <glyph glyph-name="Scedilla" unicode="&#x15e;" horiz-adv-x="619" 
d="M289 -269q-20 0 -44 2t-46 6v78q15 -2 33 -3.5t41 -1.5q37 0 52 11.5t15 25.5v8q0 18 -16 27.5t-62 9.5h-22v98q-48 3 -98.5 11t-95.5 23v126q74 -23 133.5 -30t101.5 -7q80 0 113 22.5t33 68.5q0 20 -4.5 34.5t-18 25.5t-38.5 20.5t-65 20.5l-80 21q-83 22 -128 72
t-45 143q0 108 63 162.5t209 54.5q31 0 62 -1.5t59.5 -5t52.5 -8t42 -10.5v-117q-40 11 -90.5 15.5t-92.5 4.5q-46 0 -75.5 -5.5t-46 -16.5t-23 -27.5t-6.5 -39.5q0 -22 6.5 -36.5t20.5 -24t35 -17t51 -14.5l81 -21q54 -14 90 -33t57.5 -45t30.5 -61t9 -82
q0 -48 -12.5 -87.5t-41.5 -68.5t-75.5 -46.5t-113.5 -21.5v-41q33 -3 54.5 -11t34 -20.5t17.5 -29.5t5 -37v-8q0 -62 -44.5 -87.5t-117.5 -25.5z" />
    <glyph glyph-name="scedilla" unicode="&#x15f;" horiz-adv-x="494" 
d="M229 -269q-20 0 -44 2t-46 6v78q15 -2 33 -3.5t41 -1.5q37 0 52 11.5t15 25.5v8q0 18 -16 27.5t-62 9.5h-22v99q-35 3 -71.5 9.5t-68.5 18.5v111q66 -20 113 -25t80 -5q55 0 75 12.5t20 40.5q0 16 -2.5 25.5t-11 15.5t-23.5 10.5t-40 10.5l-54 13q-44 10 -73.5 26
t-47.5 37t-25.5 48t-7.5 60q0 41 12 72t38.5 51.5t68.5 31t101 10.5q51 0 93 -6t68 -14v-107q-30 8 -69.5 13.5t-73.5 5.5q-32 0 -52 -2.5t-31.5 -8.5t-16 -15.5t-4.5 -23.5t3 -22.5t12 -15t25 -11.5t41 -11l55 -14q47 -12 76.5 -26.5t46 -34.5t22.5 -47t6 -64
q0 -35 -9 -64.5t-30.5 -52t-57 -37t-87.5 -17.5v-41q33 -3 54.5 -11t34 -20.5t17.5 -29.5t5 -37v-8q0 -62 -44.5 -87.5t-117.5 -25.5z" />
    <glyph glyph-name="Scaron" unicode="&#x160;" horiz-adv-x="619" 
d="M583 215q0 -51 -14.5 -92.5t-47.5 -71t-87 -45.5t-133 -16q-27 0 -59 2t-65.5 6t-67 11t-63.5 17v126q74 -23 133.5 -30t101.5 -7q80 0 113 22.5t33 68.5q0 20 -4.5 34.5t-18 25.5t-38.5 20.5t-65 20.5l-80 21q-83 22 -128 72t-45 143q0 108 63 162.5t209 54.5
q31 0 62 -1.5t59.5 -5t52.5 -8t42 -10.5v-117q-40 11 -90.5 15.5t-92.5 4.5q-46 0 -75.5 -5.5t-46 -16.5t-23 -27.5t-6.5 -39.5q0 -22 6.5 -36.5t20.5 -24t35 -17t51 -14.5l81 -21q54 -14 90 -33t57.5 -45t30.5 -61t9 -82zM365 792h-108l-107 161h100l61 -77l61 77h100z" />
    <glyph glyph-name="scaron" unicode="&#x161;" horiz-adv-x="494" 
d="M464 162q0 -37 -10.5 -68.5t-35.5 -54.5t-66.5 -36t-102.5 -13q-21 0 -47 1.5t-53.5 5t-55.5 9.5t-53 15v111q66 -20 113 -25t80 -5q55 0 75 12.5t20 40.5q0 16 -2.5 25.5t-11 15.5t-23.5 10.5t-40 10.5l-54 13q-44 10 -73.5 26t-47.5 37t-25.5 48t-7.5 60q0 41 12 72
t38.5 51.5t68.5 31t101 10.5q51 0 93 -6t68 -14v-107q-30 8 -69.5 13.5t-73.5 5.5q-32 0 -52 -2.5t-31.5 -8.5t-16 -15.5t-4.5 -23.5t3 -22.5t12 -15t25 -11.5t41 -11l55 -14q47 -12 76.5 -26.5t46 -34.5t22.5 -47t6 -64zM304 592h-108l-107 161h100l61 -77l61 77h100z" />
    <glyph glyph-name="uni0162" unicode="&#x162;" horiz-adv-x="642" 
d="M320 -269q-20 0 -44 2t-46 6v78q15 -2 33 -3.5t41 -1.5q37 0 52 11.5t15 25.5v8q0 18 -16 27.5t-62 9.5h-22v106h-27v616h-224v134h602v-134h-224v-616h-27v-50q33 -3 54.5 -11t34 -20.5t17.5 -29.5t5 -37v-8q0 -62 -44.5 -87.5t-117.5 -25.5z" />
    <glyph glyph-name="uni0163" unicode="&#x163;" horiz-adv-x="436" 
d="M214 -269q-20 0 -44 2t-46 6v78q15 -2 33 -3.5t41 -1.5q37 0 52 11.5t15 25.5v8q0 18 -16 27.5t-62 9.5h-22v117q-29 17 -42.5 48t-13.5 76v307h-89v110h89v115l150 33v-148h147v-110h-147v-266q0 -39 11 -54.5t44 -15.5q24 0 48 4t44 14v-104q-27 -16 -65 -23t-76 -7
v-40q33 -3 54.5 -11t34 -20.5t17.5 -29.5t5 -37v-8q0 -62 -44.5 -87.5t-117.5 -25.5z" />
    <glyph glyph-name="Tcaron" unicode="&#x164;" horiz-adv-x="642" 
d="M20 616v134h602v-134h-224v-616h-154v616h-224zM375 792h-108l-107 161h100l61 -77l61 77h100z" />
    <glyph glyph-name="tcaron" unicode="&#x165;" horiz-adv-x="436" 
d="M415 772l-32 -178h-88l9 178h111zM406 442h-147v-266q0 -39 11 -54.5t44 -15.5q24 0 48 4t44 14v-104q-27 -16 -65.5 -23t-76.5 -7q-82 0 -118.5 35.5t-36.5 109.5v307h-89v110h89v115l150 33v-148h147v-110z" />
    <glyph glyph-name="Tbar" unicode="&#x166;" horiz-adv-x="642" 
d="M20 616v134h602v-134h-224v-182h176v-103h-176v-331h-154v331h-176v103h176v182h-224z" />
    <glyph glyph-name="tbar" unicode="&#x167;" horiz-adv-x="436" 
d="M406 442h-147v-95h147v-89h-147v-82q0 -39 11 -54.5t44 -15.5q24 0 48 4t44 14v-104q-27 -16 -65.5 -23t-76.5 -7q-82 0 -118.5 35.5t-36.5 109.5v123h-89v89h89v95h-89v110h89v115l150 33v-148h147v-110z" />
    <glyph glyph-name="Utilde" unicode="&#x168;" horiz-adv-x="752" 
d="M217 750v-440q0 -53 9 -88t28.5 -56t50 -29.5t72.5 -8.5q43 0 73.5 8.5t49.5 29.5t27.5 56t8.5 88v440h154v-473q0 -152 -78 -221t-235 -69q-161 0 -238 68.5t-77 221.5v473h155zM437 803q-25 0 -41 7.5t-28 17t-22 17t-23 7.5q-16 0 -24 -14.5t-11 -34.5h-85q3 24 10 49
t20 46t32.5 34t48.5 13q26 0 43 -7.5t29.5 -17t22.5 -17t22 -7.5q19 0 25 15.5t8 35.5h85q-2 -23 -8 -48t-19 -46.5t-33.5 -35.5t-51.5 -14z" />
    <glyph glyph-name="utilde" unicode="&#x169;" 
d="M56 552h150v-357q0 -40 11 -60.5t49 -20.5q29 0 62 10t62 30v398h150v-552h-117l-12 46q-41 -29 -91 -43t-92 -14q-49 0 -82 11.5t-53 33.5t-28.5 52.5t-8.5 68.5v397zM361 603q-25 0 -41 7.5t-28 17t-22 17t-23 7.5q-16 0 -24 -14.5t-11 -34.5h-85q3 24 10 49t20 46
t32.5 34t48.5 13q26 0 43 -7.5t29.5 -17t22.5 -17t22 -7.5q19 0 25 15.5t8 35.5h85q-2 -23 -8 -48t-19 -46.5t-33.5 -35.5t-51.5 -14z" />
    <glyph glyph-name="Umacron" unicode="&#x16a;" horiz-adv-x="752" 
d="M217 750v-440q0 -53 9 -88t28.5 -56t50 -29.5t72.5 -8.5q43 0 73.5 8.5t49.5 29.5t27.5 56t8.5 88v440h154v-473q0 -152 -78 -221t-235 -69q-161 0 -238 68.5t-77 221.5v473h155zM226 927h300v-94h-300v94z" />
    <glyph glyph-name="umacron" unicode="&#x16b;" 
d="M56 552h150v-357q0 -40 11 -60.5t49 -20.5q29 0 62 10t62 30v398h150v-552h-117l-12 46q-41 -29 -91 -43t-92 -14q-49 0 -82 11.5t-53 33.5t-28.5 52.5t-8.5 68.5v397zM150 727h300v-94h-300v94z" />
    <glyph glyph-name="Ubreve" unicode="&#x16c;" horiz-adv-x="752" 
d="M217 750v-440q0 -53 9 -88t28.5 -56t50 -29.5t72.5 -8.5q43 0 73.5 8.5t49.5 29.5t27.5 56t8.5 88v440h154v-473q0 -152 -78 -221t-235 -69q-161 0 -238 68.5t-77 221.5v473h155zM376 804q-34 0 -60.5 11.5t-45.5 31t-29.5 46.5t-11.5 57h85q4 -30 18.5 -45.5t43.5 -15.5
t43.5 15.5t18.5 45.5h85q-1 -30 -11.5 -57t-29 -46.5t-45.5 -31t-61 -11.5z" />
    <glyph glyph-name="ubreve" unicode="&#x16d;" 
d="M56 552h150v-357q0 -40 11 -60.5t49 -20.5q29 0 62 10t62 30v398h150v-552h-117l-12 46q-41 -29 -91 -43t-92 -14q-49 0 -82 11.5t-53 33.5t-28.5 52.5t-8.5 68.5v397zM301 604q-34 0 -60.5 11.5t-45.5 31t-29.5 46.5t-11.5 57h85q4 -30 18.5 -45.5t43.5 -15.5t43.5 15.5
t18.5 45.5h85q-1 -30 -11.5 -57t-29 -46.5t-45.5 -31t-61 -11.5z" />
    <glyph glyph-name="Uring" unicode="&#x16e;" horiz-adv-x="752" 
d="M217 750v-440q0 -53 9 -88t28.5 -56t50 -29.5t72.5 -8.5q43 0 73.5 8.5t49.5 29.5t27.5 56t8.5 88v440h154v-473q0 -152 -78 -221t-235 -69q-161 0 -238 68.5t-77 221.5v473h155zM375 848q21 0 33.5 12t12.5 34q0 21 -12.5 33.5t-33.5 12.5q-20 0 -32.5 -12.5
t-12.5 -33.5q0 -22 12.5 -34t32.5 -12zM375 785q-24 0 -44.5 9t-36 24t-24 34.5t-8.5 41.5t8.5 41.5t24 34.5t36 23.5t44.5 8.5t45 -8.5t36.5 -23.5t24 -34.5t8.5 -41.5t-8.5 -41.5t-24 -34.5t-36.5 -24t-45 -9z" />
    <glyph glyph-name="uring" unicode="&#x16f;" 
d="M56 552h150v-357q0 -40 11 -60.5t49 -20.5q29 0 62 10t62 30v398h150v-552h-117l-12 46q-41 -29 -91 -43t-92 -14q-49 0 -82 11.5t-53 33.5t-28.5 52.5t-8.5 68.5v397zM299 648q21 0 33.5 12t12.5 34q0 21 -12.5 33.5t-33.5 12.5q-20 0 -32.5 -12.5t-12.5 -33.5
q0 -22 12.5 -34t32.5 -12zM299 585q-24 0 -44.5 9t-36 24t-24 34.5t-8.5 41.5t8.5 41.5t24 34.5t36 23.5t44.5 8.5t45 -8.5t36.5 -23.5t24 -34.5t8.5 -41.5t-8.5 -41.5t-24 -34.5t-36.5 -24t-45 -9z" />
    <glyph glyph-name="Uhungarumlaut" unicode="&#x170;" horiz-adv-x="752" 
d="M217 750v-440q0 -53 9 -88t28.5 -56t50 -29.5t72.5 -8.5q43 0 73.5 8.5t49.5 29.5t27.5 56t8.5 88v440h154v-473q0 -152 -78 -221t-235 -69q-161 0 -238 68.5t-77 221.5v473h155zM460 945h115l-71 -142h-93zM289 945h116l-71 -142h-95z" />
    <glyph glyph-name="uhungarumlaut" unicode="&#x171;" 
d="M56 552h150v-357q0 -40 11 -60.5t49 -20.5q29 0 62 10t62 30v398h150v-552h-117l-12 46q-41 -29 -91 -43t-92 -14q-49 0 -82 11.5t-53 33.5t-28.5 52.5t-8.5 68.5v397zM377 745h115l-71 -142h-93zM206 745h116l-71 -142h-95z" />
    <glyph glyph-name="Uogonek" unicode="&#x172;" horiz-adv-x="752" 
d="M437 -228q-73 0 -108 30t-35 72v9q0 32 22 59.5t52 44.5q-157 2 -231.5 70.5t-74.5 219.5v473h155v-440q0 -53 9 -88t28.5 -56t50 -29.5t72.5 -8.5q43 0 73.5 8.5t49.5 29.5t27.5 56t8.5 88v440h154v-473q0 -120 -47 -187t-144 -90q-39 -20 -63.5 -49t-24.5 -52v-8
q0 -20 14.5 -26.5t37.5 -6.5q15 0 31.5 2t27.5 5v-82q-13 -4 -35 -7.5t-50 -3.5z" />
    <glyph glyph-name="uogonek" unicode="&#x173;" 
d="M477 -228q-73 0 -108 30t-35 72v9q0 18 7.5 35t20.5 32t29.5 26.5t33.5 19.5l-14 50q-41 -29 -91 -43t-92 -14q-49 0 -82 11.5t-53 33.5t-28.5 52.5t-8.5 68.5v397h150v-357q0 -40 11 -60.5t49 -20.5q29 0 62 10t62 30v398h150v-552q-39 -20 -64 -49t-25 -52v-8
q0 -20 14.5 -26.5t37.5 -6.5q15 0 31.5 2t27.5 5v-82q-13 -4 -35 -7.5t-50 -3.5z" />
    <glyph glyph-name="Wcircumflex" unicode="&#x174;" horiz-adv-x="1005" 
d="M529 416q-8 31 -15 77.5t-12 92.5q-7 -46 -15.5 -92.5t-15.5 -77.5l-96 -416h-180l-184 750h158l90 -425q8 -37 15.5 -78t13.5 -87q8 46 17 87t17 78l96 425h164l104 -425q9 -36 14.5 -76t11.5 -83q8 43 15 83t15 76l97 425h154l-195 -750h-171zM448 962h109l106 -161
h-100l-61 77l-62 -77h-98z" />
    <glyph glyph-name="wcircumflex" unicode="&#x175;" horiz-adv-x="855" 
d="M156 552l83 -308q6 -21 9.5 -44t7.5 -50h2q3 28 7 50.5t10 43.5l84 308h142l84 -308q10 -38 18 -94h1q8 56 18 94l87 308h130l-160 -552h-150l-83 299q-7 24 -10 53.5t-6 59.5h-1q-3 -30 -7 -59.5t-10 -53.5l-83 -299h-149l-164 552h140zM376 762h109l106 -161h-100
l-61 77l-62 -77h-98z" />
    <glyph glyph-name="Ycircumflex" unicode="&#x176;" horiz-adv-x="680" 
d="M419 296v-296h-154v294l-251 456h166l102 -205q17 -35 32 -68.5t29 -71.5q14 39 28 73.5t30 66.5l102 205h163zM289 962h109l106 -161h-100l-61 77l-62 -77h-98z" />
    <glyph glyph-name="ycircumflex" unicode="&#x177;" horiz-adv-x="580" 
d="M571 552l-276 -765h-157l76 214l-206 551h153l103 -310q8 -23 15.5 -51.5t14.5 -66.5q3 13 7.5 30t9 33.5t8.5 31t7 22.5l98 311h147zM240 762h109l106 -161h-100l-61 77l-62 -77h-98z" />
    <glyph glyph-name="Ydieresis" unicode="&#x178;" horiz-adv-x="680" 
d="M419 296v-296h-154v294l-251 456h166l102 -205q17 -35 32 -68.5t29 -71.5q14 39 28 73.5t30 66.5l102 205h163zM194 930h108v-118h-108v118zM385 930h108v-118h-108v118z" />
    <glyph glyph-name="Zacute" unicode="&#x179;" horiz-adv-x="630" 
d="M253 198q-13 -17 -27.5 -34.5t-29.5 -34.5h408v-129h-580v120l333 433q12 16 27 34t30 35h-375v128h553v-119zM314 945h160l-115 -142h-135z" />
    <glyph glyph-name="zacute" unicode="&#x17a;" horiz-adv-x="510" 
d="M472 457l-204 -278q-13 -17 -28 -34t-32 -37h278v-108h-457v95l204 277q12 16 27.5 35.5t30.5 36.5h-251v108h432v-95zM260 745h160l-115 -142h-135z" />
    <glyph glyph-name="Zdotaccent" unicode="&#x17b;" horiz-adv-x="630" 
d="M253 198q-13 -17 -27.5 -34.5t-29.5 -34.5h408v-129h-580v120l333 433q12 16 27 34t30 35h-375v128h553v-119zM260 930h110v-118h-110v118z" />
    <glyph glyph-name="zdotaccent" unicode="&#x17c;" horiz-adv-x="510" 
d="M472 457l-204 -278q-13 -17 -28 -34t-32 -37h278v-108h-457v95l204 277q12 16 27.5 35.5t30.5 36.5h-251v108h432v-95zM200 730h110v-118h-110v118z" />
    <glyph glyph-name="Zcaron" unicode="&#x17d;" horiz-adv-x="630" 
d="M253 198q-13 -17 -27.5 -34.5t-29.5 -34.5h408v-129h-580v120l333 433q12 16 27 34t30 35h-375v128h553v-119zM369 792h-108l-107 161h100l61 -77l61 77h100z" />
    <glyph glyph-name="zcaron" unicode="&#x17e;" horiz-adv-x="510" 
d="M472 457l-204 -278q-13 -17 -28 -34t-32 -37h278v-108h-457v95l204 277q12 16 27.5 35.5t30.5 36.5h-251v108h432v-95zM309 592h-108l-107 161h100l61 -77l61 77h100z" />
    <glyph glyph-name="longs" unicode="&#x17f;" horiz-adv-x="386" 
d="M223 0h-150v629q0 71 43 109t131 38q35 0 69.5 -4.5t54.5 -9.5v-100q-17 3 -35.5 5t-37.5 2q-48 0 -61.5 -16t-13.5 -55v-598z" />
    <glyph glyph-name="uni0180" unicode="&#x180;" horiz-adv-x="623" 
d="M-14 682h74v62l150 30v-92h143v-101h-143v-77q35 20 80.5 34t94.5 14q95 0 141.5 -50t46.5 -132v-161q0 -61 -16.5 -103t-45 -67.5t-68 -37t-84.5 -11.5q-19 0 -41 3t-44.5 9t-44 15.5t-39.5 23.5l-9 -41h-121v581h-74v101zM210 141q29 -19 59.5 -25t50.5 -6
q61 0 82 27.5t21 86.5v107q0 52 -18.5 76t-66.5 24q-33 0 -67.5 -12t-60.5 -29v-249z" />
    <glyph glyph-name="uni0181" unicode="&#x181;" horiz-adv-x="780" 
d="M172 640h-21q-30 0 -38.5 -12t-8.5 -36q0 -11 1.5 -27t5.5 -29h-114q-6 20 -8.5 40t-2.5 40q0 74 42 104t123 30h315q55 0 100.5 -6.5t78 -25t50 -51t17.5 -83.5v-50q0 -22 -4.5 -43t-15 -39.5t-29 -33t-46.5 -23.5q65 -14 93 -50t28 -89v-78q0 -54 -16.5 -88.5
t-50 -54.5t-85.5 -27.5t-123 -7.5h-291v640zM326 333v-217h121q40 0 65.5 4t40.5 14.5t20.5 27.5t5.5 44v35q0 25 -6 43t-20 28.5t-37 15.5t-58 5h-132zM326 634v-193h126q23 0 41.5 3t32 12.5t21 27t7.5 45.5v30q0 46 -24.5 60.5t-86.5 14.5h-117z" />
    <glyph glyph-name="uni0182" unicode="&#x182;" horiz-adv-x="661" 
d="M222 330v-216h116q38 0 63.5 4.5t41 14.5t22 27t6.5 43v25q0 31 -6 51t-21 31t-41 15.5t-66 4.5h-115zM625 189q0 -58 -17.5 -95t-51.5 -58t-84.5 -28.5t-115.5 -7.5h-288v750h497v-116h-343v-193h125q72 0 124.5 -9t86.5 -30t50.5 -55.5t16.5 -85.5v-72z" />
    <glyph glyph-name="uni0183" unicode="&#x183;" horiz-adv-x="628" 
d="M385 508q95 0 141.5 -50t46.5 -132v-117q0 -61 -16.5 -103t-45 -67.5t-68 -37t-84.5 -11.5q-19 0 -41 3t-44.5 9t-44 15.5t-39.5 23.5l-9 -41h-121v760h472v-117h-322v-183q35 20 80.5 34t94.5 14zM210 141q29 -19 59.5 -25t50.5 -6q61 0 82 27.5t21 86.5v63
q0 52 -18.5 76t-66.5 24q-33 0 -67.5 -12t-60.5 -29v-205z" />
    <glyph glyph-name="uni0184" unicode="&#x184;" horiz-adv-x="681" 
d="M65 750h149v-239h172q62 0 107 -9t74 -30.5t42.5 -58.5t13.5 -92v-117q0 -60 -15 -99.5t-44.5 -62.5t-72.5 -32.5t-99 -9.5h-94q-57 0 -100.5 9t-73 30.5t-44.5 59t-15 94.5v557zM383 118q28 0 45.5 4.5t27.5 14.5t14 26t4 39v86q0 34 -3 54.5t-15 31.5t-37 14t-69 3
h-136v-191q0 -46 20.5 -64t73.5 -18h75z" />
    <glyph glyph-name="uni0185" unicode="&#x185;" horiz-adv-x="623" 
d="M385 566q95 0 141.5 -50t46.5 -132v-175q0 -61 -17 -103t-48 -67.5t-74 -37t-95 -11.5h-49q-49 0 -91 7.5t-73 27t-48.5 53.5t-17.5 86v580l150 30v-256q35 20 80.5 34t94.5 14zM210 189q0 -25 7 -40.5t19 -24t28.5 -11.5t35.5 -3h26q30 0 49 7t29.5 21t14.5 35.5t4 50.5
v121q0 52 -18.5 76t-66.5 24q-33 0 -67.5 -12t-60.5 -29v-215z" />
    <glyph glyph-name="uni0186" unicode="&#x186;" horiz-adv-x="630" 
d="M47 735q18 7 41 11.5t49 7.5t54 4.5t55 1.5q85 0 148 -16.5t105 -55t63 -102t21 -157.5v-118q0 -89 -18.5 -150t-59 -99t-104.5 -55t-156 -17q-51 0 -107.5 6.5t-101.5 24.5v127q48 -14 99 -19t94 -5q57 0 95 10t61 33t32.5 59t9.5 89v127q0 50 -10 85t-33.5 57t-61.5 32
t-94 10q-49 0 -97.5 -4.5t-83.5 -13.5v127z" />
    <glyph glyph-name="uni0187" unicode="&#x187;" horiz-adv-x="632" 
d="M583 608q-35 9 -83.5 13.5t-97.5 4.5q-56 0 -94 -10t-61.5 -32t-33.5 -57t-10 -85v-127q0 -53 9.5 -89t32.5 -59t61 -33t95 -10q43 0 94 5t99 19v-127q-45 -18 -101.5 -24.5t-107.5 -6.5q-92 0 -156 17t-104.5 55t-59 99t-18.5 150v118q0 94 21 157.5t63 102t105 55
t148 16.5q17 0 34 -0.5t34 -1.5q5 78 45 114.5t117 36.5q19 0 38.5 -2t38.5 -8v-107q-24 6 -49 6q-29 0 -44 -14t-15 -46v-130z" />
    <glyph glyph-name="uni0188" unicode="&#x188;" horiz-adv-x="533" 
d="M477 433q-24 8 -61 13t-78 5q-43 0 -71 -9t-44.5 -27t-23 -44.5t-6.5 -60.5v-68q0 -36 6.5 -62t23 -42.5t44.5 -24.5t72 -8q33 0 70.5 5t77.5 19v-114q-17 -7 -39 -12t-45 -8.5t-45 -5t-40 -1.5q-140 0 -206.5 59.5t-66.5 191.5v66q0 139 69.5 200t202.5 61h20.5t21.5 -1
q5 69 38 103t107 34q20 0 39.5 -2t39.5 -7v-94q-13 2 -25 3.5t-25 1.5q-28 0 -42 -12.5t-14 -42.5v-116v0z" />
    <glyph glyph-name="uni0189" unicode="&#x189;" horiz-adv-x="746" 
d="M5 438h75v312h297q86 0 147 -16.5t99.5 -53t56.5 -94.5t18 -142v-156q0 -80 -18.5 -135t-57.5 -89t-100.5 -49t-148.5 -15h-293v331h-75v107zM234 621v-183h189v-107h-189v-202h128q57 0 92.5 11.5t55.5 33.5t27 55t7 76v139q0 41 -7 74t-26.5 56t-54.5 35t-90 12h-132z
" />
    <glyph glyph-name="uni018A" unicode="&#x18a;" horiz-adv-x="850" 
d="M184 0v640h-33q-30 0 -38.5 -12t-8.5 -36q0 -11 1.5 -27t5.5 -29h-114q-6 20 -8.5 40t-2.5 40q0 74 42 104t123 30h330q86 0 147 -16.5t99.5 -53t56.5 -94.5t18 -142v-156q0 -80 -18.5 -135t-57.5 -89t-100.5 -49t-148.5 -15h-293zM338 621v-492h128q57 0 92.5 11.5
t55.5 33.5t27 55t7 76v139q0 41 -7 74t-26.5 56t-54.5 35t-90 12h-132z" />
    <glyph glyph-name="uni018B" unicode="&#x18b;" horiz-adv-x="661" 
d="M324 330q-40 0 -66 -4.5t-41 -15.5t-21 -31t-6 -51v-25q0 -26 6.5 -43t22 -27t41 -14.5t63.5 -4.5h116v216h-115zM36 261q0 51 16.5 85.5t50.5 55.5t86.5 30t124.5 9h125v193h-343v116h497v-750h-288q-65 0 -115.5 7.5t-84.5 28.5t-51.5 58t-17.5 95v72z" />
    <glyph glyph-name="uni018C" unicode="&#x18c;" horiz-adv-x="628" 
d="M243 508q49 0 94.5 -14t80.5 -34v183h-322v117h472v-760h-121l-9 41q-18 -14 -39.5 -23.5t-44 -15.5t-44.5 -9t-41 -3q-45 0 -84.5 11.5t-68 37t-45 67.5t-16.5 103v117q0 82 46.5 132t141.5 50zM418 346q-26 17 -60.5 29t-67.5 12q-48 0 -66.5 -24t-18.5 -76v-63
q0 -59 21 -86.5t82 -27.5q20 0 50.5 6t59.5 25v205z" />
    <glyph glyph-name="uni018D" unicode="&#x18d;" horiz-adv-x="607" 
d="M348 -81q0 16 -11.5 27t-34.5 23.5t-57.5 30.5t-81.5 49q-65 42 -91.5 100.5t-26.5 127.5v47q0 60 19 105.5t53 76t81.5 45.5t104.5 15t105 -15t82 -45.5t53 -76t19 -105.5v-47q0 -110 -53 -165t-148 -65q41 -22 67 -40.5t41 -36t21 -35t6 -37.5v-8q0 -22 -10.5 -42.5
t-34 -36t-60.5 -25t-90 -9.5q-44 0 -90 7t-81 24v108q40 -16 78.5 -23.5t71.5 -7.5q32 0 50 8.5t18 22.5v3zM303 450q-54 0 -83.5 -30.5t-29.5 -102.5v-27q0 -73 29.5 -107t83.5 -34q55 0 84.5 34t29.5 107v27q0 72 -29.5 102.5t-84.5 30.5z" />
    <glyph glyph-name="uni018E" unicode="&#x18e;" horiz-adv-x="618" 
d="M550 750v-750h-508v125h354v197h-307v124h307v179h-339v125h493z" />
    <glyph glyph-name="uni018F" unicode="&#x18f;" horiz-adv-x="733" 
d="M40 434h496v36q0 37 -9.5 67t-32.5 51.5t-63 33t-100 11.5q-52 0 -110.5 -9.5t-115.5 -29.5v125q50 21 109 32.5t117 11.5q93 0 160.5 -20t111 -61t64.5 -105t21 -151v-91q0 -93 -24 -158.5t-67 -107.5t-101.5 -61.5t-128.5 -19.5q-62 0 -121 15.5t-105 54.5t-73.5 105.5
t-27.5 168.5v102zM189 318v-24q0 -36 9.5 -68.5t30.5 -57t54.5 -39t81.5 -14.5q45 0 77.5 14t53.5 38t31 56.5t10 70.5v24h-348z" />
    <glyph glyph-name="uni0190" unicode="&#x190;" horiz-adv-x="610" 
d="M350 326q-30 0 -57.5 -4t-48.5 -16t-33 -33t-12 -54q0 -106 164 -106q58 0 117.5 10t103.5 27v-123q-38 -15 -96 -27t-128 -12q-315 0 -315 224q0 37 13 68t35.5 53.5t53 35.5t66.5 13q3 0 6.5 -0.5t7.5 -0.5q-42 4 -72 20t-50 40t-29.5 54t-9.5 60q0 101 73 154.5
t222 53.5q63 0 113.5 -9t88.5 -23v-122q-45 16 -89.5 23t-93.5 7q-77 0 -118.5 -22t-41.5 -75q0 -54 35.5 -77.5t98.5 -23.5h115v-115h-119z" />
    <glyph glyph-name="uni0191" unicode="&#x191;" horiz-adv-x="589" 
d="M553 750v-130h-331v-200h299v-130h-299v-305q0 -86 -40.5 -122.5t-128.5 -36.5q-35 0 -57.5 2.5t-50.5 8.5v119q18 -5 36 -6.5t30 -1.5q26 0 41.5 12.5t15.5 44.5v745h485z" />
    <glyph glyph-name="florin" unicode="&#x192;" horiz-adv-x="420" 
d="M17 438v112h90v79q0 71 43 109t131 38q35 0 69.5 -4.5t54.5 -9.5v-100q-17 3 -35.5 5t-37.5 2q-48 0 -61.5 -16t-13.5 -55v-48h139v-112h-139v-453q0 -87 -40 -123t-125 -36q-35 0 -57.5 2.5t-50.5 8.5v114q18 -5 36 -6.5t30 -1.5q26 0 41.5 12.5t15.5 44.5v438h-90z" />
    <glyph glyph-name="uni0193" unicode="&#x193;" horiz-adv-x="700" 
d="M593 611q-18 4 -41 8t-48.5 6t-52 3.5t-50.5 1.5q-60 0 -98.5 -12t-60.5 -35.5t-30.5 -58t-8.5 -80.5v-132q0 -45 7.5 -80.5t30 -60t63.5 -37.5t107 -13q21 0 44 1.5t47 6.5v176h-131v117h277v-398q-26 -9 -57.5 -15.5t-65 -10.5t-67 -6t-63.5 -2q-95 0 -161 17
t-107.5 55t-60.5 99t-19 150v117q0 94 20.5 157.5t62.5 102.5t105 55.5t148 16.5q38 0 79 -3q9 152 162 152q19 0 38.5 -2t38.5 -8v-107q-24 6 -49 6q-29 0 -44 -14t-15 -46v-127z" />
    <glyph glyph-name="uni0194" unicode="&#x194;" horiz-adv-x="629" 
d="M115 148q0 35 14.5 65t28.5 52l79 124l-232 361h163l147 -239l152 239h156l-234 -357l66 -105q20 -32 38 -70.5t18 -70.5v-12q0 -30 -12.5 -57t-37.5 -47.5t-62.5 -32t-87.5 -11.5q-53 0 -90.5 13.5t-61 35.5t-34 49t-10.5 54v9zM369 165q0 14 -13 39t-45 71
q-32 -46 -44 -70t-12 -40v-5q0 -29 14.5 -41.5t43.5 -12.5q28 0 42 15.5t14 38.5v5z" />
    <glyph glyph-name="uni0195" unicode="&#x195;" horiz-adv-x="921" 
d="M626 -11q-76 0 -123 18t-72.5 47.5t-34.5 66.5t-9 75v163q0 20 -1.5 35t-7 25t-17 15t-31.5 5q-29 0 -59.5 -10t-60.5 -27v-402h-150v744l150 30v-255q36 20 78.5 33.5t81.5 13.5q48 0 80 -12t51.5 -34t27.5 -53t8 -68v-184q0 -50 19.5 -75.5t69.5 -25.5t69.5 25.5
t19.5 75.5v337h150v-356q0 -38 -9 -75t-34.5 -66.5t-72.5 -47.5t-123 -18z" />
    <glyph glyph-name="uni0196" unicode="&#x196;" horiz-adv-x="352" 
d="M185 176q0 -39 11 -54.5t44 -15.5q24 0 48 4t44 14v-104q-27 -16 -65.5 -23t-76.5 -7q-82 0 -118.5 35.5t-36.5 109.5v609l150 30v-598z" />
    <glyph glyph-name="uni0197" unicode="&#x197;" horiz-adv-x="344" 
d="M249 442h105v-105h-105v-337h-154v337h-105v105h105v308h154v-308z" />
    <glyph glyph-name="uni0198" unicode="&#x198;" horiz-adv-x="720" 
d="M427 382l277 -382h-181l-214 317h-87v-317h-154v750h154v-308h83l139 207q21 31 40 53t39 35.5t42 20t49 6.5q24 0 41.5 -2t40.5 -9v-119q-17 5 -28.5 6.5t-23.5 1.5q-26 0 -42 -13t-36 -44z" />
    <glyph glyph-name="uni0199" unicode="&#x199;" horiz-adv-x="587" 
d="M60 606q0 168 167 168q32 0 56.5 -2t52.5 -8v-110q-17 4 -33 5t-30 1q-29 0 -46.5 -14t-17.5 -46v-242h60l139 194h166l-189 -253l197 -299h-177l-143 236h-53v-236h-149v606z" />
    <glyph glyph-name="uni019A" unicode="&#x19a;" horiz-adv-x="416" 
d="M14 439h119v305l150 30v-335h119v-98h-119v-341h-150v341h-119v98z" />
    <glyph glyph-name="uni019B" unicode="&#x19b;" horiz-adv-x="575" 
d="M72 528l128 57q-5 14 -9 29t-10 27t-15.5 19.5t-26.5 7.5q-14 0 -27 -3.5t-28 -11.5v101q39 21 92 21q34 0 56.5 -8.5t38.5 -24t27 -37t21 -48.5l6 -16l138 61v-96l-106 -47l214 -559h-145l-93 276q-11 30 -18 57t-15 65q-8 -37 -16.5 -64.5t-19.5 -57.5l-99 -276h-151
q51 125 100.5 248t100.5 248l-143 -64v96z" />
    <glyph glyph-name="uni019C" unicode="&#x19c;" horiz-adv-x="996" 
d="M65 750h154v-549q0 -40 15 -61.5t60 -21.5q30 0 65 10t61 27v595h153v-547q0 -40 16 -62.5t61 -22.5q32 0 65 11t59 28v593h154v-750h-122l-11 49q-80 -59 -183 -59q-60 0 -98.5 16t-60.5 45q-45 -32 -97.5 -46.5t-100.5 -14.5q-52 0 -88.5 13t-59 35.5t-32.5 54
t-10 69.5v588z" />
    <glyph glyph-name="uni019D" unicode="&#x19d;" horiz-adv-x="730" 
d="M662 0h-160l-257 457q-10 17 -19 38t-17 44v-554q0 -86 -38 -122.5t-123 -36.5q-17 0 -30 0.5t-24.5 2t-23 3.5t-25.5 5v119q18 -5 36 -6.5t30 -1.5q25 0 40 11.5t17 40.5v750h159l262 -475q20 -37 32 -70v545h141v-750z" />
    <glyph glyph-name="uni019E" unicode="&#x19e;" horiz-adv-x="603" 
d="M547 -216h-150v575q0 40 -11.5 60t-50.5 20q-29 0 -62.5 -9.5t-62.5 -29.5v-400h-150v552h117l11 -45q42 28 92 43.5t92 15.5q49 0 82.5 -12t54 -34t29.5 -53t9 -68v-615z" />
    <glyph glyph-name="uni019F" unicode="&#x19f;" horiz-adv-x="758" 
d="M713 315q0 -163 -86.5 -245.5t-247.5 -82.5t-247.5 82.5t-86.5 245.5v120q0 81 23 142t66.5 102.5t105 62.5t139.5 21t139.5 -21t105 -62.5t66.5 -102.5t23 -142v-120zM558 329h-358v-5q0 -111 45 -159t134 -48t134 48t45 159v5zM379 633q-89 0 -133.5 -47.5
t-45.5 -155.5h358q-1 108 -46 155.5t-133 47.5z" />
    <glyph glyph-name="Ohorn" unicode="&#x1a0;" horiz-adv-x="798" 
d="M713 315q0 -163 -86.5 -245.5t-247.5 -82.5t-247.5 82.5t-86.5 245.5v120q0 81 23 142t66.5 102.5t105 62.5t139.5 21q159 0 248 -87h34q26 0 36.5 12.5t10.5 38.5q0 15 -3.5 36.5t-8.5 34.5h117q8 -21 11.5 -47.5t3.5 -47.5q0 -131 -135 -138q20 -58 20 -130v-120z
M558 426q0 110 -45 158.5t-134 48.5t-134 -48.5t-45 -158.5v-102q0 -111 45 -159t134 -48t134 48t45 159v102z" />
    <glyph glyph-name="ohorn" unicode="&#x1a1;" horiz-adv-x="657" 
d="M564 239q0 -124 -66 -187.5t-194 -63.5q-127 0 -193 63.5t-66 187.5v76q0 121 66 186t193 65q70 0 122 -20.5t84 -58.5h14q29 0 39 13.5t10 38.5q0 14 -2 26.5t-5 23.5h102q4 -17 6.5 -34.5t2.5 -37.5q0 -62 -30 -96t-90 -36q7 -31 7 -70v-76zM414 308q0 79 -28 111
t-81 32q-54 0 -82 -32t-28 -111v-62q0 -79 28 -110.5t82 -31.5q53 0 81 31.5t28 110.5v62z" />
    <glyph glyph-name="uni01A2" unicode="&#x1a2;" horiz-adv-x="1069" 
d="M713 315q0 -163 -86.5 -245.5t-247.5 -82.5t-247.5 82.5t-86.5 245.5v120q0 81 23 142t66.5 102.5t105 62.5t139.5 21q124 0 206 -53q35 23 83 38t108 15t103 -14t71 -39t41 -59.5t13 -75.5v-791h-151v744q0 55 -18 80.5t-73 25.5q-23 0 -44.5 -5.5t-43.5 -15.5
q19 -36 29 -80.5t10 -97.5v-120zM558 426q0 110 -45 158.5t-134 48.5t-134 -48.5t-45 -158.5v-102q0 -111 45 -159t134 -48t134 48t45 159v102z" />
    <glyph glyph-name="uni01A3" unicode="&#x1a3;" horiz-adv-x="905" 
d="M564 239q0 -124 -66 -187.5t-194 -63.5q-127 0 -193 63.5t-66 187.5v76q0 121 66 186t193 65q51 0 91.5 -11t71.5 -31q32 19 72 30t89 11q65 0 108 -15.5t68 -43.5t35 -68t10 -89v-565h-148v561q0 55 -17.5 80.5t-68.5 25.5q-36 0 -72 -18q21 -51 21 -118v-76zM414 308
q0 79 -28 111t-81 32q-54 0 -82 -32t-28 -111v-62q0 -79 28 -110.5t82 -31.5q53 0 81 31.5t28 110.5v62z" />
    <glyph glyph-name="uni01A4" unicode="&#x1a4;" horiz-adv-x="768" 
d="M180 640h-29q-30 0 -38.5 -12t-8.5 -36q0 -11 1.5 -27t5.5 -29h-114q-6 20 -8.5 40t-2.5 40q0 74 42 104t123 30h325q61 0 109.5 -8t82.5 -30t52 -61t18 -101v-71q0 -58 -16.5 -96t-50.5 -60t-86 -31t-123 -9h-128v-283h-154v640zM334 635v-239h106q41 0 68.5 4
t44.5 14.5t24 29t7 47.5v55q0 49 -29 69t-98 20h-123z" />
    <glyph glyph-name="uni01A5" unicode="&#x1a5;" horiz-adv-x="623" 
d="M60 -216v822q0 168 167 168q32 0 56.5 -2t52.5 -8v-110q-17 4 -33 5t-30 1q-29 0 -46.5 -14t-17.5 -46v-81q42 23 87 35t87 12q49 0 85 -13.5t59.5 -37.5t34.5 -57.5t11 -73.5v-176q0 -59 -15.5 -100.5t-45 -67.5t-71 -38.5t-92.5 -12.5q-32 0 -68 5t-71 16v-226h-150z
M210 121q23 -8 50 -12t50 -4q34 0 56 8t35 24t17.5 40.5t4.5 58.5v108q0 52 -18.5 76.5t-66.5 24.5q-34 0 -68 -12.5t-60 -28.5v-283z" />
    <glyph glyph-name="uni01A6" unicode="&#x1a6;" horiz-adv-x="685" 
d="M68 750h154v-94h146q61 0 109.5 -8t82 -30t51.5 -61t18 -101v-61q0 -75 -27.5 -116t-83.5 -60l149 -325h-163l-135 305h-147v-199h-154v750zM222 541v-230h109q41 0 68.5 4t44.5 14.5t24 29.5t7 48v46q0 48 -29 68t-98 20h-126z" />
    <glyph glyph-name="uni01A7" unicode="&#x1a7;" horiz-adv-x="619" 
d="M36 215q0 47 9 82t30.5 61t57.5 45t90 33l81 21q30 7 51 14.5t35 17t20.5 24t6.5 36.5q0 23 -6.5 39.5t-23 27.5t-46 16.5t-75.5 5.5q-42 0 -92.5 -4.5t-90.5 -15.5v117q18 6 42 10.5t52.5 8t59.5 5t62 1.5q146 0 209 -54.5t63 -162.5q0 -93 -45 -143t-128 -72l-80 -21
q-40 -11 -65 -20.5t-38.5 -20.5t-18 -25.5t-4.5 -34.5q0 -46 33 -68.5t113 -22.5q42 0 101.5 7t133.5 30v-126q-30 -10 -63.5 -17t-67 -11t-65.5 -6t-59 -2q-79 0 -133 16t-87 45.5t-47.5 71t-14.5 92.5z" />
    <glyph glyph-name="uni01A8" unicode="&#x1a8;" horiz-adv-x="494" 
d="M30 162q0 37 6 64t22.5 47t46 34.5t76.5 26.5l55 14q25 6 41 11t25 11.5t12 15t3 22.5t-4.5 23.5t-16 15.5t-32 8.5t-51.5 2.5q-34 0 -73.5 -5.5t-69.5 -13.5v107q26 8 68 14t93 6q118 0 169 -41.5t51 -123.5q0 -33 -7.5 -60t-25.5 -48t-47.5 -37t-73.5 -26l-54 -13
q-25 -6 -40 -10.5t-23.5 -10.5t-11 -15.5t-2.5 -25.5q0 -28 20 -40.5t75 -12.5q33 0 80 5t113 25v-111q-25 -9 -53 -15t-55.5 -9.5t-53.5 -5t-47 -1.5q-62 0 -103 13t-66 36t-35.5 54.5t-10.5 68.5z" />
    <glyph glyph-name="uni01A9" unicode="&#x1a9;" horiz-adv-x="593" 
d="M553 750v-120h-310l204 -258l-207 -251h321v-121h-501v105l223 266l-223 278v101h493z" />
    <glyph glyph-name="uni01AA" unicode="&#x1aa;" horiz-adv-x="484" 
d="M160 468q-36 0 -64 13t-47 34.5t-29 50t-10 59.5q0 32 11 60.5t32 49.5t51 33.5t68 12.5q37 0 67.5 -12.5t51.5 -33.5t32.5 -49.5t11.5 -60.5v-614q0 -42 15 -56.5t47 -14.5q17 0 36 3t35 11v-105q-26 -13 -56 -18t-65 -5q-85 0 -122.5 39.5t-37.5 122.5v482
q-5 -1 -11 -1.5t-16 -0.5zM172 565q27 0 43 15.5t16 44.5q0 27 -16 44t-43 17q-26 0 -42.5 -17t-16.5 -44q0 -29 16.5 -44.5t42.5 -15.5z" />
    <glyph glyph-name="uni01AB" unicode="&#x1ab;" horiz-adv-x="436" 
d="M406 442h-147v-266q0 -39 11 -54.5t44 -15.5q24 0 48 4t44 14v-134q0 -82 -37.5 -123t-120.5 -41q-29 0 -50.5 2.5t-44.5 7.5v103q15 -5 32.5 -6.5t36.5 -1.5q29 0 45.5 12.5t16.5 45.5v2q-5 -1 -10 -1h-10q-82 0 -118.5 35.5t-36.5 109.5v307h-89v110h89v115l150 33
v-148h147v-110z" />
    <glyph glyph-name="uni01AC" unicode="&#x1ac;" horiz-adv-x="671" 
d="M651 616h-224v-616h-154v616h-61q-39 0 -55 -20t-16 -49q0 -15 2 -33.5t7 -34.5h-126q-7 24 -10 49t-3 48q0 91 50.5 132.5t150.5 41.5h439v-134z" />
    <glyph glyph-name="uni01AD" unicode="&#x1ad;" horiz-adv-x="436" 
d="M109 553v53q0 168 167 168q32 0 56.5 -2t52.5 -8v-110q-17 4 -33 5t-30 1q-29 0 -46 -14t-17 -46v-47h147v-110h-147v-267q0 -39 11 -54.5t44 -15.5q24 0 48 4t44 14v-104q-27 -16 -65.5 -23t-76.5 -7q-82 0 -118.5 35.5t-36.5 109.5v308h-89v110h89z" />
    <glyph glyph-name="uni01AE" unicode="&#x1ae;" horiz-adv-x="642" 
d="M20 616v134h602v-134h-224v-611q0 -32 15.5 -44.5t41.5 -12.5q12 0 30 1.5t36 6.5v-119q-28 -6 -50.5 -8.5t-57.5 -2.5q-89 0 -129 36.5t-40 122.5v631h-224z" />
    <glyph glyph-name="Uhorn" unicode="&#x1af;" horiz-adv-x="859" 
d="M217 750v-440q0 -53 9 -88t28.5 -56t50 -29.5t72.5 -8.5q43 0 73.5 8.5t49.5 29.5t27.5 56t8.5 88v440h154v-74h32q26 0 36.5 12.5t10.5 38.5q0 15 -3.5 36.5t-8.5 34.5h117q8 -21 11.5 -47.5t3.5 -47.5q0 -138 -152 -138h-47v-288q0 -152 -78 -221t-235 -69
q-161 0 -238 68.5t-77 221.5v473h155z" />
    <glyph glyph-name="uhorn" unicode="&#x1b0;" horiz-adv-x="690" 
d="M540 385v-385h-117l-12 46q-41 -29 -91 -43t-92 -14q-49 0 -82 11.5t-53 33.5t-28.5 52.5t-8.5 68.5v397h150v-357q0 -40 11 -60.5t49 -20.5q29 0 62 10t62 30v398h150v-65h17q29 0 39 13.5t10 38.5q0 14 -2 26.5t-5 23.5h102q4 -17 6.5 -34.5t2.5 -37.5q0 -63 -32 -97.5
t-95 -34.5h-43z" />
    <glyph glyph-name="uni01B1" unicode="&#x1b1;" horiz-adv-x="823" 
d="M411 120q181 0 181 206v86q0 81 -22.5 131t-80.5 78v129h322v-127h-175q18 -10 37.5 -28.5t35.5 -46t26 -64.5t10 -85v-84q0 -82 -23.5 -143.5t-67 -102.5t-105.5 -61.5t-138 -20.5t-138 20.5t-105.5 61.5t-67 102.5t-23.5 143.5v84q0 44 9 80t24.5 64.5t35 48.5t40.5 31
h-174v127h321v-129q-57 -28 -80.5 -78t-23.5 -131v-86q0 -206 182 -206z" />
    <glyph glyph-name="uni01B2" unicode="&#x1b2;" horiz-adv-x="663" 
d="M503 579q11 30 11 44t-8.5 20.5t-33.5 6.5q-8 0 -17 -1t-18 -3v109q13 2 32.5 4.5t37.5 2.5q84 0 119 -27.5t35 -87.5q0 -28 -6.5 -54.5t-16.5 -52.5l-192 -540h-171l-269 750h168l147 -446q13 -38 22 -73.5t19 -85.5q4 25 9 46t10.5 40t11.5 36.5t13 36.5z" />
    <glyph glyph-name="uni01B3" unicode="&#x1b3;" horiz-adv-x="753" 
d="M620 641q-12 0 -19.5 -9t-21.5 -36l-159 -300v-296h-154v294l-251 456h166l102 -205q17 -35 32 -68.5t29 -71.5q14 39 27.5 73.5t30.5 66.5l56 107q31 58 64 85t86 27q30 0 55.5 -7t44.5 -23t29.5 -41.5t10.5 -62.5q0 -20 -2.5 -40t-8.5 -40h-107q4 13 5.5 29t1.5 27
q0 35 -17 35z" />
    <glyph glyph-name="uni01B4" unicode="&#x1b4;" horiz-adv-x="655" 
d="M295 -213h-157l76 214l-206 551h153l103 -310q8 -23 15.5 -51.5t14.5 -66.5q9 40 17.5 68.5t16.5 48.5l158 430q15 46 46.5 74.5t90.5 28.5q19 0 39.5 -2t38.5 -10v-113q-10 4 -20.5 5.5t-18.5 1.5q-25 0 -39 -14t-22 -38z" />
    <glyph glyph-name="uni01B5" unicode="&#x1b5;" horiz-adv-x="630" 
d="M446 445h100v-108h-184l-109 -139q-13 -17 -27.5 -34.5t-29.5 -34.5h408v-129h-580v120l167 217h-131v108h214l83 108q12 16 27 34t30 35h-375v128h553v-119z" />
    <glyph glyph-name="uni01B6" unicode="&#x1b6;" horiz-adv-x="510" 
d="M472 457l-89 -121h52v-105h-129l-38 -52q-13 -17 -28 -34t-32 -37h278v-108h-457v95l100 136h-71v105h148l27 36q12 16 27.5 35.5t30.5 36.5h-251v108h432v-95z" />
    <glyph glyph-name="uni01B7" unicode="&#x1b7;" horiz-adv-x="695" 
d="M445 633h-379v117h552v-109l-239 -281q86 0 140.5 -22t85.5 -59t42.5 -85.5t11.5 -100.5v-48q0 -57 -18.5 -106t-60 -85t-107.5 -56.5t-161 -20.5q-87 0 -160.5 14t-118.5 31v127q53 -19 120.5 -32t152.5 -13q107 0 154.5 37t47.5 118v32q0 85 -43.5 121.5t-141.5 36.5
q-31 0 -55 -2t-56 -6l-12 92z" />
    <glyph glyph-name="uni01B8" unicode="&#x1b8;" horiz-adv-x="695" 
d="M495 333l-12 -92q-32 4 -56 6t-55 2q-98 0 -141.5 -36.5t-43.5 -121.5v-32q0 -81 47.5 -118t154.5 -37q85 0 152.5 13t120.5 32v-127q-45 -17 -118.5 -31t-160.5 -14q-95 0 -161 20.5t-107.5 56.5t-60 85t-18.5 106v48q0 52 11.5 100.5t42.5 85.5t85.5 59t140.5 22
l-239 281v109h552v-117h-379z" />
    <glyph glyph-name="uni01B9" unicode="&#x1b9;" horiz-adv-x="553" 
d="M430 223l-29 -95q-23 4 -45 5.5t-49 1.5q-77 0 -105 -27.5t-28 -79.5v-24q0 -57 37.5 -79t115.5 -22q62 0 109 10t92 26v-125q-38 -15 -90.5 -26.5t-121.5 -11.5q-80 0 -135 16t-89.5 45t-49.5 69.5t-15 88.5v37q0 42 9.5 80t34.5 66.5t69.5 45.5t113.5 18l-171 215v95
h441v-107h-272q7 -6 12.5 -12t13.5 -16z" />
    <glyph glyph-name="uni01BA" unicode="&#x1ba;" horiz-adv-x="552" 
d="M127 309l106 90q15 13 32.5 25t34.5 20h-271v109h449v-95l-163 -130q66 -1 109 -13t67.5 -33t34.5 -50t10 -64q0 -65 -22 -103.5t-59.5 -60t-88.5 -32t-108 -19.5q-24 -4 -37 -8t-19.5 -8.5t-8 -9.5t-1.5 -10q0 -14 22.5 -22.5t80.5 -8.5q51 0 96.5 9.5t94.5 28.5v-114
q-40 -16 -88.5 -26t-117.5 -10q-39 0 -80.5 6.5t-76 23t-57 44.5t-22.5 72q0 24 6 45t22.5 38.5t45.5 30.5t75 21q56 10 93.5 18t59.5 18.5t31 26t9 40.5q0 16 -4.5 29.5t-18 23t-38 14.5t-65.5 5q-19 0 -47 -2.5t-51 -7.5z" />
    <glyph glyph-name="uni01BB" unicode="&#x1bb;" horiz-adv-x="640" 
d="M80 390h266q24 22 39 39.5t23.5 33t11.5 32t3 36.5v15q0 45 -31 62.5t-108 17.5q-24 0 -51 -3t-54 -8t-52 -12t-46 -15v125q20 8 46.5 15.5t55.5 13.5t58.5 9.5t56.5 3.5q74 0 126 -14t85 -40t48 -63t15 -83v-25q0 -44 -8 -75.5t-31 -64.5h57v-94h-145l-182 -173h330
v-123h-539v106l195 190h-169v94z" />
    <glyph glyph-name="uni01BC" unicode="&#x1bc;" horiz-adv-x="643" 
d="M30 745h535v-122h-291l-23 -163q12 2 22 3.5t19 2t19 1t24 0.5q76 0 126 -16t79.5 -44t41.5 -65.5t12 -79.5v-56q0 -99 -72.5 -157.5t-214.5 -58.5q-36 0 -71.5 3t-67 8.5t-58 12t-44.5 14.5v121q45 -16 103 -26t124 -10q78 0 113.5 26.5t35.5 75.5v30q0 61 -38.5 82.5
t-121.5 21.5q-45 0 -92.5 -5t-89.5 -12l41 296h-111v117z" />
    <glyph glyph-name="uni01BD" unicode="&#x1bd;" horiz-adv-x="499" 
d="M37 553h422v-110h-215l-12 -96q17 3 30.5 4t29.5 1q55 0 90 -12.5t55 -34.5t27.5 -51t7.5 -62v-37q0 -86 -56.5 -125.5t-169.5 -39.5q-54 0 -104 8.5t-77 19.5v118q32 -11 77 -18.5t95 -7.5q46 0 69.5 11.5t23.5 45.5v14q0 13 -3 24t-13 18.5t-28.5 11.5t-49.5 4
q-38 0 -74 -4t-67 -9l24 217h-82v110z" />
    <glyph glyph-name="uni01BE" unicode="&#x1be;" horiz-adv-x="501" 
d="M432 443h-141q5 -13 20.5 -26.5t49.5 -37.5q17 -12 37.5 -26.5t38.5 -35.5t30 -51.5t12 -75.5q0 -47 -11.5 -84.5t-39.5 -63.5t-76 -39.5t-121 -13.5q-56 0 -109 12t-88 28v114q40 -16 86.5 -26t92.5 -10q36 0 60 4.5t38.5 15t20 27.5t5.5 42q0 22 -5.5 37.5t-16 27.5
t-26 23.5t-36.5 25.5q-29 19 -47 34.5t-28.5 30.5t-15.5 31t-6 37h-110v110h110v114l131 33v-147h145v-110z" />
    <glyph glyph-name="uni01BF" unicode="&#x1bf;" horiz-adv-x="625" 
d="M60 -216v768h117l14 -43q46 27 94.5 42t98.5 15q96 0 142.5 -50t46.5 -137v-129q0 -82 -31.5 -131.5t-82.5 -77.5t-116 -39.5t-133 -17.5v-200h-150zM210 95q51 4 90.5 13.5t67 27t41.5 45t14 68.5v95q0 47 -16.5 74t-67.5 27q-32 0 -66 -11.5t-63 -29.5v-309z" />
    <glyph glyph-name="uni01C0" unicode="&#x1c0;" horiz-adv-x="282" 
d="M197 -216h-112v990h112v-990z" />
    <glyph glyph-name="uni01C1" unicode="&#x1c1;" horiz-adv-x="522" 
d="M197 -216h-112v990h112v-990zM437 -216h-112v990h112v-990z" />
    <glyph glyph-name="uni01C2" unicode="&#x1c2;" horiz-adv-x="343" 
d="M228 435h115v-86h-115v-109h115v-86h-115v-370h-112v370h-116v86h116v109h-116v86h116v339h112v-339z" />
    <glyph glyph-name="uni01C3" unicode="&#x1c3;" horiz-adv-x="289" 
d="M224 750l-20 -519h-120l-20 519h160zM70 144h147v-144h-147v144z" />
    <glyph glyph-name="uni01C4" unicode="&#x1c4;" horiz-adv-x="1354" 
d="M68 0v750h297q86 0 147 -16.5t99.5 -53t56.5 -94.5t18 -142v-156q0 -80 -18.5 -135t-57.5 -89t-100.5 -49t-148.5 -15h-293zM222 621v-492h128q57 0 92.5 11.5t55.5 33.5t27 55t7 76v139q0 41 -7 74t-26.5 56t-54.5 35t-90 12h-132zM977 198q-13 -17 -27.5 -34.5
t-29.5 -34.5h408v-129h-580v120l333 433q12 16 27 34t30 35h-375v128h553v-119zM1102 792h-108l-107 161h100l61 -77l61 77h100z" />
    <glyph glyph-name="uni01C5" unicode="&#x1c5;" horiz-adv-x="1234" 
d="M68 0v750h297q86 0 147 -16.5t99.5 -53t56.5 -94.5t18 -142v-156q0 -80 -18.5 -135t-57.5 -89t-100.5 -49t-148.5 -15h-293zM222 621v-492h128q57 0 92.5 11.5t55.5 33.5t27 55t7 76v139q0 41 -7 74t-26.5 56t-54.5 35t-90 12h-132zM1196 457l-204 -278q-13 -17 -28 -34
t-32 -37h278v-108h-457v95l204 277q12 16 27.5 35.5t30.5 36.5h-251v108h432v-95zM1043 592h-108l-107 161h100l61 -77l61 77h100z" />
    <glyph glyph-name="uni01C6" unicode="&#x1c6;" horiz-adv-x="1133" 
d="M237 -10q-50 0 -85 14.5t-58 40t-33.5 60.5t-10.5 76v160q0 60 16 102.5t45.5 70t71 40t93.5 12.5q38 0 75 -7.5t62 -20.5v206l150 30v-774h-123l-13 47q-38 -28 -85 -42.5t-105 -14.5zM413 426q-20 14 -48.5 20.5t-51.5 6.5q-27 0 -48 -5.5t-35.5 -18.5t-22 -35
t-7.5 -56v-134q0 -46 18.5 -71.5t62.5 -25.5q32 0 66 9t66 30v280zM1095 457l-204 -278q-13 -17 -28 -34t-32 -37h278v-108h-457v95l204 277q12 16 27.5 35.5t30.5 36.5h-251v108h432v-95zM942 592h-108l-107 161h100l61 -77l61 77h100z" />
    <glyph glyph-name="uni01C7" unicode="&#x1c7;" horiz-adv-x="1035" 
d="M222 750v-616h343v-134h-497v750h154zM969 750v-541q0 -53 -10 -93.5t-35.5 -68.5t-68 -42.5t-106.5 -14.5q-30 0 -68.5 6t-67.5 20v130q31 -11 61 -16t54 -5q50 0 68.5 21t18.5 77v527h154z" />
    <glyph glyph-name="uni01C8" unicode="&#x1c8;" horiz-adv-x="892" 
d="M222 750v-616h343v-134h-497v750h154zM819 552v-596q0 -53 -10.5 -87.5t-31.5 -54.5t-53.5 -28.5t-76.5 -8.5q-32 0 -65 3t-59 10v118q21 -4 40 -5.5t38 -1.5q20 0 33.5 2.5t21 10.5t10.5 23t3 39v576h150zM819 633h-150v141h150v-141z" />
    <glyph glyph-name="uni01C9" unicode="&#x1c9;" horiz-adv-x="577" 
d="M60 0v744l150 30v-774h-150zM504 552v-596q0 -53 -10.5 -87.5t-31.5 -54.5t-53.5 -28.5t-76.5 -8.5q-32 0 -65 3t-59 10v118q21 -4 40 -5.5t38 -1.5q20 0 33.5 2.5t21 10.5t10.5 23t3 39v576h150zM504 633h-150v141h150v-141z" />
    <glyph glyph-name="uni01CA" unicode="&#x1ca;" horiz-adv-x="1180" 
d="M662 0h-160l-257 457q-10 17 -19 38t-17 44v-539h-141v750h159l262 -475q20 -37 32 -70v545h141v-750zM1114 750v-541q0 -53 -10 -93.5t-35.5 -68.5t-68 -42.5t-106.5 -14.5q-30 0 -68.5 6t-67.5 20v130q31 -11 61 -16t54 -5q50 0 68.5 21t18.5 77v527h154z" />
    <glyph glyph-name="uni01CB" unicode="&#x1cb;" horiz-adv-x="1037" 
d="M662 0h-160l-257 457q-10 17 -19 38t-17 44v-539h-141v750h159l262 -475q20 -37 32 -70v545h141v-750zM964 552v-596q0 -53 -10.5 -87.5t-31.5 -54.5t-53.5 -28.5t-76.5 -8.5q-32 0 -65 3t-59 10v118q21 -4 40 -5.5t38 -1.5q20 0 33.5 2.5t21 10.5t10.5 23t3 39v576h150z
M964 633h-150v141h150v-141z" />
    <glyph glyph-name="uni01CC" unicode="&#x1cc;" horiz-adv-x="910" 
d="M547 0h-150v359q0 40 -11.5 60t-50.5 20q-29 0 -62.5 -9.5t-62.5 -29.5v-400h-150v552h117l11 -45q42 28 92 43.5t92 15.5q49 0 82.5 -12t54 -34t29.5 -53t9 -68v-399zM837 552v-596q0 -53 -10.5 -87.5t-31.5 -54.5t-53.5 -28.5t-76.5 -8.5q-32 0 -65 3t-59 10v118
q21 -4 40 -5.5t38 -1.5q20 0 33.5 2.5t21 10.5t10.5 23t3 39v576h150zM837 633h-150v141h150v-141z" />
    <glyph glyph-name="uni01CD" unicode="&#x1cd;" horiz-adv-x="726" 
d="M444 750l274 -750h-171l-60 180h-260l-60 -180h-159l264 750h172zM265 309h182l-57 173q-11 35 -17.5 64t-15.5 69q-9 -40 -16.5 -69t-18.5 -64zM411 792h-108l-107 161h100l61 -77l61 77h100z" />
    <glyph glyph-name="uni01CE" unicode="&#x1ce;" horiz-adv-x="557" 
d="M503 0h-114l-14 48q-29 -22 -77.5 -40t-106.5 -18q-159 0 -159 162v29q0 89 64 124.5t192 35.5h70v29q0 25 -4 42t-14.5 27t-29 14t-47.5 4q-16 0 -36.5 -2t-43 -6t-45 -9.5t-42.5 -12.5v108q20 7 44.5 12.5t50 9.5t50.5 6.5t46 2.5q69 0 111.5 -16t66 -43.5t31 -64
t7.5 -76.5v-366zM358 244h-72q-60 0 -84 -15t-24 -55v-10q0 -35 14.5 -50t45.5 -15q29 0 61 9.5t59 26.5v109zM334 592h-108l-107 161h100l61 -77l61 77h100z" />
    <glyph glyph-name="uni01CF" unicode="&#x1cf;" horiz-adv-x="290" 
d="M222 0h-154v750h154v-750zM199 792h-108l-107 161h100l61 -77l61 77h100z" />
    <glyph glyph-name="uni01D0" unicode="&#x1d0;" horiz-adv-x="280" 
d="M215 0h-150v552h150v-552zM194 592h-108l-107 161h100l61 -77l61 77h100z" />
    <glyph glyph-name="uni01D1" unicode="&#x1d1;" horiz-adv-x="758" 
d="M713 315q0 -163 -86.5 -245.5t-247.5 -82.5t-247.5 82.5t-86.5 245.5v120q0 81 23 142t66.5 102.5t105 62.5t139.5 21t139.5 -21t105 -62.5t66.5 -102.5t23 -142v-120zM558 426q0 110 -45 158.5t-134 48.5t-134 -48.5t-45 -158.5v-102q0 -111 45 -159t134 -48t134 48
t45 159v102zM433 792h-108l-107 161h100l61 -77l61 77h100z" />
    <glyph glyph-name="uni01D2" unicode="&#x1d2;" horiz-adv-x="609" 
d="M564 239q0 -124 -66 -187.5t-194 -63.5q-127 0 -193 63.5t-66 187.5v76q0 121 66 186t193 65q128 0 194 -65t66 -186v-76zM414 308q0 79 -28 111t-81 32q-54 0 -82 -32t-28 -111v-62q0 -79 28 -110.5t82 -31.5q53 0 81 31.5t28 110.5v62zM358 592h-108l-107 161h100
l61 -77l61 77h100z" />
    <glyph glyph-name="uni01D3" unicode="&#x1d3;" horiz-adv-x="752" 
d="M217 750v-440q0 -53 9 -88t28.5 -56t50 -29.5t72.5 -8.5q43 0 73.5 8.5t49.5 29.5t27.5 56t8.5 88v440h154v-473q0 -152 -78 -221t-235 -69q-161 0 -238 68.5t-77 221.5v473h155zM430 792h-108l-107 161h100l61 -77l61 77h100z" />
    <glyph glyph-name="uni01D4" unicode="&#x1d4;" 
d="M56 552h150v-357q0 -40 11 -60.5t49 -20.5q29 0 62 10t62 30v398h150v-552h-117l-12 46q-41 -29 -91 -43t-92 -14q-49 0 -82 11.5t-53 33.5t-28.5 52.5t-8.5 68.5v397zM354 592h-108l-107 161h100l61 -77l61 77h100z" />
    <glyph glyph-name="uni01D5" unicode="&#x1d5;" horiz-adv-x="752" 
d="M217 750v-440q0 -53 9 -88t28.5 -56t50 -29.5t72.5 -8.5q43 0 73.5 8.5t49.5 29.5t27.5 56t8.5 88v440h154v-473q0 -152 -78 -221t-235 -69q-161 0 -238 68.5t-77 221.5v473h155zM226 905h108v-118h-108v118zM417 905h108v-118h-108v118zM226 1036h300v-94h-300v94z" />
    <glyph glyph-name="uni01D6" unicode="&#x1d6;" 
d="M56 552h150v-357q0 -40 11 -60.5t49 -20.5q29 0 62 10t62 30v398h150v-552h-117l-12 46q-41 -29 -91 -43t-92 -14q-49 0 -82 11.5t-53 33.5t-28.5 52.5t-8.5 68.5v397zM150 703h108v-118h-108v118zM341 703h108v-118h-108v118zM150 825h300v-94h-300v94z" />
    <glyph glyph-name="uni01D7" unicode="&#x1d7;" horiz-adv-x="752" 
d="M217 750v-440q0 -53 9 -88t28.5 -56t50 -29.5t72.5 -8.5q43 0 73.5 8.5t49.5 29.5t27.5 56t8.5 88v440h154v-473q0 -152 -78 -221t-235 -69q-161 0 -238 68.5t-77 221.5v473h155zM386 1065h160l-115 -142h-135zM226 905h108v-118h-108v118zM417 905h108v-118h-108v118z
" />
    <glyph glyph-name="uni01D8" unicode="&#x1d8;" 
d="M56 552h150v-357q0 -40 11 -60.5t49 -20.5q29 0 62 10t62 30v398h150v-552h-117l-12 46q-41 -29 -91 -43t-92 -14q-49 0 -82 11.5t-53 33.5t-28.5 52.5t-8.5 68.5v397zM311 867h160l-115 -142h-135zM150 703h108v-118h-108v118zM341 703h108v-118h-108v118z" />
    <glyph glyph-name="uni01D9" unicode="&#x1d9;" horiz-adv-x="752" 
d="M217 750v-440q0 -53 9 -88t28.5 -56t50 -29.5t72.5 -8.5q43 0 73.5 8.5t49.5 29.5t27.5 56t8.5 88v440h154v-473q0 -152 -78 -221t-235 -69q-161 0 -238 68.5t-77 221.5v473h155zM430 922h-108l-107 161h100l61 -77l61 77h100zM226 900h108v-118h-108v118zM417 900h108
v-118h-108v118z" />
    <glyph glyph-name="uni01DA" unicode="&#x1da;" 
d="M56 552h150v-357q0 -40 11 -60.5t49 -20.5q29 0 62 10t62 30v398h150v-552h-117l-12 46q-41 -29 -91 -43t-92 -14q-49 0 -82 11.5t-53 33.5t-28.5 52.5t-8.5 68.5v397zM353 729h-108l-107 161h100l61 -77l61 77h100zM150 703h108v-118h-108v118zM341 703h108v-118h-108
v118z" />
    <glyph glyph-name="uni01DB" unicode="&#x1db;" horiz-adv-x="752" 
d="M217 750v-440q0 -53 9 -88t28.5 -56t50 -29.5t72.5 -8.5q43 0 73.5 8.5t49.5 29.5t27.5 56t8.5 88v440h154v-473q0 -152 -78 -221t-235 -69q-161 0 -238 68.5t-77 221.5v473h155zM454 923h-135l-115 142h160zM226 900h108v-118h-108v118zM417 900h108v-118h-108v118z" />
    <glyph glyph-name="uni01DC" unicode="&#x1dc;" 
d="M56 552h150v-357q0 -40 11 -60.5t49 -20.5q29 0 62 10t62 30v398h150v-552h-117l-12 46q-41 -29 -91 -43t-92 -14q-49 0 -82 11.5t-53 33.5t-28.5 52.5t-8.5 68.5v397zM380 725h-135l-115 142h160zM150 703h108v-118h-108v118zM341 703h108v-118h-108v118z" />
    <glyph glyph-name="uni01DD" unicode="&#x1dd;" horiz-adv-x="586" 
d="M38 330h357v11q0 64 -34 90t-114 26q-33 0 -78.5 -5t-84.5 -19v105q18 7 40 12.5t46 9t48 5t45 1.5q141 0 209.5 -60t68.5 -192v-67q0 -69 -19.5 -118t-54 -80t-80.5 -45.5t-98 -14.5q-57 0 -103.5 13.5t-79 45t-50.5 83.5t-18 129v70zM180 235v-19q0 -52 24.5 -84.5
t82.5 -32.5q55 0 81.5 32.5t26.5 85.5v18h-215z" />
    <glyph glyph-name="uni01DE" unicode="&#x1de;" horiz-adv-x="726" 
d="M444 750l274 -750h-171l-60 180h-260l-60 -180h-159l264 750h172zM265 309h182l-57 173q-11 35 -17.5 64t-15.5 69q-9 -40 -16.5 -69t-18.5 -64zM208 905h108v-118h-108v118zM399 905h108v-118h-108v118zM207 1036h300v-94h-300v94z" />
    <glyph glyph-name="uni01DF" unicode="&#x1df;" horiz-adv-x="557" 
d="M503 0h-114l-14 48q-29 -22 -77.5 -40t-106.5 -18q-159 0 -159 162v29q0 89 64 124.5t192 35.5h70v29q0 25 -4 42t-14.5 27t-29 14t-47.5 4q-16 0 -36.5 -2t-43 -6t-45 -9.5t-42.5 -12.5v108q20 7 44.5 12.5t50 9.5t50.5 6.5t46 2.5q69 0 111.5 -16t66 -43.5t31 -64
t7.5 -76.5v-366zM358 244h-72q-60 0 -84 -15t-24 -55v-10q0 -35 14.5 -50t45.5 -15q29 0 61 9.5t59 26.5v109zM130 703h108v-118h-108v118zM321 703h108v-118h-108v118zM130 825h300v-94h-300v94z" />
    <glyph glyph-name="uni01E0" unicode="&#x1e0;" horiz-adv-x="726" 
d="M444 750l274 -750h-171l-60 180h-260l-60 -180h-159l264 750h172zM265 309h182l-57 173q-11 35 -17.5 64t-15.5 69q-9 -40 -16.5 -69t-18.5 -64zM302 909h110v-118h-110v118zM207 1036h300v-94h-300v94z" />
    <glyph glyph-name="uni01E1" unicode="&#x1e1;" horiz-adv-x="557" 
d="M503 0h-114l-14 48q-29 -22 -77.5 -40t-106.5 -18q-159 0 -159 162v29q0 89 64 124.5t192 35.5h70v29q0 25 -4 42t-14.5 27t-29 14t-47.5 4q-16 0 -36.5 -2t-43 -6t-45 -9.5t-42.5 -12.5v108q20 7 44.5 12.5t50 9.5t50.5 6.5t46 2.5q69 0 111.5 -16t66 -43.5t31 -64
t7.5 -76.5v-366zM358 244h-72q-60 0 -84 -15t-24 -55v-10q0 -35 14.5 -50t45.5 -15q29 0 61 9.5t59 26.5v109zM223 705h110v-118h-110v118zM130 825h300v-94h-300v94z" />
    <glyph glyph-name="uni01E2" unicode="&#x1e2;" horiz-adv-x="1072" 
d="M1016 750v-125h-339v-179h307v-124h-307v-197h354v-125h-510v180h-228l-109 -180h-176l460 750h548zM491 927h300v-94h-300v94zM361 309h160v287q-29 -66 -54 -108z" />
    <glyph glyph-name="uni01E3" unicode="&#x1e3;" horiz-adv-x="888" 
d="M858 235h-357v-21q0 -64 34 -90t114 -26q33 0 78.5 5t84.5 19v-105q-18 -7 -40 -12.5t-46 -9t-48 -5t-45 -1.5q-72 0 -121.5 16.5t-85.5 51.5q-50 -31 -105 -49t-130 -18q-79 0 -119 35.5t-40 116.5v20q0 88 55.5 128t180.5 40h90v40q0 25 -4 42t-14.5 27t-29 14t-47.5 4
q-16 0 -36.5 -2t-43 -6t-45 -9.5t-42.5 -12.5v108q20 7 44.5 12.5t50 9.5t50.5 6.5t46 2.5q65 0 103.5 -14.5t60.5 -37.5q34 26 76.5 39t86.5 13q56 0 101 -13.5t77 -45t49 -83.5t17 -129v-60zM716 330v9q0 52 -24.5 84.5t-82.5 32.5q-55 0 -81.5 -32.5t-26.5 -85.5v-8h215z
M358 233h-72q-30 0 -50.5 -2t-33.5 -8t-18.5 -17.5t-5.5 -31.5v-10q0 -35 14.5 -50t45.5 -15q29 0 61 9.5t59 26.5v98zM299 727h300v-94h-300v94z" />
    <glyph glyph-name="uni01E4" unicode="&#x1e4;" horiz-adv-x="698" 
d="M371 288h131v49h-131v117h277v-166h70v-108h-70v-156q-26 -9 -57.5 -15.5t-65 -10.5t-67 -6t-63.5 -2q-95 0 -161 17t-107.5 55t-60.5 99t-19 150v117q0 94 20.5 157.5t62.5 102.5t105 55.5t148 16.5q27 0 55.5 -1.5t56.5 -4.5t53 -7.5t45 -11.5v-124q-18 4 -41 8
t-48.5 6t-52 3.5t-50.5 1.5q-60 0 -98.5 -12t-60.5 -35.5t-30.5 -58t-8.5 -80.5v-132q0 -45 7.5 -80.5t30 -60t63.5 -37.5t107 -13q21 0 44 1.5t47 6.5v51h-131v108z" />
    <glyph glyph-name="uni01E5" unicode="&#x1e5;" horiz-adv-x="623" 
d="M75 2h345v75q-41 -26 -88.5 -39t-95.5 -13q-96 0 -141 49.5t-45 131.5v135q0 60 16 102.5t45.5 70t71 40t93.5 12.5q40 0 85 -9.5t81 -35.5l9 31h112v-550h73v-86h-81q-8 -34 -25.5 -60.5t-47.5 -45t-73.5 -28t-103.5 -9.5q-42 0 -82 5t-72 13v108q35 -8 70.5 -11.5
t74.5 -3.5q76 0 104 32h-325v86zM413 426q-20 14 -48.5 20.5t-51.5 6.5q-27 0 -48 -5.5t-35.5 -18.5t-22 -35t-7.5 -56v-99q0 -46 18.5 -71.5t62.5 -25.5q32 0 66 9t66 30v245z" />
    <glyph glyph-name="Gcaron" unicode="&#x1e6;" horiz-adv-x="698" 
d="M593 611q-18 4 -41 8t-48.5 6t-52 3.5t-50.5 1.5q-60 0 -98.5 -12t-60.5 -35.5t-30.5 -58t-8.5 -80.5v-132q0 -45 7.5 -80.5t30 -60t63.5 -37.5t107 -13q21 0 44 1.5t47 6.5v176h-131v117h277v-398q-26 -9 -57.5 -15.5t-65 -10.5t-67 -6t-63.5 -2q-95 0 -161 17
t-107.5 55t-60.5 99t-19 150v117q0 94 20.5 157.5t62.5 102.5t105 55.5t148 16.5q27 0 55.5 -1.5t56.5 -4.5t53 -7.5t45 -11.5v-124zM459 792h-108l-107 161h100l61 -77l61 77h100z" />
    <glyph glyph-name="gcaron" unicode="&#x1e7;" horiz-adv-x="623" 
d="M236 -6q-96 0 -141 49.5t-45 131.5v166q0 60 16 102.5t45.5 70t71 40t93.5 12.5q40 0 85 -9.5t81 -35.5l9 31h112v-555q0 -52 -12.5 -93t-42 -69t-79 -43t-124.5 -15q-42 0 -82 5t-72 13v108q35 -8 70.5 -11.5t74.5 -3.5q68 0 96 23.5t28 77.5v57q-41 -26 -88.5 -39
t-95.5 -13zM413 426q-20 14 -48.5 20.5t-51.5 6.5q-27 0 -48 -5.5t-35.5 -18.5t-22 -35t-7.5 -56v-130q0 -46 18.5 -71.5t62.5 -25.5q32 0 66 9t66 30v276zM379 592h-108l-107 161h100l61 -77l61 77h100z" />
    <glyph glyph-name="uni01E8" unicode="&#x1e8;" horiz-adv-x="720" 
d="M430 380l274 -380h-181l-217 316h-84v-316h-154v750h154v-309h80l194 309h179zM424 792h-108l-107 161h100l61 -77l61 77h100z" />
    <glyph glyph-name="uni01E9" unicode="&#x1e9;" horiz-adv-x="587" 
d="M209 774v-416h58l141 194h166l-187 -253l195 -299h-177l-145 236h-51v-236h-149v744zM381 792h-108l-107 161h100l61 -77l61 77h100z" />
    <glyph glyph-name="uni01EA" unicode="&#x1ea;" horiz-adv-x="758" 
d="M713 315q0 -128 -54 -206t-156 -107q-20 -10 -36 -23t-27.5 -27t-18 -27.5t-6.5 -25.5v-8q0 -20 14.5 -26.5t37.5 -6.5q15 0 31.5 2t27.5 5v-82q-13 -4 -35 -7.5t-50 -3.5q-73 0 -108 30t-35 72v9q0 32 22 59.5t52 44.5q-158 2 -242.5 84.5t-84.5 243.5v120q0 81 23 142
t66.5 102.5t105 62.5t139.5 21t139.5 -21t105 -62.5t66.5 -102.5t23 -142v-120zM558 426q0 110 -45 158.5t-134 48.5t-134 -48.5t-45 -158.5v-102q0 -111 45 -159t134 -48t134 48t45 159v102z" />
    <glyph glyph-name="uni01EB" unicode="&#x1eb;" horiz-adv-x="609" 
d="M564 239q0 -92 -36.5 -150.5t-107.5 -83.5q-19 -10 -35 -23.5t-28 -28t-18.5 -28.5t-6.5 -26v-8q0 -20 14.5 -26.5t37.5 -6.5q15 0 31.5 2t27.5 5v-82q-13 -4 -35 -7.5t-50 -3.5q-73 0 -108 30t-35 72v9q0 32 22.5 60t53.5 45q-121 4 -183.5 67t-62.5 184v76
q0 121 66 186t193 65q128 0 194 -65t66 -186v-76zM414 308q0 79 -28 111t-81 32q-54 0 -82 -32t-28 -111v-62q0 -79 28 -110.5t82 -31.5q53 0 81 31.5t28 110.5v62z" />
    <glyph glyph-name="uni01EC" unicode="&#x1ec;" horiz-adv-x="758" 
d="M713 315q0 -128 -54 -206t-156 -107q-20 -10 -36 -23t-27.5 -27t-18 -27.5t-6.5 -25.5v-8q0 -20 14.5 -26.5t37.5 -6.5q15 0 31.5 2t27.5 5v-82q-13 -4 -35 -7.5t-50 -3.5q-73 0 -108 30t-35 72v9q0 32 22 59.5t52 44.5q-158 2 -242.5 84.5t-84.5 243.5v120q0 81 23 142
t66.5 102.5t105 62.5t139.5 21t139.5 -21t105 -62.5t66.5 -102.5t23 -142v-120zM558 426q0 110 -45 158.5t-134 48.5t-134 -48.5t-45 -158.5v-102q0 -111 45 -159t134 -48t134 48t45 159v102zM229 927h300v-94h-300v94z" />
    <glyph glyph-name="uni01ED" unicode="&#x1ed;" horiz-adv-x="609" 
d="M564 239q0 -92 -36.5 -150.5t-107.5 -83.5q-19 -10 -35 -23.5t-28 -28t-18.5 -28.5t-6.5 -26v-8q0 -20 14.5 -26.5t37.5 -6.5q15 0 31.5 2t27.5 5v-82q-13 -4 -35 -7.5t-50 -3.5q-73 0 -108 30t-35 72v9q0 32 22.5 60t53.5 45q-121 4 -183.5 67t-62.5 184v76
q0 121 66 186t193 65q128 0 194 -65t66 -186v-76zM414 308q0 79 -28 111t-81 32q-54 0 -82 -32t-28 -111v-62q0 -79 28 -110.5t82 -31.5q53 0 81 31.5t28 110.5v62zM154 727h300v-94h-300v94z" />
    <glyph glyph-name="uni01EE" unicode="&#x1ee;" horiz-adv-x="695" 
d="M445 633h-379v117h552v-109l-239 -281q86 0 140.5 -22t85.5 -59t42.5 -85.5t11.5 -100.5v-48q0 -57 -18.5 -106t-60 -85t-107.5 -56.5t-161 -20.5q-87 0 -160.5 14t-118.5 31v127q53 -19 120.5 -32t152.5 -13q107 0 154.5 37t47.5 118v32q0 85 -43.5 121.5t-141.5 36.5
q-31 0 -55 -2t-56 -6l-12 92zM401 792h-108l-107 161h100l61 -77l61 77h100z" />
    <glyph glyph-name="uni01EF" unicode="&#x1ef;" horiz-adv-x="604" 
d="M338 592h-108l-107 161h100l61 -77l61 77h100zM304 417q8 10 13.5 16t12.5 12h-272v107h441v-95l-171 -215q69 -1 113.5 -18t69.5 -45.5t34.5 -66.5t9.5 -80v-37q0 -48 -15 -88.5t-49.5 -69.5t-89.5 -45t-135 -16q-69 0 -121.5 11.5t-90.5 26.5v125q45 -16 92 -26
t109 -10q78 0 115.5 22t37.5 79v24q0 52 -28 79.5t-105 27.5q-27 0 -49 -1.5t-45 -5.5l-29 95z" />
    <glyph glyph-name="uni01F0" unicode="&#x1f0;" horiz-adv-x="307" 
d="M234 552v-596q0 -53 -10.5 -87.5t-31.5 -54.5t-53.5 -28.5t-76.5 -8.5q-32 0 -65 3t-59 10v118q21 -4 40 -5.5t38 -1.5q20 0 33.5 2.5t21 10.5t10.5 23t3 39v576h150zM212 592h-108l-107 161h100l61 -77l61 77h100z" />
    <glyph glyph-name="uni01F1" unicode="&#x1f1;" horiz-adv-x="1354" 
d="M68 0v750h297q86 0 147 -16.5t99.5 -53t56.5 -94.5t18 -142v-156q0 -80 -18.5 -135t-57.5 -89t-100.5 -49t-148.5 -15h-293zM222 621v-492h128q57 0 92.5 11.5t55.5 33.5t27 55t7 76v139q0 41 -7 74t-26.5 56t-54.5 35t-90 12h-132zM977 198q-13 -17 -27.5 -34.5
t-29.5 -34.5h408v-129h-580v120l333 433q12 16 27 34t30 35h-375v128h553v-119z" />
    <glyph glyph-name="uni01F2" unicode="&#x1f2;" horiz-adv-x="1234" 
d="M68 0v750h297q86 0 147 -16.5t99.5 -53t56.5 -94.5t18 -142v-156q0 -80 -18.5 -135t-57.5 -89t-100.5 -49t-148.5 -15h-293zM222 621v-492h128q57 0 92.5 11.5t55.5 33.5t27 55t7 76v139q0 41 -7 74t-26.5 56t-54.5 35t-90 12h-132zM1196 457l-204 -278q-13 -17 -28 -34
t-32 -37h278v-108h-457v95l204 277q12 16 27.5 35.5t30.5 36.5h-251v108h432v-95z" />
    <glyph glyph-name="uni01F3" unicode="&#x1f3;" horiz-adv-x="1133" 
d="M237 -10q-50 0 -85 14.5t-58 40t-33.5 60.5t-10.5 76v160q0 60 16 102.5t45.5 70t71 40t93.5 12.5q38 0 75 -7.5t62 -20.5v206l150 30v-774h-123l-13 47q-38 -28 -85 -42.5t-105 -14.5zM413 426q-20 14 -48.5 20.5t-51.5 6.5q-27 0 -48 -5.5t-35.5 -18.5t-22 -35
t-7.5 -56v-134q0 -46 18.5 -71.5t62.5 -25.5q32 0 66 9t66 30v280zM1095 457l-204 -278q-13 -17 -28 -34t-32 -37h278v-108h-457v95l204 277q12 16 27.5 35.5t30.5 36.5h-251v108h432v-95z" />
    <glyph glyph-name="uni01F4" unicode="&#x1f4;" horiz-adv-x="698" 
d="M593 611q-18 4 -41 8t-48.5 6t-52 3.5t-50.5 1.5q-60 0 -98.5 -12t-60.5 -35.5t-30.5 -58t-8.5 -80.5v-132q0 -45 7.5 -80.5t30 -60t63.5 -37.5t107 -13q21 0 44 1.5t47 6.5v176h-131v117h277v-398q-26 -9 -57.5 -15.5t-65 -10.5t-67 -6t-63.5 -2q-95 0 -161 17
t-107.5 55t-60.5 99t-19 150v117q0 94 20.5 157.5t62.5 102.5t105 55.5t148 16.5q27 0 55.5 -1.5t56.5 -4.5t53 -7.5t45 -11.5v-124zM391 945h160l-115 -142h-135z" />
    <glyph glyph-name="uni01F5" unicode="&#x1f5;" horiz-adv-x="623" 
d="M236 -6q-96 0 -141 49.5t-45 131.5v166q0 60 16 102.5t45.5 70t71 40t93.5 12.5q40 0 85 -9.5t81 -35.5l9 31h112v-555q0 -52 -12.5 -93t-42 -69t-79 -43t-124.5 -15q-42 0 -82 5t-72 13v108q35 -8 70.5 -11.5t74.5 -3.5q68 0 96 23.5t28 77.5v57q-41 -26 -88.5 -39
t-95.5 -13zM413 426q-20 14 -48.5 20.5t-51.5 6.5q-27 0 -48 -5.5t-35.5 -18.5t-22 -35t-7.5 -56v-130q0 -46 18.5 -71.5t62.5 -25.5q32 0 66 9t66 30v276zM301 745h160l-115 -142h-135z" />
    <glyph glyph-name="uni01F6" unicode="&#x1f6;" horiz-adv-x="1053" 
d="M671 750v-535q0 -50 19 -75.5t69 -25.5t69 25.5t19 75.5v337h150v-356q0 -38 -8.5 -75t-34 -66.5t-72.5 -47.5t-123 -18t-123.5 18t-73.5 47.5t-35.5 66.5t-9.5 75v121h-295v-317h-154v750h154v-295h295v295h154z" />
    <glyph glyph-name="uni01F7" unicode="&#x1f7;" horiz-adv-x="681" 
d="M69 750h154v-56l104 44q24 10 53.5 17.5t60.5 7.5q57 0 95.5 -17.5t61.5 -47.5t32.5 -70t9.5 -85v-113q0 -64 -17.5 -126.5t-63.5 -117t-127.5 -97.5t-208.5 -68v-237h-154v966zM223 565v-408q88 18 140 46.5t79 64t35 76.5t8 84v99q0 57 -19 80t-57 23q-17 0 -32 -4.5
t-30 -10.5z" />
    <glyph glyph-name="uni01F8" unicode="&#x1f8;" horiz-adv-x="730" 
d="M662 0h-160l-257 457q-10 17 -19 38t-17 44v-539h-141v750h159l262 -475q20 -37 32 -70v545h141v-750zM490 803h-135l-115 142h160z" />
    <glyph glyph-name="uni01F9" unicode="&#x1f9;" horiz-adv-x="603" 
d="M547 0h-150v359q0 40 -11.5 60t-50.5 20q-29 0 -62.5 -9.5t-62.5 -29.5v-400h-150v552h117l11 -45q42 28 92 43.5t92 15.5q49 0 82.5 -12t54 -34t29.5 -53t9 -68v-399zM426 603h-135l-115 142h160z" />
    <glyph glyph-name="Aringacute" unicode="&#x1fa;" horiz-adv-x="726" 
d="M444 750l274 -750h-171l-60 180h-260l-60 -180h-159l264 750h172zM265 309h182l-57 173q-11 35 -17.5 64t-15.5 69q-9 -40 -16.5 -69t-18.5 -64zM357 835q21 0 33.5 12t12.5 34q0 21 -12.5 33.5t-33.5 12.5q-20 0 -32.5 -12.5t-12.5 -33.5q0 -22 12.5 -34t32.5 -12z
M357 772q-24 0 -44.5 9t-36 24t-24 34.5t-8.5 41.5t8.5 41.5t24 34.5t36 23.5t44.5 8.5t45 -8.5t36.5 -23.5t24 -34.5t8.5 -41.5t-8.5 -41.5t-24 -34.5t-36.5 -24t-45 -9zM390 1151h160l-115 -142h-135z" />
    <glyph glyph-name="aringacute" unicode="&#x1fb;" horiz-adv-x="557" 
d="M503 0h-114l-14 48q-29 -22 -77.5 -40t-106.5 -18q-159 0 -159 162v29q0 89 64 124.5t192 35.5h70v29q0 25 -4 42t-14.5 27t-29 14t-47.5 4q-16 0 -36.5 -2t-43 -6t-45 -9.5t-42.5 -12.5v108q20 7 44.5 12.5t50 9.5t50.5 6.5t46 2.5q69 0 111.5 -16t66 -43.5t31 -64
t7.5 -76.5v-366zM358 244h-72q-60 0 -84 -15t-24 -55v-10q0 -35 14.5 -50t45.5 -15q29 0 61 9.5t59 26.5v109zM290 645q21 0 33.5 12t12.5 34q0 21 -12.5 33.5t-33.5 12.5q-20 0 -32.5 -12.5t-12.5 -33.5q0 -22 12.5 -34t32.5 -12zM290 582q-24 0 -44.5 9t-36 24t-24 34.5
t-8.5 41.5t8.5 41.5t24 34.5t36 23.5t44.5 8.5t45 -8.5t36.5 -23.5t24 -34.5t8.5 -41.5t-8.5 -41.5t-24 -34.5t-36.5 -24t-45 -9zM314 956h160l-115 -142h-135z" />
    <glyph glyph-name="AEacute" unicode="&#x1fc;" horiz-adv-x="1072" 
d="M1016 750v-125h-339v-179h307v-124h-307v-197h354v-125h-510v180h-228l-109 -180h-176l460 750h548zM361 309h160v287q-29 -66 -54 -108zM616 945h160l-115 -142h-135z" />
    <glyph glyph-name="aeacute" unicode="&#x1fd;" horiz-adv-x="888" 
d="M858 235h-357v-21q0 -64 34 -90t114 -26q33 0 78.5 5t84.5 19v-105q-18 -7 -40 -12.5t-46 -9t-48 -5t-45 -1.5q-72 0 -121.5 16.5t-85.5 51.5q-50 -31 -105 -49t-130 -18q-79 0 -119 35.5t-40 116.5v20q0 88 55.5 128t180.5 40h90v40q0 25 -4 42t-14.5 27t-29 14t-47.5 4
q-16 0 -36.5 -2t-43 -6t-45 -9.5t-42.5 -12.5v108q20 7 44.5 12.5t50 9.5t50.5 6.5t46 2.5q65 0 103.5 -14.5t60.5 -37.5q34 26 76.5 39t86.5 13q56 0 101 -13.5t77 -45t49 -83.5t17 -129v-60zM716 330v9q0 52 -24.5 84.5t-82.5 32.5q-55 0 -81.5 -32.5t-26.5 -85.5v-8h215z
M358 233h-72q-30 0 -50.5 -2t-33.5 -8t-18.5 -17.5t-5.5 -31.5v-10q0 -35 14.5 -50t45.5 -15q29 0 61 9.5t59 26.5v98zM477 745h160l-115 -142h-135z" />
    <glyph glyph-name="Oslashacute" unicode="&#x1fe;" horiz-adv-x="758" 
d="M31 -43l87 128q-73 82 -73 230v120q0 81 23 142t66.5 102.5t105 62.5t139.5 21q102 0 176 -36l44 65h128l-88 -129q36 -42 55 -98.5t19 -129.5v-120q0 -163 -86.5 -245.5t-247.5 -82.5q-102 0 -176 34l-44 -64h-128zM200 324q0 -60 12 -100l265 388q-41 21 -98 21
q-89 0 -134 -48.5t-45 -158.5v-102zM558 426q0 60 -13 99l-264 -389q38 -19 98 -19q89 0 134 48t45 159v102zM392 945h160l-115 -142h-135z" />
    <glyph glyph-name="oslashacute" unicode="&#x1ff;" horiz-adv-x="609" 
d="M35 -43l69 103q-59 64 -59 179v76q0 121 66 186t193 65q71 0 124 -21l26 39h120l-65 -96q55 -64 55 -173v-76q0 -124 -66 -187.5t-194 -63.5q-66 0 -117 18l-32 -49h-120zM314 745h160l-115 -142h-135zM195 246q0 -25 3 -46l160 240q-21 11 -53 11q-54 0 -82 -32
t-28 -111v-62zM414 308q0 9 -0.5 17.5t-1.5 16.5l-154 -231q18 -7 47 -7q53 0 81 31.5t28 110.5v62z" />
    <glyph glyph-name="uni0200" unicode="&#x200;" horiz-adv-x="726" 
d="M444 750l274 -750h-171l-60 180h-260l-60 -180h-159l264 750h172zM265 309h182l-57 173q-11 35 -17.5 64t-15.5 69q-9 -40 -16.5 -69t-18.5 -64zM326 803h-94l-72 142h115zM496 803h-95l-75 142h120z" />
    <glyph glyph-name="uni0201" unicode="&#x201;" horiz-adv-x="557" 
d="M503 0h-114l-14 48q-29 -22 -77.5 -40t-106.5 -18q-159 0 -159 162v29q0 89 64 124.5t192 35.5h70v29q0 25 -4 42t-14.5 27t-29 14t-47.5 4q-16 0 -36.5 -2t-43 -6t-45 -9.5t-42.5 -12.5v108q20 7 44.5 12.5t50 9.5t50.5 6.5t46 2.5q69 0 111.5 -16t66 -43.5t31 -64
t7.5 -76.5v-366zM358 244h-72q-60 0 -84 -15t-24 -55v-10q0 -35 14.5 -50t45.5 -15q29 0 61 9.5t59 26.5v109zM281 603h-94l-72 142h115zM451 603h-95l-75 142h120z" />
    <glyph glyph-name="uni0202" unicode="&#x202;" horiz-adv-x="726" 
d="M444 750l274 -750h-171l-60 180h-260l-60 -180h-159l264 750h172zM265 309h182l-57 173q-11 35 -17.5 64t-15.5 69q-9 -40 -16.5 -69t-18.5 -64zM357 950q34 0 61 -11.5t45.5 -31t29 -46.5t11.5 -57h-85q-6 61 -62 61t-62 -61h-85q1 30 11.5 57t29.5 46.5t45.5 31
t60.5 11.5z" />
    <glyph glyph-name="uni0203" unicode="&#x203;" horiz-adv-x="557" 
d="M503 0h-114l-14 48q-29 -22 -77.5 -40t-106.5 -18q-159 0 -159 162v29q0 89 64 124.5t192 35.5h70v29q0 25 -4 42t-14.5 27t-29 14t-47.5 4q-16 0 -36.5 -2t-43 -6t-45 -9.5t-42.5 -12.5v108q20 7 44.5 12.5t50 9.5t50.5 6.5t46 2.5q69 0 111.5 -16t66 -43.5t31 -64
t7.5 -76.5v-366zM358 244h-72q-60 0 -84 -15t-24 -55v-10q0 -35 14.5 -50t45.5 -15q29 0 61 9.5t59 26.5v109zM283 750q34 0 61 -11.5t45.5 -31t29 -46.5t11.5 -57h-85q-6 61 -62 61t-62 -61h-85q1 30 11.5 57t29.5 46.5t45.5 31t60.5 11.5z" />
    <glyph glyph-name="uni0204" unicode="&#x204;" horiz-adv-x="618" 
d="M561 750v-125h-339v-179h307v-124h-307v-197h354v-125h-508v750h493zM306 803h-94l-72 142h115zM476 803h-95l-75 142h120z" />
    <glyph glyph-name="uni0205" unicode="&#x205;" horiz-adv-x="586" 
d="M548 225h-357v-11q0 -64 34 -90t114 -26q33 0 78.5 5t84.5 19v-105q-18 -7 -40 -12.5t-46 -9t-48 -5t-45 -1.5q-141 0 -209.5 60t-68.5 192v67q0 69 19.5 118t54 80t80 45.5t98.5 14.5q57 0 103.5 -13.5t79 -45t50.5 -83.5t18 -129v-70zM406 320v19q0 52 -24.5 84.5
t-82.5 32.5q-55 0 -81.5 -32.5t-26.5 -85.5v-18h215zM274 603h-94l-72 142h115zM444 603h-95l-75 142h120z" />
    <glyph glyph-name="uni0206" unicode="&#x206;" horiz-adv-x="618" 
d="M561 750v-125h-339v-179h307v-124h-307v-197h354v-125h-508v750h493zM326 950q34 0 61 -11.5t45.5 -31t29 -46.5t11.5 -57h-85q-6 61 -62 61t-62 -61h-85q1 30 11.5 57t29.5 46.5t45.5 31t60.5 11.5z" />
    <glyph glyph-name="uni0207" unicode="&#x207;" horiz-adv-x="586" 
d="M548 225h-357v-11q0 -64 34 -90t114 -26q33 0 78.5 5t84.5 19v-105q-18 -7 -40 -12.5t-46 -9t-48 -5t-45 -1.5q-141 0 -209.5 60t-68.5 192v67q0 69 19.5 118t54 80t80 45.5t98.5 14.5q57 0 103.5 -13.5t79 -45t50.5 -83.5t18 -129v-70zM406 320v19q0 52 -24.5 84.5
t-82.5 32.5q-55 0 -81.5 -32.5t-26.5 -85.5v-18h215zM293 750q34 0 61 -11.5t45.5 -31t29 -46.5t11.5 -57h-85q-6 61 -62 61t-62 -61h-85q1 30 11.5 57t29.5 46.5t45.5 31t60.5 11.5z" />
    <glyph glyph-name="uni0208" unicode="&#x208;" horiz-adv-x="290" 
d="M222 0h-154v750h154v-750zM116 803h-94l-72 142h115zM286 803h-95l-75 142h120z" />
    <glyph glyph-name="uni0209" unicode="&#x209;" horiz-adv-x="280" 
d="M215 0h-150v552h150v-552zM103 603h-94l-72 142h115zM273 603h-95l-75 142h120z" />
    <glyph glyph-name="uni020A" unicode="&#x20a;" horiz-adv-x="290" 
d="M222 0h-154v750h154v-750zM145 950q34 0 61 -11.5t45.5 -31t29 -46.5t11.5 -57h-85q-6 61 -62 61t-62 -61h-85q1 30 11.5 57t29.5 46.5t45.5 31t60.5 11.5z" />
    <glyph glyph-name="uni020B" unicode="&#x20b;" horiz-adv-x="280" 
d="M215 0h-150v552h150v-552zM140 750q34 0 61 -11.5t45.5 -31t29 -46.5t11.5 -57h-85q-6 61 -62 61t-62 -61h-85q1 30 11.5 57t29.5 46.5t45.5 31t60.5 11.5z" />
    <glyph glyph-name="uni020C" unicode="&#x20c;" horiz-adv-x="758" 
d="M713 315q0 -163 -86.5 -245.5t-247.5 -82.5t-247.5 82.5t-86.5 245.5v120q0 81 23 142t66.5 102.5t105 62.5t139.5 21t139.5 -21t105 -62.5t66.5 -102.5t23 -142v-120zM558 426q0 110 -45 158.5t-134 48.5t-134 -48.5t-45 -158.5v-102q0 -111 45 -159t134 -48t134 48
t45 159v102zM331 803h-94l-72 142h115zM501 803h-95l-75 142h120z" />
    <glyph glyph-name="uni020D" unicode="&#x20d;" horiz-adv-x="609" 
d="M564 239q0 -124 -66 -187.5t-194 -63.5q-127 0 -193 63.5t-66 187.5v76q0 121 66 186t193 65q128 0 194 -65t66 -186v-76zM414 308q0 79 -28 111t-81 32q-54 0 -82 -32t-28 -111v-62q0 -79 28 -110.5t82 -31.5q53 0 81 31.5t28 110.5v62zM276 603h-94l-72 142h115z
M446 603h-95l-75 142h120z" />
    <glyph glyph-name="uni020E" unicode="&#x20e;" horiz-adv-x="758" 
d="M713 315q0 -163 -86.5 -245.5t-247.5 -82.5t-247.5 82.5t-86.5 245.5v120q0 81 23 142t66.5 102.5t105 62.5t139.5 21t139.5 -21t105 -62.5t66.5 -102.5t23 -142v-120zM558 426q0 110 -45 158.5t-134 48.5t-134 -48.5t-45 -158.5v-102q0 -111 45 -159t134 -48t134 48
t45 159v102zM379 950q34 0 61 -11.5t45.5 -31t29 -46.5t11.5 -57h-85q-6 61 -62 61t-62 -61h-85q1 30 11.5 57t29.5 46.5t45.5 31t60.5 11.5z" />
    <glyph glyph-name="uni020F" unicode="&#x20f;" horiz-adv-x="609" 
d="M564 239q0 -124 -66 -187.5t-194 -63.5q-127 0 -193 63.5t-66 187.5v76q0 121 66 186t193 65q128 0 194 -65t66 -186v-76zM414 308q0 79 -28 111t-81 32q-54 0 -82 -32t-28 -111v-62q0 -79 28 -110.5t82 -31.5q53 0 81 31.5t28 110.5v62zM304 750q34 0 61 -11.5t45.5 -31
t29 -46.5t11.5 -57h-85q-6 61 -62 61t-62 -61h-85q1 30 11.5 57t29.5 46.5t45.5 31t60.5 11.5z" />
    <glyph glyph-name="uni0210" unicode="&#x210;" horiz-adv-x="685" 
d="M68 750h300q61 0 109.5 -8t82 -30t51.5 -61t18 -101v-61q0 -75 -26.5 -116t-82.5 -60l147 -313h-163l-135 293h-147v-293h-154v750zM222 635v-230h109q41 0 68.5 4t44.5 14.5t24 29.5t7 48v46q0 48 -29 68t-98 20h-126zM319 803h-94l-72 142h115zM489 803h-95l-75 142
h120z" />
    <glyph glyph-name="uni0211" unicode="&#x211;" horiz-adv-x="400" 
d="M386 429q-52 -3 -99.5 -18.5t-77.5 -38.5v-372h-149v552h116l12 -71q13 13 33.5 27.5t46 26.5t55.5 20.5t63 10.5v-137zM211 603h-94l-72 142h115zM381 603h-95l-75 142h120z" />
    <glyph glyph-name="uni0212" unicode="&#x212;" horiz-adv-x="685" 
d="M68 750h300q61 0 109.5 -8t82 -30t51.5 -61t18 -101v-61q0 -75 -26.5 -116t-82.5 -60l147 -313h-163l-135 293h-147v-293h-154v750zM222 635v-230h109q41 0 68.5 4t44.5 14.5t24 29.5t7 48v46q0 48 -29 68t-98 20h-126zM339 950q34 0 61 -11.5t45.5 -31t29 -46.5
t11.5 -57h-85q-6 61 -62 61t-62 -61h-85q1 30 11.5 57t29.5 46.5t45.5 31t60.5 11.5z" />
    <glyph glyph-name="uni0213" unicode="&#x213;" horiz-adv-x="400" 
d="M386 429q-52 -3 -99.5 -18.5t-77.5 -38.5v-372h-149v552h116l12 -71q13 13 33.5 27.5t46 26.5t55.5 20.5t63 10.5v-137zM213 750q34 0 61 -11.5t45.5 -31t29 -46.5t11.5 -57h-85q-6 61 -62 61t-62 -61h-85q1 30 11.5 57t29.5 46.5t45.5 31t60.5 11.5z" />
    <glyph glyph-name="uni0214" unicode="&#x214;" horiz-adv-x="752" 
d="M217 750v-440q0 -53 9 -88t28.5 -56t50 -29.5t72.5 -8.5q43 0 73.5 8.5t49.5 29.5t27.5 56t8.5 88v440h154v-473q0 -152 -78 -221t-235 -69q-161 0 -238 68.5t-77 221.5v473h155zM352 803h-94l-72 142h115zM522 803h-95l-75 142h120z" />
    <glyph glyph-name="uni0215" unicode="&#x215;" 
d="M56 552h150v-357q0 -40 11 -60.5t49 -20.5q29 0 62 10t62 30v398h150v-552h-117l-12 46q-41 -29 -91 -43t-92 -14q-49 0 -82 11.5t-53 33.5t-28.5 52.5t-8.5 68.5v397zM272 603h-94l-72 142h115zM442 603h-95l-75 142h120z" />
    <glyph glyph-name="uni0216" unicode="&#x216;" horiz-adv-x="752" 
d="M217 750v-440q0 -53 9 -88t28.5 -56t50 -29.5t72.5 -8.5q43 0 73.5 8.5t49.5 29.5t27.5 56t8.5 88v440h154v-473q0 -152 -78 -221t-235 -69q-161 0 -238 68.5t-77 221.5v473h155zM376 950q34 0 61 -11.5t45.5 -31t29 -46.5t11.5 -57h-85q-6 61 -62 61t-62 -61h-85
q1 30 11.5 57t29.5 46.5t45.5 31t60.5 11.5z" />
    <glyph glyph-name="uni0217" unicode="&#x217;" 
d="M56 552h150v-357q0 -40 11 -60.5t49 -20.5q29 0 62 10t62 30v398h150v-552h-117l-12 46q-41 -29 -91 -43t-92 -14q-49 0 -82 11.5t-53 33.5t-28.5 52.5t-8.5 68.5v397zM300 750q34 0 61 -11.5t45.5 -31t29 -46.5t11.5 -57h-85q-6 61 -62 61t-62 -61h-85q1 30 11.5 57
t29.5 46.5t45.5 31t60.5 11.5z" />
    <glyph glyph-name="uni0218" unicode="&#x218;" horiz-adv-x="619" 
d="M583 215q0 -51 -14.5 -92.5t-47.5 -71t-87 -45.5t-133 -16q-27 0 -59 2t-65.5 6t-67 11t-63.5 17v126q74 -23 133.5 -30t101.5 -7q80 0 113 22.5t33 68.5q0 20 -4.5 34.5t-18 25.5t-38.5 20.5t-65 20.5l-80 21q-83 22 -128 72t-45 143q0 108 63 162.5t209 54.5
q31 0 62 -1.5t59.5 -5t52.5 -8t42 -10.5v-117q-40 11 -90.5 15.5t-92.5 4.5q-46 0 -75.5 -5.5t-46 -16.5t-23 -27.5t-6.5 -39.5q0 -22 6.5 -36.5t20.5 -24t35 -17t51 -14.5l81 -21q54 -14 90 -33t57.5 -45t30.5 -61t9 -82zM267 -50h134l-66 -187h-109z" />
    <glyph glyph-name="uni0219" unicode="&#x219;" horiz-adv-x="494" 
d="M464 162q0 -37 -10.5 -68.5t-35.5 -54.5t-66.5 -36t-102.5 -13q-21 0 -47 1.5t-53.5 5t-55.5 9.5t-53 15v111q66 -20 113 -25t80 -5q55 0 75 12.5t20 40.5q0 16 -2.5 25.5t-11 15.5t-23.5 10.5t-40 10.5l-54 13q-44 10 -73.5 26t-47.5 37t-25.5 48t-7.5 60q0 41 12 72
t38.5 51.5t68.5 31t101 10.5q51 0 93 -6t68 -14v-107q-30 8 -69.5 13.5t-73.5 5.5q-32 0 -52 -2.5t-31.5 -8.5t-16 -15.5t-4.5 -23.5t3 -22.5t12 -15t25 -11.5t41 -11l55 -14q47 -12 76.5 -26.5t46 -34.5t22.5 -47t6 -64zM211 -50h134l-66 -187h-109z" />
    <glyph glyph-name="uni021A" unicode="&#x21a;" horiz-adv-x="642" 
d="M20 616v134h602v-134h-224v-616h-154v616h-224zM255 -50h134l-66 -187h-109z" />
    <glyph glyph-name="uni021B" unicode="&#x21b;" horiz-adv-x="436" 
d="M406 442h-147v-266q0 -39 11 -54.5t44 -15.5q24 0 48 4t44 14v-104q-27 -16 -65.5 -23t-76.5 -7q-82 0 -118.5 35.5t-36.5 109.5v307h-89v110h89v115l150 33v-148h147v-110zM172 -50h134l-66 -187h-109z" />
    <glyph glyph-name="uni021C" unicode="&#x21c;" horiz-adv-x="565" 
d="M145 335v119l115 11q57 5 85 24.5t28 67.5q0 21 -6.5 36.5t-22.5 25.5t-42.5 14.5t-65.5 4.5q-41 0 -93 -6.5t-100 -22.5v122q19 7 43.5 12.5t51 9.5t53.5 6t50 2q143 0 213.5 -46t70.5 -145q0 -45 -17.5 -87.5t-62.5 -74.5q29 -12 49 -29t32 -37.5t17.5 -43.5t5.5 -46
q0 -63 -27 -107.5t-71 -75t-101 -48.5t-116.5 -28t-117.5 -14.5t-104 -7.5v128q82 6 152.5 14.5t122 25t80.5 43.5t29 72q0 44 -19 67.5t-56 33.5q-29 -6 -63 -9z" />
    <glyph glyph-name="uni021D" unicode="&#x21d;" horiz-adv-x="565" 
d="M148 140v110l113 11q58 5 89.5 27.5t31.5 75.5q0 45 -33.5 66t-112.5 21q-38 0 -91 -6.5t-101 -22.5v111q19 7 43.5 13t50.5 10t53 6t50 2q143 0 211 -46.5t68 -145.5q0 -44 -17 -87t-61 -75q58 -23 80.5 -64.5t22.5 -87.5q0 -64 -27 -109.5t-71.5 -76t-101 -48.5
t-116 -28t-116.5 -14t-101 -7v123q84 6 155.5 14.5t124.5 25t83 44.5t30 74q0 44 -17.5 69.5t-56.5 36.5q-16 -4 -34 -6.5t-38 -4.5z" />
    <glyph glyph-name="uni021E" unicode="&#x21e;" horiz-adv-x="739" 
d="M671 750v-750h-154v317h-295v-317h-154v750h154v-295h295v295h154zM423 792h-108l-107 161h100l61 -77l61 77h100z" />
    <glyph glyph-name="uni021F" unicode="&#x21f;" horiz-adv-x="603" 
d="M547 0h-150v359q0 40 -11 60t-51 20q-29 0 -62 -10t-63 -27v-402h-150v744l150 30v-255q36 20 81 33.5t84 13.5q48 0 80.5 -12t53 -34t29.5 -53t9 -68v-399zM386 792h-108l-107 161h100l61 -77l61 77h100z" />
    <glyph glyph-name="uni0220" unicode="&#x220;" horiz-adv-x="736" 
d="M665 -216h-154v738q0 53 -19.5 80.5t-72.5 27.5q-25 0 -51.5 -6t-52 -15.5t-49.5 -21t-44 -23.5v-564h-154v750h134l13 -65q62 41 124.5 60.5t122.5 19.5q50 0 88 -15.5t63.5 -43t38.5 -66.5t13 -86v-770z" />
    <glyph glyph-name="uni0221" unicode="&#x221;" horiz-adv-x="722" 
d="M237 -10q-50 0 -85 14.5t-58 40t-33.5 60.5t-10.5 76v160q0 60 16 102.5t45.5 70t71 40t93.5 12.5q38 0 75 -7.5t62 -20.5v206l150 30v-643q33 15 73 15q61 0 88.5 -28t27.5 -70q0 -51 -34.5 -80t-93.5 -29q-37 0 -65.5 12.5t-48.5 30.5q-14 -20 -26.5 -41.5t-21.5 -39.5
h-100q16 38 40.5 79.5t57.5 77.5l-3 10q-19 -14 -43.5 -28t-52.5 -25t-59.5 -18t-64.5 -7zM413 426q-20 14 -48.5 20.5t-51.5 6.5q-27 0 -48 -5.5t-35.5 -18.5t-22 -35t-7.5 -56v-134q0 -46 18.5 -71.5t62.5 -25.5q32 0 66 9t66 30v280zM631 19q17 0 28.5 6.5t11.5 21.5
q0 11 -7.5 18.5t-28.5 7.5q-16 0 -31 -6t-29 -16q8 -15 21 -23.5t35 -8.5z" />
    <glyph glyph-name="uni0222" unicode="&#x222;" horiz-adv-x="645" 
d="M293 327l-20 -10q-25 -12 -42.5 -23.5t-29 -24t-16.5 -28t-5 -35.5q0 -46 33.5 -72t103.5 -26q69 0 103 26.5t34 71.5q0 43 -26 69t-93 42zM377 762q110 -10 161 -64.5t51 -137.5q0 -62 -29 -104.5t-89 -70.5q77 -25 106.5 -73t29.5 -109q0 -46 -17 -85.5t-52 -68
t-88.5 -45t-125.5 -16.5q-79 0 -134 15.5t-89.5 43t-50 65.5t-15.5 83q0 61 31 108t105 73q-61 23 -88.5 70.5t-27.5 110.5q0 90 56.5 143t156.5 62v-117q-36 -9 -50.5 -33.5t-14.5 -55.5q0 -42 21.5 -65.5t69.5 -34.5l55 -13l32 14q32 14 48.5 37.5t17.5 61.5q0 34 -13 59
t-57 32v115z" />
    <glyph glyph-name="uni0223" unicode="&#x223;" horiz-adv-x="597" 
d="M274 336l-18 -10q-47 -26 -68 -53t-21 -68q0 -23 7 -42t22.5 -33t40 -22t59.5 -8q67 0 97.5 30.5t30.5 76.5q0 42 -26 71t-90 48zM355 775q50 -5 86 -21.5t59 -43t34 -61.5t11 -75q0 -59 -28 -104.5t-89 -77.5q68 -26 100 -74t32 -108q0 -46 -14.5 -86t-46 -70t-80 -47.5
t-117.5 -17.5q-74 0 -125.5 16t-83 44.5t-45.5 67.5t-14 84q0 60 31.5 108.5t100.5 76.5q-59 28 -87 77.5t-28 107.5q0 89 52 142t139 62v-110q-30 -10 -44.5 -34t-14.5 -58q0 -47 23.5 -72t67.5 -38l47 -14l29 14q30 14 48.5 40.5t18.5 69.5q0 33 -11.5 58.5t-50.5 36.5
v107z" />
    <glyph glyph-name="uni0224" unicode="&#x224;" horiz-adv-x="628" 
d="M253 198q-13 -17 -27.5 -34.5t-29.5 -34.5h408v-134q0 -90 -43.5 -129.5t-141.5 -39.5q-44 0 -81 9v107q15 -4 32.5 -5.5t32.5 -1.5q26 0 40.5 12.5t14.5 44.5v8h-434v120l333 433q12 16 27 34t30 35h-375v128h553v-119z" />
    <glyph glyph-name="uni0225" unicode="&#x225;" horiz-adv-x="509" 
d="M472 457l-204 -278q-13 -17 -28 -34t-32 -37h278v-117q0 -82 -37.5 -123t-120.5 -41q-29 0 -50.5 2.5t-44.5 7.5v103q15 -5 32.5 -6.5t36.5 -1.5q29 0 45.5 12.5t16.5 45.5v10h-335v95l204 277q12 16 27.5 35.5t30.5 36.5h-251v108h432v-95z" />
    <glyph glyph-name="uni0226" unicode="&#x226;" horiz-adv-x="726" 
d="M444 750l274 -750h-171l-60 180h-260l-60 -180h-159l264 750h172zM265 309h182l-57 173q-11 35 -17.5 64t-15.5 69q-9 -40 -16.5 -69t-18.5 -64zM302 930h110v-118h-110v118z" />
    <glyph glyph-name="uni0227" unicode="&#x227;" horiz-adv-x="557" 
d="M503 0h-114l-14 48q-29 -22 -77.5 -40t-106.5 -18q-159 0 -159 162v29q0 89 64 124.5t192 35.5h70v29q0 25 -4 42t-14.5 27t-29 14t-47.5 4q-16 0 -36.5 -2t-43 -6t-45 -9.5t-42.5 -12.5v108q20 7 44.5 12.5t50 9.5t50.5 6.5t46 2.5q69 0 111.5 -16t66 -43.5t31 -64
t7.5 -76.5v-366zM358 244h-72q-60 0 -84 -15t-24 -55v-10q0 -35 14.5 -50t45.5 -15q29 0 61 9.5t59 26.5v109zM225 730h110v-118h-110v118z" />
    <glyph glyph-name="uni0228" unicode="&#x228;" horiz-adv-x="618" 
d="M321 -269q-20 0 -44 2t-46 6v78q15 -2 33 -3.5t41 -1.5q37 0 52 11.5t15 25.5v8q0 18 -16 27.5t-62 9.5h-22v106h-204v750h493v-125h-339v-179h307v-124h-307v-197h354v-125h-204v-50q33 -3 54.5 -11t34 -20.5t17.5 -29.5t5 -37v-8q0 -62 -44.5 -87.5t-117.5 -25.5z" />
    <glyph glyph-name="uni0229" unicode="&#x229;" horiz-adv-x="586" 
d="M291 -269q-20 0 -44 2t-46 6v78q15 -2 33 -3.5t41 -1.5q37 0 52 11.5t15 25.5v8q0 18 -16 27.5t-62 9.5h-22v101q-100 16 -148.5 75t-48.5 171v67q0 69 19.5 118t54 80t80 45.5t98.5 14.5q57 0 103.5 -13.5t79 -45t50.5 -83.5t18 -129v-70h-357v-11q0 -64 34 -90t114 -26
q33 0 78.5 5t84.5 19v-105q-32 -13 -76 -19.5t-84 -8.5v-39q33 -3 54.5 -11t34 -20.5t17.5 -29.5t5 -37v-8q0 -62 -44.5 -87.5t-117.5 -25.5zM406 320v19q0 52 -24.5 84.5t-82.5 32.5q-55 0 -81.5 -32.5t-26.5 -85.5v-18h215z" />
    <glyph glyph-name="uni022A" unicode="&#x22a;" horiz-adv-x="758" 
d="M713 315q0 -163 -86.5 -245.5t-247.5 -82.5t-247.5 82.5t-86.5 245.5v120q0 81 23 142t66.5 102.5t105 62.5t139.5 21t139.5 -21t105 -62.5t66.5 -102.5t23 -142v-120zM558 426q0 110 -45 158.5t-134 48.5t-134 -48.5t-45 -158.5v-102q0 -111 45 -159t134 -48t134 48
t45 159v102zM230 905h108v-118h-108v118zM421 905h108v-118h-108v118zM229 1036h300v-94h-300v94z" />
    <glyph glyph-name="uni022B" unicode="&#x22b;" horiz-adv-x="609" 
d="M564 239q0 -124 -66 -187.5t-194 -63.5q-127 0 -193 63.5t-66 187.5v76q0 121 66 186t193 65q128 0 194 -65t66 -186v-76zM414 308q0 79 -28 111t-81 32q-54 0 -82 -32t-28 -111v-62q0 -79 28 -110.5t82 -31.5q53 0 81 31.5t28 110.5v62zM155 703h108v-118h-108v118z
M346 703h108v-118h-108v118zM154 825h300v-94h-300v94z" />
    <glyph glyph-name="uni022C" unicode="&#x22c;" horiz-adv-x="758" 
d="M713 315q0 -163 -86.5 -245.5t-247.5 -82.5t-247.5 82.5t-86.5 245.5v120q0 81 23 142t66.5 102.5t105 62.5t139.5 21t139.5 -21t105 -62.5t66.5 -102.5t23 -142v-120zM558 426q0 110 -45 158.5t-134 48.5t-134 -48.5t-45 -158.5v-102q0 -111 45 -159t134 -48t134 48
t45 159v102zM440 776q-25 0 -41 7.5t-28 17t-22 17t-23 7.5q-16 0 -24 -14.5t-11 -34.5h-85q3 24 10 49t20 46t32.5 34t48.5 13q26 0 43 -7.5t29.5 -17t22.5 -17t22 -7.5q19 0 25 15.5t8 35.5h85q-2 -23 -8 -48t-19 -46.5t-33.5 -35.5t-51.5 -14zM229 1038h300v-94h-300v94z
" />
    <glyph glyph-name="uni022D" unicode="&#x22d;" horiz-adv-x="609" 
d="M564 239q0 -124 -66 -187.5t-194 -63.5q-127 0 -193 63.5t-66 187.5v76q0 121 66 186t193 65q128 0 194 -65t66 -186v-76zM414 308q0 79 -28 111t-81 32q-54 0 -82 -32t-28 -111v-62q0 -79 28 -110.5t82 -31.5q53 0 81 31.5t28 110.5v62zM365 578q-25 0 -41 7.5t-28 17
t-22 17t-23 7.5q-16 0 -24 -14.5t-11 -34.5h-85q3 24 10 49t20 46t32.5 34t48.5 13q26 0 43 -7.5t29.5 -17t22.5 -17t22 -7.5q19 0 25 15.5t8 35.5h85q-2 -23 -8 -48t-19 -46.5t-33.5 -35.5t-51.5 -14zM154 837h300v-94h-300v94z" />
    <glyph glyph-name="uni022E" unicode="&#x22e;" horiz-adv-x="758" 
d="M713 315q0 -163 -86.5 -245.5t-247.5 -82.5t-247.5 82.5t-86.5 245.5v120q0 81 23 142t66.5 102.5t105 62.5t139.5 21t139.5 -21t105 -62.5t66.5 -102.5t23 -142v-120zM558 426q0 110 -45 158.5t-134 48.5t-134 -48.5t-45 -158.5v-102q0 -111 45 -159t134 -48t134 48
t45 159v102zM324 930h110v-118h-110v118z" />
    <glyph glyph-name="uni022F" unicode="&#x22f;" horiz-adv-x="609" 
d="M564 239q0 -124 -66 -187.5t-194 -63.5q-127 0 -193 63.5t-66 187.5v76q0 121 66 186t193 65q128 0 194 -65t66 -186v-76zM414 308q0 79 -28 111t-81 32q-54 0 -82 -32t-28 -111v-62q0 -79 28 -110.5t82 -31.5q53 0 81 31.5t28 110.5v62zM249 730h110v-118h-110v118z" />
    <glyph glyph-name="uni0230" unicode="&#x230;" horiz-adv-x="758" 
d="M713 315q0 -163 -86.5 -245.5t-247.5 -82.5t-247.5 82.5t-86.5 245.5v120q0 81 23 142t66.5 102.5t105 62.5t139.5 21t139.5 -21t105 -62.5t66.5 -102.5t23 -142v-120zM558 426q0 110 -45 158.5t-134 48.5t-134 -48.5t-45 -158.5v-102q0 -111 45 -159t134 -48t134 48
t45 159v102zM324 910h110v-118h-110v118zM229 1036h300v-94h-300v94z" />
    <glyph glyph-name="uni0231" unicode="&#x231;" horiz-adv-x="609" 
d="M564 239q0 -124 -66 -187.5t-194 -63.5q-127 0 -193 63.5t-66 187.5v76q0 121 66 186t193 65q128 0 194 -65t66 -186v-76zM414 308q0 79 -28 111t-81 32q-54 0 -82 -32t-28 -111v-62q0 -79 28 -110.5t82 -31.5q53 0 81 31.5t28 110.5v62zM249 705h110v-118h-110v118z
M154 825h300v-94h-300v94z" />
    <glyph glyph-name="uni0232" unicode="&#x232;" horiz-adv-x="680" 
d="M419 296v-296h-154v294l-251 456h166l102 -205q17 -35 32 -68.5t29 -71.5q14 39 28 73.5t30 66.5l102 205h163zM190 927h300v-94h-300v94z" />
    <glyph glyph-name="uni0233" unicode="&#x233;" horiz-adv-x="580" 
d="M571 552l-276 -765h-157l76 214l-206 551h153l103 -310q8 -23 15.5 -51.5t14.5 -66.5q3 13 7.5 30t9 33.5t8.5 31t7 22.5l98 311h147zM140 727h300v-94h-300v94z" />
    <glyph glyph-name="uni0234" unicode="&#x234;" horiz-adv-x="384" 
d="M-28 0q15 55 44.5 97t68.5 70q-1 11 -1 22v23v532l150 30v-553q6 0 12.5 0.5t13.5 0.5q48 0 78 -10.5t47 -27t23 -37t6 -39.5q0 -25 -9 -46.5t-27.5 -38t-45.5 -26t-63 -9.5q-64 0 -101.5 20t-56.5 56q-24 -30 -37 -64h-102zM267 141q-18 0 -33 -3q0 -30 8.5 -47.5
t32.5 -17.5q18 0 30 8.5t12 26.5q0 14 -11.5 23.5t-38.5 9.5z" />
    <glyph glyph-name="uni0235" unicode="&#x235;" horiz-adv-x="693" 
d="M397 359q0 40 -11.5 60t-50.5 20q-29 0 -62.5 -9.5t-62.5 -29.5v-400h-150v552h117l11 -45q42 28 92 43.5t92 15.5q49 0 82.5 -12t54 -34t29.5 -53t9 -68v-178q6 0 12 0.5t12 0.5q47 0 77 -11t46.5 -27.5t22.5 -37t6 -39.5q0 -50 -35 -84.5t-107 -34.5q-63 0 -100 20
t-57 56q-11 -14 -20.5 -30t-16.5 -34h-102q16 55 45 97t68 70q-1 11 -1 22v23v147zM579 141q-17 0 -32 -3q0 -30 8 -47.5t32 -17.5q18 0 30 8.5t12 26.5q0 14 -11.5 23.5t-38.5 9.5z" />
    <glyph glyph-name="uni0236" unicode="&#x236;" horiz-adv-x="452" 
d="M117 442h-89v110h89v115l150 33v-148h147v-110h-147v-221q6 0 12.5 0.5t13.5 0.5q48 0 78 -10.5t47 -27t23 -37t6 -39.5q0 -25 -9 -46.5t-27.5 -38t-45.5 -26t-63 -9.5q-65 0 -102.5 19.5t-56.5 54.5q-22 -27 -36 -62h-102q15 55 44 96.5t69 70.5q-1 9 -1 18.5v20.5v236z
M300 141q-18 0 -33 -3q0 -30 8.5 -47.5t32.5 -17.5q18 0 30 8.5t12 26.5q0 14 -11.5 23.5t-38.5 9.5z" />
    <glyph glyph-name="uni0237" unicode="&#x237;" horiz-adv-x="307" 
d="M234 552v-596q0 -53 -10.5 -87.5t-31.5 -54.5t-53.5 -28.5t-76.5 -8.5q-32 0 -65 3t-59 10v118q21 -4 40 -5.5t38 -1.5q20 0 33.5 2.5t21 10.5t10.5 23t3 39v576h150z" />
    <glyph glyph-name="uni0238" unicode="&#x238;" horiz-adv-x="976" 
d="M738 566q95 0 141.5 -50t46.5 -132v-175q0 -61 -16.5 -103t-45 -67.5t-68 -37t-84.5 -11.5q-19 0 -41 3t-44.5 9t-44 15.5t-39.5 23.5l-9 -41h-94l-13 47q-38 -28 -85 -42.5t-105 -14.5q-50 0 -85 14.5t-58 40t-33.5 60.5t-10.5 76v160q0 60 16 102.5t45.5 70t71 40
t93.5 12.5q38 0 75 -7.5t62 -20.5v206l150 30v-256q35 20 80.5 34t94.5 14zM413 426q-20 14 -48.5 20.5t-51.5 6.5q-27 0 -48 -5.5t-35.5 -18.5t-22 -35t-7.5 -56v-134q0 -46 18.5 -71.5t62.5 -25.5q32 0 66 9t66 30v280zM563 141q29 -19 59.5 -25t50.5 -6q61 0 82 27.5
t21 86.5v121q0 52 -18.5 76t-66.5 24q-33 0 -67.5 -12t-60.5 -29v-263z" />
    <glyph glyph-name="uni0239" unicode="&#x239;" horiz-adv-x="976" 
d="M563 -216h-150v245q-68 -39 -171 -39q-97 0 -144.5 49.5t-47.5 131.5v170q0 61 16.5 103.5t46 69.5t70 39.5t89.5 12.5q51 0 94.5 -13t69.5 -36l11 35h83l14 -43q45 27 95 42t97 15q49 0 85 -13.5t59.5 -37.5t34.5 -57.5t11 -73.5v-176q0 -59 -15.5 -100.5t-45 -67.5
t-71 -38.5t-92.5 -12.5q-32 0 -68 5t-71 16v-226zM413 417q-19 17 -49 26.5t-59 9.5q-23 0 -42 -5.5t-33 -18.5t-22 -35t-8 -56v-134q0 -52 19 -74.5t67 -22.5q67 0 127 26v284zM563 121q23 -8 50 -12t50 -4q34 0 56 8t35 24t17.5 40.5t4.5 58.5v108q0 52 -18.5 76.5
t-66.5 24.5q-34 0 -68 -12.5t-60 -28.5v-283z" />
    <glyph glyph-name="uni023A" unicode="&#x23a;" horiz-adv-x="688" 
d="M444 750l54 -149l92 191h95l-146 -304l179 -488h-171l-60 180h-95l-107 -223h-95l107 223h-70l-60 -180h-159l264 750h172zM265 309h94l52 109l-21 64q-11 35 -17.5 64t-15.5 69q-9 -40 -16.5 -69t-18.5 -64z" />
    <glyph glyph-name="uni023B" unicode="&#x23b;" horiz-adv-x="621" 
d="M86 -43l46 97q-45 38 -65 100.5t-20 156.5v118q0 94 21 157.5t63 102t105 55t148 16.5q43 0 85 -3l17 35h95l-24 -49q8 -2 14 -4l12 -4v-127q-18 5 -39.5 8t-44.5 5l-227 -474q45 -23 129 -23q43 0 94 5t99 19v-127q-45 -18 -101.5 -24.5t-107.5 -6.5q-109 0 -177 23
l-27 -56h-95zM203 315q0 -56 10 -92l193 403h-4q-56 0 -94 -10t-61.5 -32t-33.5 -57t-10 -85v-127z" />
    <glyph glyph-name="uni023C" unicode="&#x23c;" horiz-adv-x="527" 
d="M82 -43l39 83q-76 60 -76 199v66q0 139 69.5 200t202.5 61q14 0 27.5 -0.5t27.5 -1.5l24 50h95l-31 -65l17 -6v-110q-13 4 -29.5 7.5t-36.5 5.5l-158 -329q31 -12 86 -12q33 0 70.5 5t77.5 19v-114q-17 -7 -39 -12t-45 -8.5t-45 -5t-40 -1.5q-67 0 -120 14l-21 -45h-95z
M193 242q0 -27 3 -46l121 254q-36 -2 -60 -12.5t-38.5 -28t-20 -42.5t-5.5 -57v-68z" />
    <glyph glyph-name="uni023D" unicode="&#x23d;" horiz-adv-x="585" 
d="M222 750v-289h128v-113h-128v-214h343v-134h-497v348h-95v113h95v289h154z" />
    <glyph glyph-name="uni023E" unicode="&#x23e;" horiz-adv-x="642" 
d="M20 616v134h491l20 42h95l-20 -42h16v-134h-81l-143 -300v-316h-152l-20 -43h-95l113 236v423h-224zM398 514l48 102h-48v-102z" />
    <glyph glyph-name="uni023F" unicode="&#x23f;" horiz-adv-x="494" 
d="M464 162q0 -36 -10 -67t-34 -54t-63.5 -36.5t-97.5 -14.5q46 -32 98 -46.5t109 -13.5v-105q-35 -2 -72 0t-74.5 12.5t-74.5 31t-71 55.5q-29 29 -50 46t-37.5 27t-28.5 14.5t-22 8.5l4 25v87q66 -20 113 -25t80 -5q55 0 75 12.5t20 40.5q0 16 -2.5 25.5t-11 15.5
t-23.5 10.5t-40 10.5l-54 13q-44 10 -73.5 26t-47.5 37t-25.5 48t-7.5 60q0 41 12 72t38.5 51.5t68.5 31t101 10.5q51 0 93 -6t68 -14v-107q-30 8 -69.5 13.5t-73.5 5.5q-32 0 -52 -2.5t-31.5 -8.5t-16 -15.5t-4.5 -23.5t3 -22.5t12 -15t25 -11.5t41 -11l55 -14
q47 -12 76.5 -26.5t46 -34.5t22.5 -47t6 -64z" />
    <glyph glyph-name="uni0240" unicode="&#x240;" horiz-adv-x="503" 
d="M29 95l204 277q12 16 27.5 35.5t30.5 36.5h-251v108h432v-95l-204 -278q-12 -16 -21.5 -29t-20.5 -26t-24.5 -27t-32.5 -32q35 -14 58 -28.5t49 -31.5q19 -12 41 -25t48 -23t56.5 -15.5t67.5 -3.5v-113q-71 -7 -149 16t-156 83q-30 23 -52.5 36.5t-40.5 21.5t-33 11.5
t-29 6.5v95z" />
    <glyph glyph-name="uni0241" unicode="&#x241;" horiz-adv-x="520" 
d="M169 0v204q0 39 5 69t17 55.5t32.5 48.5t52.5 48q24 18 37.5 31.5t20 27t8.5 28.5t2 38q0 25 -7 41.5t-22.5 26.5t-40.5 14t-61 4q-43 0 -91 -10t-88 -26v118q35 16 88 27.5t109 11.5q76 0 126 -13.5t79.5 -39.5t41.5 -63.5t12 -84.5q0 -45 -8 -74.5t-22.5 -51.5t-34 -39
t-41.5 -37q-28 -24 -44.5 -42t-25.5 -34t-11.5 -33.5t-2.5 -40.5v-204h-131z" />
    <glyph glyph-name="uni0242" unicode="&#x242;" horiz-adv-x="469" 
d="M160 0v82q0 30 1.5 54t9.5 46t25.5 44.5t49.5 48.5q21 17 32.5 28.5t17 23t6.5 25.5t1 37q0 30 -17.5 47.5t-71.5 17.5q-46 0 -93 -12.5t-87 -30.5v112q35 16 83 29.5t104 13.5q69 0 111.5 -13.5t66.5 -37t32 -54.5t8 -66q0 -45 -7 -75.5t-18.5 -51.5t-27 -35.5
t-32.5 -26.5q-23 -17 -36 -30t-19.5 -27.5t-8 -31.5t-1.5 -42v-75h-129z" />
    <glyph glyph-name="uni0243" unicode="&#x243;" horiz-adv-x="676" 
d="M-23 264h91v486h294q55 0 100.5 -6.5t78 -25t50 -51t17.5 -83.5v-50q0 -22 -4.5 -43t-15 -39.5t-29 -33t-46.5 -23.5q65 -14 93 -50t28 -89v-78q0 -54 -16.5 -88.5t-50 -54.5t-85.5 -27.5t-123 -7.5h-291v163h-91v101zM222 634v-193h126q23 0 41.5 3t32 12.5t21 27
t7.5 45.5v30q0 46 -24.5 60.5t-86.5 14.5h-117zM222 333v-69h129v-101h-129v-47h121q40 0 65.5 4t40.5 14.5t20.5 27.5t5.5 44v35q0 25 -6 43t-20 28.5t-37 15.5t-58 5h-132z" />
    <glyph glyph-name="uni0244" unicode="&#x244;" horiz-adv-x="752" 
d="M217 750v-296h319v296h154v-296h78v-103h-78v-74q0 -152 -78 -221t-235 -69q-161 0 -238 68.5t-77 221.5v74h-78v103h78v296h155zM377 128q43 0 73.5 8.5t49.5 29.5t27.5 56t8.5 88v41h-319v-41q0 -53 9 -88t28.5 -56t50 -29.5t72.5 -8.5z" />
    <glyph glyph-name="uni0245" unicode="&#x245;" horiz-adv-x="716" 
d="M542 0l-147 446q-13 38 -22 73.5t-19 85.5q-8 -50 -18 -86t-23 -73l-149 -446h-158l263 750h172l269 -750h-168z" />
    <glyph glyph-name="uni0246" unicode="&#x246;" horiz-adv-x="618" 
d="M477 750l20 42h95l-31 -65v-102h-49l-86 -179h103v-124h-162l-95 -197h304v-125h-364l-20 -43h-95l20 43h-49v750h409zM222 446h109l86 179h-195v-179zM222 218l50 104h-50v-104z" />
    <glyph glyph-name="uni0247" unicode="&#x247;" horiz-adv-x="586" 
d="M104 -43l35 73q-94 60 -94 211v67q0 69 19.5 118t54 80t80 45.5t98.5 14.5q26 0 49 -2.5t44 -8.5l28 59h95l-46 -96q39 -31 60 -84.5t21 -138.5v-70h-221l-58 -121q28 -6 70 -6q33 0 78.5 5t84.5 19v-105q-18 -7 -40 -12.5t-46 -9t-48 -5t-45 -1.5q-57 0 -104 11l-20 -43
h-95zM277 320l63 130q-18 6 -41 6q-55 0 -81.5 -32.5t-26.5 -85.5v-18h86zM191 214q0 -34 9 -56l32 67h-41v-11zM406 339q0 20 -5 42l-29 -61h34v19z" />
    <glyph glyph-name="uni0248" unicode="&#x248;" horiz-adv-x="450" 
d="M384 750v-289h73v-113h-73v-139q0 -53 -10 -93.5t-35.5 -68.5t-68 -42.5t-106.5 -14.5q-30 0 -68.5 6t-67.5 20v130q31 -11 61 -16t54 -5q50 0 68.5 21t18.5 77v125h-145v113h145v289h154z" />
    <glyph glyph-name="uni0249" unicode="&#x249;" horiz-adv-x="307" 
d="M234 552v-188h90v-101h-90v-307q0 -53 -10.5 -87.5t-31.5 -54.5t-53.5 -28.5t-76.5 -8.5q-32 0 -65 3t-59 10v118q21 -4 40 -5.5t38 -1.5q20 0 33.5 2.5t21 10.5t10.5 23t3 39v287h-96v101h96v188h150zM234 633h-150v141h150v-141z" />
    <glyph glyph-name="uni024A" unicode="&#x24a;" horiz-adv-x="729" 
d="M285 -11q-121 0 -180.5 62t-59.5 164v266q0 76 20.5 129.5t57.5 87.5t88 49.5t112 15.5q31 0 62 -4.5t58.5 -12.5t50.5 -19t39 -25l14 45h111v-752q0 -26 2.5 -43.5t9 -28t17.5 -15t29 -4.5q15 0 35.5 2t43.5 8v-123q-15 -4 -27.5 -6.5t-25.5 -4t-28.5 -2.5t-37.5 -1
q-85 0 -128 46.5t-43 149.5v65q-43 -25 -99 -37t-121 -12zM505 588q-12 10 -30 19.5t-39.5 16t-45 10.5t-46.5 4q-29 0 -55 -6.5t-45.5 -23t-31.5 -44.5t-12 -70v-254q0 -66 30.5 -94t90.5 -28q54 0 100.5 11t83.5 27v432z" />
    <glyph glyph-name="uni024B" unicode="&#x24b;" horiz-adv-x="623" 
d="M242 -10q-97 0 -144.5 49.5t-47.5 131.5v170q0 61 16.5 103.5t46 69.5t70 39.5t89.5 12.5q51 0 94.5 -13t69.5 -36l11 35h116v-601q0 -32 15.5 -44.5t41.5 -12.5q12 0 30 1.5t36 6.5v-114q-28 -6 -50.5 -8.5t-57.5 -2.5q-84 0 -124.5 36t-40.5 123v93q-68 -39 -171 -39z
M413 417q-19 17 -49 26.5t-59 9.5q-23 0 -42 -5.5t-33 -18.5t-22 -35t-8 -56v-134q0 -52 19 -74.5t67 -22.5q67 0 127 26v284z" />
    <glyph glyph-name="uni024C" unicode="&#x24c;" horiz-adv-x="690" 
d="M-20 399h93v351h300q61 0 109.5 -8t82 -30t51.5 -61t18 -101v-61q0 -75 -26.5 -116t-82.5 -60l147 -313h-163l-135 293h-147v-293h-154v298h-93v101zM227 635v-230h109q41 0 68.5 4t44.5 14.5t24 29.5t7 48v46q0 48 -29 68t-98 20h-126z" />
    <glyph glyph-name="uni024D" unicode="&#x24d;" horiz-adv-x="400" 
d="M386 429q-52 -3 -99.5 -18.5t-77.5 -38.5v-35h114v-101h-114v-236h-149v236h-79v101h79v215h116l12 -71q13 13 33.5 27.5t46 26.5t55.5 20.5t63 10.5v-137z" />
    <glyph glyph-name="uni024E" unicode="&#x24e;" horiz-adv-x="671" 
d="M610 655h61v-101h-116l-140 -258v-296h-154v294l-143 260h-118v101h62l-52 95h166l47 -95h228l48 95h163zM339 405q14 39 28 73.5t30 66.5l4 9h-128l5 -9q17 -35 32 -68.5t29 -71.5z" />
    <glyph glyph-name="uni024F" unicode="&#x24f;" horiz-adv-x="577" 
d="M568 552l-52 -144h56v-101h-93l-187 -520h-157l76 214l-115 306h-91v101h54l-54 144h153l48 -144h169l46 144h147zM291 124q3 13 7.5 30t9 33.5t8.5 31t7 22.5l21 66h-105l22 -65q8 -23 15.5 -51.5t14.5 -66.5z" />
    <glyph glyph-name="gravecomb" unicode="&#x300;" 
d="M404 603h-135l-115 142h160z" />
    <glyph glyph-name="acutecomb" unicode="&#x301;" 
d="M275 745h160l-115 -142h-135z" />
    <glyph glyph-name="uni0302" unicode="&#x302;" 
d="M245 762h109l106 -161h-100l-61 77l-62 -77h-98z" />
    <glyph glyph-name="tildecomb" unicode="&#x303;" horiz-adv-x="598" 
d="M360 603q-25 0 -41 7.5t-28 17t-22 17t-23 7.5q-16 0 -24 -14.5t-11 -34.5h-85q3 24 10 49t20 46t32.5 34t48.5 13q26 0 43 -7.5t29.5 -17t22.5 -17t22 -7.5q19 0 25 15.5t8 35.5h85q-2 -23 -8 -48t-19 -46.5t-33.5 -35.5t-51.5 -14z" />
    <glyph glyph-name="uni0304" unicode="&#x304;" 
d="M150 727h300v-94h-300v94z" />
    <glyph glyph-name="uni0306" unicode="&#x306;" horiz-adv-x="610" 
d="M305 604q-34 0 -60.5 11.5t-45.5 31t-29.5 46.5t-11.5 57h85q4 -30 18.5 -45.5t43.5 -15.5t43.5 15.5t18.5 45.5h85q-1 -30 -11.5 -57t-29 -46.5t-45.5 -31t-61 -11.5z" />
    <glyph glyph-name="uni0307" unicode="&#x307;" 
d="M245 730h110v-118h-110v118z" />
    <glyph glyph-name="uni0308" unicode="&#x308;" 
d="M150 730h108v-118h-108v118zM341 730h108v-118h-108v118z" />
    <glyph glyph-name="hookabovecomb" unicode="&#x309;" 
d="M255 594v18q0 24 7.5 37.5t38.5 30.5q24 13 30.5 19t6.5 17q0 12 -9 16.5t-35 4.5q-19 0 -43 -4.5t-42 -11.5v64q16 7 39.5 11.5t47.5 4.5q63 0 91 -21t28 -57q0 -33 -14 -47t-28 -23q-25 -15 -31.5 -21.5t-6.5 -21.5v-16h-80z" />
    <glyph glyph-name="uni030A" unicode="&#x30a;" 
d="M299 648q21 0 33.5 12t12.5 34q0 21 -12.5 33.5t-33.5 12.5q-20 0 -32.5 -12.5t-12.5 -33.5q0 -22 12.5 -34t32.5 -12zM299 585q-24 0 -44.5 9t-36 24t-24 34.5t-8.5 41.5t8.5 41.5t24 34.5t36 23.5t44.5 8.5t45 -8.5t36.5 -23.5t24 -34.5t8.5 -41.5t-8.5 -41.5
t-24 -34.5t-36.5 -24t-45 -9z" />
    <glyph glyph-name="uni030B" unicode="&#x30b;" 
d="M353 745h115l-71 -142h-93zM182 745h116l-71 -142h-95z" />
    <glyph glyph-name="uni030C" unicode="&#x30c;" horiz-adv-x="604" 
d="M353 592h-108l-107 161h100l61 -77l61 77h100z" />
    <glyph glyph-name="uni030F" unicode="&#x30f;" 
d="M298 603h-94l-72 142h115zM468 603h-95l-75 142h120z" />
    <glyph glyph-name="uni0310" unicode="&#x310;" 
d="M300 604q-36 0 -63.5 11.5t-47 31t-30.5 46.5t-12 57h85q6 -62 68 -62t68 62h85q-1 -30 -12 -57t-30.5 -46.5t-47 -31t-63.5 -11.5zM249 838h100v-107h-100v107z" />
    <glyph glyph-name="uni0311" unicode="&#x311;" 
d="M300 750q34 0 61 -11.5t45.5 -31t29 -46.5t11.5 -57h-85q-6 61 -62 61t-62 -61h-85q1 30 11.5 57t29.5 46.5t45.5 31t60.5 11.5z" />
    <glyph glyph-name="uni0316" unicode="&#x316;" 
d="M421 -211h-137l-115 142h162z" />
    <glyph glyph-name="uni0317" unicode="&#x317;" 
d="M269 -69h162l-115 -142h-137z" />
    <glyph glyph-name="dotbelowcomb" unicode="&#x323;" 
d="M245 -79h110v-118h-110v118z" />
    <glyph glyph-name="uni0324" unicode="&#x324;" 
d="M150 -79h108v-118h-108v118zM341 -79h108v-118h-108v118z" />
    <glyph glyph-name="uni0325" unicode="&#x325;" 
d="M299 -188q21 0 33.5 12t12.5 34q0 21 -12.5 34t-33.5 13q-20 0 -32.5 -13t-12.5 -34q0 -22 12.5 -34t32.5 -12zM299 -251q-24 0 -44.5 9t-36 24t-24 34.5t-8.5 41.5t8.5 41.5t24 34.5t36 23.5t44.5 8.5t45 -8.5t36.5 -23.5t24 -34.5t8.5 -41.5t-8.5 -41.5t-24 -34.5
t-36.5 -24t-45 -9z" />
    <glyph glyph-name="uni0326" unicode="&#x326;" 
d="M257 -50h134l-66 -187h-109z" />
    <glyph glyph-name="uni0327" unicode="&#x327;" 
d="M295 -269q-20 0 -44 2t-46 6v78q15 -2 33 -3.5t41 -1.5q37 0 52 11.5t15 25.5v8q0 18 -16 27.5t-62 9.5h-22v137h100v-81q33 -3 54.5 -11t34 -20.5t17.5 -29.5t5 -37v-8q0 -62 -44.5 -87.5t-117.5 -25.5z" />
    <glyph glyph-name="uni0328" unicode="&#x328;" 
d="M327 -228q-73 0 -108 30t-35 72v9q0 19 9 37.5t23.5 34.5t33 27.5t37.5 17.5h103q-39 -20 -64 -49t-25 -52v-8q0 -20 14.5 -26.5t37.5 -6.5q15 0 31.5 2t27.5 5v-82q-13 -4 -35 -7.5t-50 -3.5z" />
    <glyph glyph-name="uni032C" unicode="&#x32c;" 
d="M139 -62h98l62 -78l61 78h100l-106 -161h-109z" />
    <glyph glyph-name="uni032D" unicode="&#x32d;" 
d="M245 -63h109l106 -162h-100l-61 78l-62 -78h-98z" />
    <glyph glyph-name="uni032E" unicode="&#x32e;" 
d="M303 -212q-34 0 -60.5 11.5t-45.5 31t-29.5 46t-11.5 56.5h85q4 -30 18.5 -45.5t43.5 -15.5t43.5 15.5t18.5 45.5h85q-1 -30 -11.5 -56.5t-29 -46t-45.5 -31t-61 -11.5z" />
    <glyph glyph-name="uni032F" unicode="&#x32f;" 
d="M303 -68q34 0 61 -11.5t45.5 -31t29 -46t11.5 -57.5h-85q-4 31 -18.5 46t-43.5 15t-43.5 -15t-18.5 -46h-85q1 31 11.5 57.5t29.5 46t45.5 31t60.5 11.5z" />
    <glyph glyph-name="uni0330" unicode="&#x330;" 
d="M360 -214q-25 0 -41 8t-28 17t-22 17t-23 8q-16 0 -24 -15t-11 -34h-85q3 24 10 49t20 46t32.5 34t48.5 13q26 0 43 -8t29.5 -17t22.5 -17t22 -8q19 0 25 16t8 35h85q-2 -23 -8 -48t-19 -46.5t-33.5 -35.5t-51.5 -14z" />
    <glyph glyph-name="uni0331" unicode="&#x331;" 
d="M147 -89h306v-98h-306v98z" />
    <glyph glyph-name="uni0340" unicode="&#x340;" 
d="M404 603h-135l-115 142h160z" />
    <glyph glyph-name="uni0341" unicode="&#x341;" 
d="M275 745h160l-115 -142h-135z" />
    <glyph glyph-name="uni0342" unicode="&#x342;" 
d="M360 603q-25 0 -41 7.5t-28 17t-22 17t-23 7.5q-16 0 -24 -14.5t-11 -34.5h-85q3 24 10 49t20 46t32.5 34t48.5 13q26 0 43 -7.5t29.5 -17t22.5 -17t22 -7.5q19 0 25 15.5t8 35.5h85q-2 -23 -8 -48t-19 -46.5t-33.5 -35.5t-51.5 -14z" />
    <glyph glyph-name="uni0400" unicode="&#x400;" horiz-adv-x="618" 
d="M561 750v-125h-339v-179h307v-124h-307v-197h354v-125h-508v750h493zM411 803h-135l-115 142h160z" />
    <glyph glyph-name="uni0401" unicode="&#x401;" horiz-adv-x="618" 
d="M561 750v-125h-339v-179h307v-124h-307v-197h354v-125h-508v750h493zM177 930h108v-118h-108v118zM368 930h108v-118h-108v118z" />
    <glyph glyph-name="uni0402" unicode="&#x402;" horiz-adv-x="796" 
d="M739 -33q0 -58 -8.5 -94.5t-29 -57.5t-53.5 -28.5t-81 -7.5q-29 0 -51.5 3t-45.5 10v115q20 -4 34 -6t31 -2q32 0 43 15t11 60v277q0 42 -13.5 62.5t-53.5 20.5q-28 0 -62.5 -11t-63.5 -31v-292h-149v621h-221v129h609v-129h-239v-215q38 22 82.5 35.5t84.5 13.5
q49 0 82.5 -12.5t54.5 -35t30 -54t9 -68.5v-318z" />
    <glyph glyph-name="uni0403" unicode="&#x403;" horiz-adv-x="604" 
d="M68 750h508v-125h-354v-625h-154v750zM317 945h160l-115 -142h-135z" />
    <glyph glyph-name="uni0404" unicode="&#x404;" horiz-adv-x="630" 
d="M583 608q-35 9 -83.5 13.5t-97.5 4.5q-56 0 -94 -10t-61.5 -32t-33.5 -57t-10 -85v-3h305v-131h-305q0 -51 10 -86t33.5 -56.5t61 -31.5t93.5 -10q43 0 94 5t99 19v-127q-45 -18 -101.5 -24.5t-107.5 -6.5q-92 0 -156 17t-104.5 55t-59 99t-18.5 150v118q0 94 21 157.5
t63 102t105 55t148 16.5q27 0 55 -1.5t54 -4.5t49 -7.5t41 -11.5v-127z" />
    <glyph glyph-name="uni0405" unicode="&#x405;" horiz-adv-x="619" 
d="M583 215q0 -51 -14.5 -92.5t-47.5 -71t-87 -45.5t-133 -16q-27 0 -59 2t-65.5 6t-67 11t-63.5 17v126q74 -23 133.5 -30t101.5 -7q80 0 113 22.5t33 68.5q0 20 -4.5 34.5t-18 25.5t-38.5 20.5t-65 20.5l-80 21q-83 22 -128 72t-45 143q0 108 63 162.5t209 54.5
q31 0 62 -1.5t59.5 -5t52.5 -8t42 -10.5v-117q-40 11 -90.5 15.5t-92.5 4.5q-46 0 -75.5 -5.5t-46 -16.5t-23 -27.5t-6.5 -39.5q0 -22 6.5 -36.5t20.5 -24t35 -17t51 -14.5l81 -21q54 -14 90 -33t57.5 -45t30.5 -61t9 -82z" />
    <glyph glyph-name="uni0406" unicode="&#x406;" horiz-adv-x="290" 
d="M222 0h-154v750h154v-750z" />
    <glyph glyph-name="uni0407" unicode="&#x407;" horiz-adv-x="290" 
d="M222 0h-154v750h154v-750zM-4 930h108v-118h-108v118zM187 930h108v-118h-108v118z" />
    <glyph glyph-name="uni0408" unicode="&#x408;" horiz-adv-x="450" 
d="M384 750v-541q0 -53 -10 -93.5t-35.5 -68.5t-68 -42.5t-106.5 -14.5q-30 0 -68.5 6t-67.5 20v130q31 -11 61 -16t54 -5q50 0 68.5 21t18.5 77v527h154z" />
    <glyph glyph-name="uni0409" unicode="&#x409;" horiz-adv-x="1075" 
d="M318 362q0 -95 -13 -163.5t-44.5 -112.5t-84.5 -65t-133 -21h-20v134h15q34 0 59 9.5t41 32t23.5 58.5t7.5 89v427h498v-251h98q70 0 122 -8.5t85.5 -30t50 -58t16.5 -93.5v-113q0 -62 -18 -100t-51.5 -59.5t-81 -29t-106.5 -7.5h-264v623h-200v-261zM760 108q69 0 98 21
t29 74v87q0 31 -5.5 50.5t-20.5 30t-40.5 14.5t-65.5 4h-88v-281h93z" />
    <glyph glyph-name="uni040A" unicode="&#x40a;" horiz-adv-x="1063" 
d="M505 750h149v-287h99q70 0 122 -8.5t85.5 -29.5t50 -58t16.5 -94v-77q0 -62 -18 -100t-51.5 -59.5t-81 -29t-106.5 -7.5h-265v332h-288v-332h-150v750h150v-286h288v286zM748 108q69 0 98 20.5t29 74.5v52q0 31 -5.5 50.5t-20.5 30t-41 14.5t-66 4h-88v-246h94z" />
    <glyph glyph-name="uni040B" unicode="&#x40b;" horiz-adv-x="796" 
d="M589 0v251q0 42 -13.5 62.5t-53.5 20.5q-28 0 -62.5 -11t-63.5 -31v-292h-149v621h-221v129h609v-129h-239v-215q38 22 82.5 35.5t84.5 13.5q49 0 82.5 -12.5t54.5 -35t30 -54t9 -68.5v-285h-150z" />
    <glyph glyph-name="uni040C" unicode="&#x40c;" horiz-adv-x="720" 
d="M430 380l274 -380h-181l-217 316h-84v-316h-154v750h154v-309h80l194 309h179zM344 945h160l-115 -142h-135z" />
    <glyph glyph-name="uni040D" unicode="&#x40d;" horiz-adv-x="730" 
d="M68 750h141v-545q12 33 32 70l262 475h159v-750h-141v539q-8 -23 -17 -44t-19 -38l-257 -457h-160v750zM470 803h-135l-115 142h160z" />
    <glyph glyph-name="uni040E" unicode="&#x40e;" horiz-adv-x="619" 
d="M325 0h-168l73 201q-52 138 -106.5 274.5t-105.5 274.5h165l106 -294q8 -23 15 -48.5t11 -54.5q5 28 11.5 50t16.5 51l104 296h158zM316 804q-34 0 -60.5 11.5t-45.5 31t-29.5 46.5t-11.5 57h85q4 -30 18.5 -45.5t43.5 -15.5t43.5 15.5t18.5 45.5h85q-1 -30 -11.5 -57
t-29 -46.5t-45.5 -31t-61 -11.5z" />
    <glyph glyph-name="uni040F" unicode="&#x40f;" horiz-adv-x="729" 
d="M661 0h-224v-154h-145v154h-225v750h153v-615h288v615h153v-750z" />
    <glyph glyph-name="uni0410" unicode="&#x410;" horiz-adv-x="726" 
d="M444 750l274 -750h-171l-60 180h-260l-60 -180h-159l264 750h172zM265 309h182l-57 173q-11 35 -17.5 64t-15.5 69q-9 -40 -16.5 -69t-18.5 -64z" />
    <glyph glyph-name="uni0411" unicode="&#x411;" horiz-adv-x="678" 
d="M68 750h512v-112h-354v-180h146q68 0 118 -9.5t83 -32t49 -60t16 -92.5v-71q0 -55 -16 -92t-48 -59.5t-82 -32t-117 -9.5h-307v750zM351 103q70 0 97.5 21t27.5 71v63q0 28 -6.5 47t-21.5 30t-40 16t-63 5h-119v-253h125z" />
    <glyph glyph-name="uni0412" unicode="&#x412;" horiz-adv-x="676" 
d="M68 750h294q55 0 100.5 -6.5t78 -25t50 -51t17.5 -83.5v-50q0 -22 -4.5 -43t-15 -39.5t-29 -33t-46.5 -23.5q65 -14 93 -50t28 -89v-78q0 -54 -16.5 -88.5t-50 -54.5t-85.5 -27.5t-123 -7.5h-291v750zM222 333v-217h121q40 0 65.5 4t40.5 14.5t20.5 27.5t5.5 44v35
q0 25 -6 43t-20 28.5t-37 15.5t-58 5h-132zM222 634v-193h126q23 0 41.5 3t32 12.5t21 27t7.5 45.5v30q0 46 -24.5 60.5t-86.5 14.5h-117z" />
    <glyph glyph-name="uni0413" unicode="&#x413;" horiz-adv-x="604" 
d="M68 750h508v-125h-354v-625h-154v750z" />
    <glyph glyph-name="uni0414" unicode="&#x414;" horiz-adv-x="822" 
d="M648 0h-474v-154h-144v277h36q64 0 95 54.5t31 147.5v425h500v-627h100v-277h-144v154zM342 370q0 -45 -1.5 -82t-8 -67t-20 -54.5t-36.5 -43.5h266v504h-200v-257z" />
    <glyph glyph-name="uni0415" unicode="&#x415;" horiz-adv-x="618" 
d="M561 750v-125h-339v-179h307v-124h-307v-197h354v-125h-508v750h493z" />
    <glyph glyph-name="uni0416" unicode="&#x416;" horiz-adv-x="983" 
d="M570 433h19l176 317h176l-236 -368l268 -382h-180l-203 323h-20v-323h-154v323h-23l-203 -323h-180l267 382l-235 368h176l176 -317h22v317h154v-317z" />
    <glyph glyph-name="uni0417" unicode="&#x417;" horiz-adv-x="639" 
d="M193 326v117h99q61 0 87 25.5t26 78.5q0 49 -29 70.5t-100 21.5q-48 0 -100 -10t-97 -26v122q37 14 96.5 26t122.5 12q70 0 119 -13t79.5 -39t44 -64t13.5 -87q0 -25 -5 -51t-18.5 -49.5t-36 -42.5t-58.5 -29q77 -17 108 -61.5t31 -115.5q0 -111 -66 -166t-217 -55
q-33 0 -66.5 3t-64.5 8.5t-57.5 12t-45.5 14.5v123q22 -8 49 -15t56.5 -12t59.5 -8t57 -3q82 0 113.5 27t31.5 78q0 33 -8 54t-24.5 33t-41 16.5t-57.5 4.5h-101z" />
    <glyph glyph-name="uni0418" unicode="&#x418;" horiz-adv-x="730" 
d="M68 750h141v-545q12 33 32 70l262 475h159v-750h-141v539q-8 -23 -17 -44t-19 -38l-257 -457h-160v750z" />
    <glyph glyph-name="uni0419" unicode="&#x419;" horiz-adv-x="730" 
d="M68 750h141v-545q12 33 32 70l262 475h159v-750h-141v539q-8 -23 -17 -44t-19 -38l-257 -457h-160v750zM365 804q-34 0 -60.5 11.5t-45.5 31t-29.5 46.5t-11.5 57h85q4 -30 18.5 -45.5t43.5 -15.5t43.5 15.5t18.5 45.5h85q-1 -30 -11.5 -57t-29 -46.5t-45.5 -31
t-61 -11.5z" />
    <glyph glyph-name="uni041A" unicode="&#x41a;" horiz-adv-x="720" 
d="M430 380l274 -380h-181l-217 316h-84v-316h-154v750h154v-309h80l194 309h179z" />
    <glyph glyph-name="uni041B" unicode="&#x41b;" horiz-adv-x="738" 
d="M20 125h13q33 0 58 8t41 32t24 67.5t8 114.5v403h506v-750h-154v625h-198v-277q0 -93 -15.5 -159t-49.5 -108t-88 -61.5t-132 -19.5h-13v125z" />
    <glyph glyph-name="uni041C" unicode="&#x41c;" horiz-adv-x="891" 
d="M823 0h-140v493q0 29 2.5 61t5.5 64q-4 -20 -7.5 -40.5t-7 -39.5t-7 -34.5t-6.5 -25.5l-131 -478h-169l-136 484q-6 17 -14 49.5t-15 67.5q4 -29 5.5 -53t1.5 -51v-497h-137v750h203l153 -522q7 -23 13 -47t11 -50q5 25 10.5 49t12.5 47l144 523h208v-750z" />
    <glyph glyph-name="uni041D" unicode="&#x41d;" horiz-adv-x="739" 
d="M671 750v-750h-154v317h-295v-317h-154v750h154v-295h295v295h154z" />
    <glyph glyph-name="uni041E" unicode="&#x41e;" horiz-adv-x="758" 
d="M713 315q0 -163 -86.5 -245.5t-247.5 -82.5t-247.5 82.5t-86.5 245.5v120q0 81 23 142t66.5 102.5t105 62.5t139.5 21t139.5 -21t105 -62.5t66.5 -102.5t23 -142v-120zM558 426q0 110 -45 158.5t-134 48.5t-134 -48.5t-45 -158.5v-102q0 -111 45 -159t134 -48t134 48
t45 159v102z" />
    <glyph glyph-name="uni041F" unicode="&#x41f;" horiz-adv-x="739" 
d="M671 750v-750h-154v616h-295v-616h-154v750h603z" />
    <glyph glyph-name="uni0420" unicode="&#x420;" horiz-adv-x="656" 
d="M68 750h296q61 0 109.5 -8t82.5 -30t52 -61t18 -101v-71q0 -58 -16.5 -96t-50.5 -60t-86 -31t-123 -9h-128v-283h-154v750zM222 635v-239h106q41 0 68.5 4t44.5 14.5t24 29t7 47.5v55q0 49 -29 69t-98 20h-123z" />
    <glyph glyph-name="uni0421" unicode="&#x421;" horiz-adv-x="630" 
d="M583 608q-35 9 -83.5 13.5t-97.5 4.5q-56 0 -94 -10t-61.5 -32t-33.5 -57t-10 -85v-127q0 -53 9.5 -89t32.5 -59t61 -33t95 -10q43 0 94 5t99 19v-127q-45 -18 -101.5 -24.5t-107.5 -6.5q-92 0 -156 17t-104.5 55t-59 99t-18.5 150v118q0 94 21 157.5t63 102t105 55
t148 16.5q27 0 55 -1.5t54 -4.5t49 -7.5t41 -11.5v-127z" />
    <glyph glyph-name="uni0422" unicode="&#x422;" horiz-adv-x="642" 
d="M20 616v134h602v-134h-224v-616h-154v616h-224z" />
    <glyph glyph-name="uni0423" unicode="&#x423;" horiz-adv-x="619" 
d="M325 0h-168l73 201q-52 138 -106.5 274.5t-105.5 274.5h165l106 -294q8 -23 15 -48.5t11 -54.5q5 28 11.5 50t16.5 51l104 296h158z" />
    <glyph glyph-name="uni0424" unicode="&#x424;" horiz-adv-x="829" 
d="M490 765v-62q72 -3 128 -17.5t94.5 -46t58.5 -83.5t20 -129v-72q0 -125 -71.5 -197.5t-229.5 -82.5v-79h-157v80q-151 7 -223 75.5t-72 203.5v67q0 80 20 132.5t57.5 85t92.5 47t125 17.5v61h157zM195 367q0 -51 6.5 -81.5t22.5 -48t42.5 -24t66.5 -9.5v370
q-38 -3 -64 -10t-42.5 -24.5t-24 -48.5t-7.5 -82v-42zM634 409q0 51 -7.5 82t-25 48t-45 24t-66.5 10v-369q42 2 69.5 8.5t44 24t23.5 48.5t7 82v42z" />
    <glyph glyph-name="uni0425" unicode="&#x425;" horiz-adv-x="740" 
d="M426 184q-18 31 -31 56.5t-29 60.5q-11 -29 -27.5 -60.5t-30.5 -56.5l-106 -184h-177l234 388l-219 362h181l93 -164q15 -27 31 -56.5t35 -68.5q13 35 28 66.5t32 60.5l92 162h172l-220 -367l231 -383h-181z" />
    <glyph glyph-name="uni0426" unicode="&#x426;" horiz-adv-x="779" 
d="M68 750h154v-620h272v620h154v-620h101v-284h-147v154h-534v750z" />
    <glyph glyph-name="uni0427" unicode="&#x427;" horiz-adv-x="728" 
d="M660 0h-154v332q-55 -38 -120 -57.5t-133 -19.5q-41 0 -76.5 10.5t-61.5 32.5t-41.5 56.5t-15.5 81.5v314h153v-272q0 -56 21 -76.5t65 -20.5q47 0 101 17t108 55v297h154v-750z" />
    <glyph glyph-name="uni0428" unicode="&#x428;" horiz-adv-x="929" 
d="M68 750h150v-618h171v618h151v-618h171v618h150v-750h-793v750z" />
    <glyph glyph-name="uni0429" unicode="&#x429;" horiz-adv-x="984" 
d="M68 750h150v-620h167v620h151v-620h167v620h150v-620h101v-284h-145v154h-741v750z" />
    <glyph glyph-name="uni042A" unicode="&#x42a;" horiz-adv-x="780" 
d="M211 0v622h-195v128h348v-255h112q69 0 119.5 -10t83.5 -33.5t49 -61.5t16 -94v-96q0 -58 -17 -96.5t-50 -61.5t-81 -32.5t-109 -9.5h-276zM466 111q66 0 94.5 21.5t28.5 70.5v81q0 29 -7 48t-22.5 30.5t-42 16t-65.5 4.5h-88v-272h102z" />
    <glyph glyph-name="uni042B" unicode="&#x42b;" horiz-adv-x="865" 
d="M68 0v750h153v-254h75q69 0 119.5 -10t83.5 -33.5t49 -61.5t16 -94v-97q0 -58 -17 -96.5t-50 -61.5t-81 -32.5t-109 -9.5h-239zM644 0v750h153v-750h-153zM281 112q66 0 94.5 21t28.5 70v82q0 29 -5.5 48t-20 30.5t-39 16t-63.5 4.5h-55v-272h60z" />
    <glyph glyph-name="uni042C" unicode="&#x42c;" horiz-adv-x="643" 
d="M68 0v750h159v-251h112q69 0 119.5 -10t83.5 -33.5t49 -61.5t16 -94v-100q0 -58 -17 -96.5t-50 -61.5t-81 -32.5t-109 -9.5h-282zM329 111q66 0 94.5 21.5t28.5 70.5v85q0 29 -7 48t-22.5 30.5t-42 16t-65.5 4.5h-88v-276h102z" />
    <glyph glyph-name="uni042D" unicode="&#x42d;" horiz-adv-x="634" 
d="M51 735q18 7 41 11.5t49 7.5t54 4.5t55 1.5q85 0 148 -16.5t105 -55t63 -102t21 -157.5v-118q0 -89 -18.5 -150t-59 -99t-104.5 -55t-156 -17q-51 0 -107.5 6.5t-101.5 24.5v127q48 -14 99 -19t94 -5q52 0 89.5 8t61.5 28.5t35.5 56.5t11.5 92h-304v130h304v3
q0 50 -10 85t-33.5 57t-61.5 32t-94 10q-49 0 -97.5 -4.5t-83.5 -13.5v127z" />
    <glyph glyph-name="uni042E" unicode="&#x42e;" horiz-adv-x="981" 
d="M936 309q0 -322 -316 -322t-316 322v7h-80v-316h-156v750h156v-319h80v10q0 322 316 322t316 -322v-132zM776 435q0 57 -10 95t-29.5 61t-48.5 32.5t-68 9.5t-68 -9.5t-49 -32.5t-30 -61t-10 -95v-120q0 -57 10 -95t30 -61t49 -32.5t68 -9.5t68 9.5t48.5 32.5t29.5 61
t10 95v120z" />
    <glyph glyph-name="uni042F" unicode="&#x42f;" horiz-adv-x="685" 
d="M617 0h-154v293h-147l-135 -293h-163l147 313q-56 19 -82.5 60t-26.5 116v61q0 62 18 101t51.5 61t82 30t109.5 8h300v-750zM337 635q-69 0 -98 -20t-29 -68v-46q0 -29 7 -48t24 -29.5t44.5 -14.5t68.5 -4h109v230h-126z" />
    <glyph glyph-name="uni0430" unicode="&#x430;" horiz-adv-x="557" 
d="M503 0h-114l-14 48q-29 -22 -77.5 -40t-106.5 -18q-159 0 -159 162v29q0 89 64 124.5t192 35.5h70v29q0 25 -4 42t-14.5 27t-29 14t-47.5 4q-16 0 -36.5 -2t-43 -6t-45 -9.5t-42.5 -12.5v108q20 7 44.5 12.5t50 9.5t50.5 6.5t46 2.5q69 0 111.5 -16t66 -43.5t31 -64
t7.5 -76.5v-366zM358 244h-72q-60 0 -84 -15t-24 -55v-10q0 -35 14.5 -50t45.5 -15q29 0 61 9.5t59 26.5v109z" />
    <glyph glyph-name="uni0431" unicode="&#x431;" horiz-adv-x="657" 
d="M619 228q0 -57 -19 -101.5t-55 -75t-87 -46.5t-114 -16q-84 0 -141 16.5t-92 53.5t-50 96t-15 144v134q0 98 28.5 163.5t90.5 104.5t159.5 55.5t236.5 16.5v-101q-52 1 -108.5 -4t-101.5 -15q-39 -9 -67 -21.5t-46 -34t-26 -54t-8 -80.5q45 23 92 34.5t95 11.5
q43 0 84.5 -11t73 -38t51 -71t19.5 -110v-51zM350 398q-38 0 -76 -11t-70 -31v-64q0 -55 9 -91t27 -57t43.5 -29.5t58.5 -8.5q29 0 52 6t39 22t24.5 42t8.5 67v17q0 42 -7 69t-21.5 42t-36.5 21t-51 6z" />
    <glyph glyph-name="uni0432" unicode="&#x432;" horiz-adv-x="559" 
d="M60 0v552h275q41 0 73 -5.5t53.5 -20t32.5 -39.5t11 -63v-32q0 -34 -15 -63.5t-53 -40.5q44 -7 65 -31.5t21 -78.5v-36q0 -81 -53 -111.5t-152 -30.5h-258zM306 106q42 0 54.5 13.5t12.5 47.5v5q0 20 -2.5 32.5t-10.5 19t-22 8.5t-37 2h-91v-128h96zM302 329
q32 0 43.5 13t11.5 43v5q0 35 -12 47.5t-48 12.5h-87v-121h92z" />
    <glyph glyph-name="uni0433" unicode="&#x433;" horiz-adv-x="479" 
d="M463 552v-117h-253v-435h-150v552h403z" />
    <glyph glyph-name="uni0434" unicode="&#x434;" horiz-adv-x="689" 
d="M524 0h-370v-154h-140v260h10q69 0 97 41t28 124v281h425v-446h90v-260h-140v154zM292 311q0 -35 -2 -65.5t-8.5 -56t-20 -46.5t-36.5 -37h206v340h-139v-135z" />
    <glyph glyph-name="uni0435" unicode="&#x435;" horiz-adv-x="586" 
d="M548 225h-357v-11q0 -64 34 -90t114 -26q33 0 78.5 5t84.5 19v-105q-18 -7 -40 -12.5t-46 -9t-48 -5t-45 -1.5q-141 0 -209.5 60t-68.5 192v67q0 69 19.5 118t54 80t80 45.5t98.5 14.5q57 0 103.5 -13.5t79 -45t50.5 -83.5t18 -129v-70zM406 320v19q0 52 -24.5 84.5
t-82.5 32.5q-55 0 -81.5 -32.5t-26.5 -85.5v-18h215z" />
    <glyph glyph-name="uni0436" unicode="&#x436;" horiz-adv-x="797" 
d="M327 341v211h144v-211h19l139 211h155l-186 -262l194 -290h-166l-138 237h-17v-237h-144v237h-17l-139 -237h-166l194 290l-186 262h155l139 -211h20z" />
    <glyph glyph-name="uni0437" unicode="&#x437;" horiz-adv-x="491" 
d="M127 233v102h75q45 0 64 17t19 49t-22.5 46.5t-68.5 14.5q-42 0 -80.5 -6t-70.5 -17v98q27 11 73 20t98 9q109 0 165 -35.5t56 -109.5q0 -22 -5 -42.5t-18 -37.5t-34 -29.5t-53 -18.5q67 -11 96.5 -43.5t29.5 -90.5q0 -77 -60 -124t-189 -47q-50 0 -97 8.5t-75 19.5v104
q32 -10 77 -16.5t90 -6.5q57 0 80.5 17t23.5 55t-25.5 51t-72.5 13h-76z" />
    <glyph glyph-name="uni0438" unicode="&#x438;" horiz-adv-x="627" 
d="M199 169q9 32 20 57.5t25 50.5l148 275h175v-552h-139v384q-11 -33 -22 -55.5t-26 -50.5l-145 -278h-175v552h139v-383z" />
    <glyph glyph-name="uni0439" unicode="&#x439;" horiz-adv-x="627" 
d="M199 169q9 32 20 57.5t25 50.5l148 275h175v-552h-139v384q-11 -33 -22 -55.5t-26 -50.5l-145 -278h-175v552h139v-383zM318 604q-34 0 -60.5 11.5t-45.5 31t-29.5 46.5t-11.5 57h85q4 -30 18.5 -45.5t43.5 -15.5t43.5 15.5t18.5 45.5h85q-1 -30 -11.5 -57t-29 -46.5
t-45.5 -31t-61 -11.5z" />
    <glyph glyph-name="uni043A" unicode="&#x43a;" horiz-adv-x="577" 
d="M209 550v-197h48l141 197h166l-187 -256l195 -294h-177l-145 231h-41v-231h-149v550h149z" />
    <glyph glyph-name="uni043B" unicode="&#x43b;" horiz-adv-x="614" 
d="M10 112h16q33 0 53 10.5t30.5 35.5t14 67t3.5 106v221h427v-552h-150v443h-127v-145q0 -74 -9.5 -129.5t-35.5 -92t-72 -55t-119 -18.5h-31v109z" />
    <glyph glyph-name="uni043C" unicode="&#x43c;" horiz-adv-x="759" 
d="M699 0h-136v363q0 20 1 49t3 54q-5 -29 -10 -58.5t-10 -50.5l-81 -357h-177l-83 358q-5 20 -10.5 46.5t-11.5 61.5q2 -26 3 -53.5t1 -49.5v-363h-128v552h220l83 -354q2 -9 4.5 -23.5t5 -31t4.5 -32.5t4 -27q1 11 3.5 27t4.5 32t4.5 30.5t4.5 23.5l80 355h221v-552z" />
    <glyph glyph-name="uni043D" unicode="&#x43d;" horiz-adv-x="622" 
d="M60 552h150v-206h202v206h150v-552h-150v232h-202v-232h-150v552z" />
    <glyph glyph-name="uni043E" unicode="&#x43e;" horiz-adv-x="609" 
d="M564 239q0 -124 -66 -187.5t-194 -63.5q-127 0 -193 63.5t-66 187.5v76q0 121 66 186t193 65q128 0 194 -65t66 -186v-76zM414 308q0 79 -28 111t-81 32q-54 0 -82 -32t-28 -111v-62q0 -79 28 -110.5t82 -31.5q53 0 81 31.5t28 110.5v62z" />
    <glyph glyph-name="uni043F" unicode="&#x43f;" horiz-adv-x="603" 
d="M60 552h483v-552h-150v432h-183v-432h-150v552z" />
    <glyph glyph-name="uni0440" unicode="&#x440;" horiz-adv-x="623" 
d="M60 -216v768h117l14 -43q45 27 95 42t97 15q49 0 85 -13.5t59.5 -37.5t34.5 -57.5t11 -73.5v-176q0 -59 -15.5 -100.5t-45 -67.5t-71 -38.5t-92.5 -12.5q-32 0 -68 5t-71 16v-226h-150zM210 121q23 -8 50 -12t50 -4q34 0 56 8t35 24t17.5 40.5t4.5 58.5v108
q0 52 -18.5 76.5t-66.5 24.5q-34 0 -68 -12.5t-60 -28.5v-283z" />
    <glyph glyph-name="uni0441" unicode="&#x441;" horiz-adv-x="527" 
d="M477 433q-24 8 -61 13t-78 5q-43 0 -71 -9t-44.5 -27t-23 -44.5t-6.5 -60.5v-68q0 -36 6.5 -62t23 -42.5t44.5 -24.5t72 -8q33 0 70.5 5t77.5 19v-114q-17 -7 -39 -12t-45 -8.5t-45 -5t-40 -1.5q-140 0 -206.5 59.5t-66.5 191.5v66q0 139 69.5 200t202.5 61
q42 0 86.5 -5.5t73.5 -17.5v-110z" />
    <glyph glyph-name="uni0442" unicode="&#x442;" horiz-adv-x="488" 
d="M478 552v-117h-159v-435h-150v435h-159v117h468z" />
    <glyph glyph-name="uni0443" unicode="&#x443;" horiz-adv-x="579" 
d="M571 552l-276 -765h-157l76 214l-206 551h153l103 -310q8 -23 15.5 -51.5t14.5 -66.5q3 13 7.5 30t9 33.5t8.5 31t7 22.5l98 311h147z" />
    <glyph glyph-name="uni0444" unicode="&#x444;" horiz-adv-x="756" 
d="M304 -11q-142 10 -208 78t-66 199v26q0 72 18.5 123.5t53.5 85.5t86 52t116 22v175h148v-175q65 -4 116 -22t86 -52t53.5 -85.5t18.5 -123.5v-26q0 -131 -66 -199t-208 -78v-208h-148v208zM577 284q0 48 -8.5 81t-24.5 54.5t-39 33t-53 15.5v-372q30 4 53 14.5t39 31
t24.5 53t8.5 80.5v9zM179 275q0 -48 8.5 -80.5t24.5 -53t39 -31t53 -14.5v372q-30 -4 -53 -15.5t-39 -33t-24.5 -54.5t-8.5 -81v-9z" />
    <glyph glyph-name="uni0445" unicode="&#x445;" horiz-adv-x="585" 
d="M185 552l54 -87q14 -23 28 -47.5t28 -53.5q13 26 26 51.5t26 48.5l50 88h158l-173 -270l185 -282h-163l-65 103q-14 22 -25.5 44.5t-22.5 45.5q-21 -47 -51 -93l-63 -100h-159l185 279l-180 273h162z" />
    <glyph glyph-name="uni0446" unicode="&#x446;" horiz-adv-x="668" 
d="M503 0h-443v552h150v-443h193v443h150v-443h90v-263h-140v154z" />
    <glyph glyph-name="uni0447" unicode="&#x447;" horiz-adv-x="588" 
d="M40 552h154v-181q0 -39 15.5 -54.5t44.5 -15.5q28 0 60 10.5t61 33.5v207h153v-552h-153v234q-35 -22 -79.5 -36.5t-83.5 -14.5q-95 0 -133.5 44t-38.5 121v204z" />
    <glyph glyph-name="uni0448" unicode="&#x448;" horiz-adv-x="882" 
d="M60 552h148v-439h160v439h146v-439h160v439h148v-552h-762v552z" />
    <glyph glyph-name="uni0449" unicode="&#x449;" horiz-adv-x="929" 
d="M60 552h148v-443h156v443h146v-443h156v443h148v-443h90v-263h-140v154h-704v552z" />
    <glyph glyph-name="uni044A" unicode="&#x44a;" horiz-adv-x="601" 
d="M151 0v443h-146v109h296v-178h81q46 0 81 -7.5t59 -25t36.5 -45.5t12.5 -69v-81q0 -42 -12.5 -70t-36 -45t-58.5 -24t-80 -7h-233zM365 104q38 0 52 11.5t14 43.5v50q0 38 -14 49.5t-56 11.5h-60v-166h64z" />
    <glyph glyph-name="uni044B" unicode="&#x44b;" horiz-adv-x="721" 
d="M60 0v552h145v-181h69q46 0 81 -7t59 -23.5t36.5 -44t12.5 -68.5v-78q0 -84 -48.5 -117t-138.5 -33h-216zM513 0v552h148v-552h-148zM257 102q38 0 52 11.5t14 43.5v52q0 38 -14 49.5t-56 11.5h-48v-168h52z" />
    <glyph glyph-name="uni044C" unicode="&#x44c;" horiz-adv-x="510" 
d="M60 0v552h145v-181h86q46 0 81 -6.5t59 -22.5t36.5 -43.5t12.5 -68.5v-78q0 -84 -48.5 -118t-138.5 -34h-233zM274 102q38 0 52 13.5t14 45.5v52q0 19 -4 30t-13.5 17t-25.5 8t-40 2h-52v-168h69z" />
    <glyph glyph-name="uni044D" unicode="&#x44d;" horiz-adv-x="527" 
d="M50 543q29 12 73.5 17.5t86.5 5.5q133 0 202.5 -61t69.5 -200v-66q0 -132 -66.5 -191.5t-206.5 -59.5q-18 0 -40 1.5t-45 5t-45 8.5t-39 12v114q40 -14 77.5 -19t70.5 -5q40 0 67.5 7t44 21t24 36.5t9.5 53.5h-241v108h241q-2 29 -10 51.5t-24.5 37.5t-43.5 23t-66 8
q-41 0 -78 -5t-61 -13v110z" />
    <glyph glyph-name="uni044E" unicode="&#x44e;" horiz-adv-x="825" 
d="M210 221v-221h-150v550h150v-219h64q7 112 71.5 172.5t181.5 60.5q123 0 188 -65t65 -186v-73q0 -123 -65 -186.5t-188 -63.5q-117 0 -182 58t-71 173h-64zM637 308q0 79 -28 111t-81 32q-54 0 -82 -32t-28 -111v-62q0 -79 28 -110.5t82 -31.5q53 0 81 31.5t28 110.5v62z
" />
    <glyph glyph-name="uni044F" unicode="&#x44f;" horiz-adv-x="588" 
d="M528 550v-550h-150v212h-110l-97 -212h-148l108 225q-41 14 -61 45.5t-20 88.5v44q0 84 48.5 115.5t138.5 31.5h291zM200 374q0 -38 18 -49.5t69 -11.5h91v135h-111q-38 0 -52.5 -11.5t-14.5 -43.5v-19z" />
    <glyph glyph-name="uni0450" unicode="&#x450;" horiz-adv-x="586" 
d="M548 225h-357v-11q0 -64 34 -90t114 -26q33 0 78.5 5t84.5 19v-105q-18 -7 -40 -12.5t-46 -9t-48 -5t-45 -1.5q-141 0 -209.5 60t-68.5 192v67q0 69 19.5 118t54 80t80 45.5t98.5 14.5q57 0 103.5 -13.5t79 -45t50.5 -83.5t18 -129v-70zM406 320v19q0 52 -24.5 84.5
t-82.5 32.5q-55 0 -81.5 -32.5t-26.5 -85.5v-18h215zM390 603h-135l-115 142h160z" />
    <glyph glyph-name="uni0451" unicode="&#x451;" horiz-adv-x="586" 
d="M548 225h-357v-11q0 -64 34 -90t114 -26q33 0 78.5 5t84.5 19v-105q-18 -7 -40 -12.5t-46 -9t-48 -5t-45 -1.5q-141 0 -209.5 60t-68.5 192v67q0 69 19.5 118t54 80t80 45.5t98.5 14.5q57 0 103.5 -13.5t79 -45t50.5 -83.5t18 -129v-70zM406 320v19q0 52 -24.5 84.5
t-82.5 32.5q-55 0 -81.5 -32.5t-26.5 -85.5v-18h215zM147 730h108v-118h-108v118zM338 730h108v-118h-108v118z" />
    <glyph glyph-name="uni0452" unicode="&#x452;" horiz-adv-x="650" 
d="M12 625h90v121l149 28v-149h155v-104h-155v-141q37 22 81.5 35.5t84.5 13.5q49 0 82.5 -12.5t54.5 -35t30 -54t9 -68.5v-296q0 -57 -8.5 -92.5t-28.5 -56t-53 -28t-82 -7.5q-29 0 -51.5 3t-45.5 10v115q20 -4 34 -6t31 -2q33 0 44 15t11 60v252q0 42 -16 63t-51 21
q-29 0 -63.5 -11t-62.5 -31v-268h-149v521h-90v104z" />
    <glyph glyph-name="uni0453" unicode="&#x453;" horiz-adv-x="479" 
d="M463 552v-117h-253v-435h-150v552h403zM205 745h160l-115 -142h-135z" />
    <glyph glyph-name="uni0454" unicode="&#x454;" horiz-adv-x="527" 
d="M477 433q-24 8 -61 13t-78 5q-40 0 -67 -8t-43.5 -23.5t-24.5 -38t-10 -52.5h240v-106h-240q1 -31 9 -53.5t25 -36.5t44 -21t68 -7q33 0 70.5 5t77.5 19v-114q-17 -7 -39 -12t-45 -8.5t-45 -5t-40 -1.5q-140 0 -206.5 59.5t-66.5 191.5v66q0 139 69.5 200t202.5 61
q42 0 86.5 -5.5t73.5 -17.5v-110z" />
    </font>
</defs>
</svg>
